  0
SECTION
  2
HEADER
  9
$ACADVER
  1
AC1032
  9
$ACADMAINTVER
 90
      159
  9
$DWGCODEPAGE
  3
ANSI_1250
  9
$LASTSAVEDBY
  1
vancura
  9
$REQUIREDVERSIONS
160
                 0
  9
$INSBASE
 10
0.0
 20
0.0
 30
0.0
  9
$EXTMIN
 10
223.0906526294155
 20
280.3240608941699
 30
0.0
  9
$EXTMAX
 10
457.5762995688219
 20
390.3490917505293
 30
0.0
  9
$LIMMIN
 10
0.0
 20
0.0
  9
$LIMMAX
 10
12.0
 20
9.0
  9
$ORTHOMODE
 70
     1
  9
$REGENMODE
 70
     1
  9
$FILLMODE
 70
     1
  9
$QTEXTMODE
 70
     0
  9
$MIRRTEXT
 70
     0
  9
$LTSCALE
 40
1.0
  9
$ATTMODE
 70
     1
  9
$TEXTSIZE
 40
0.2
  9
$TRACEWID
 40
0.05
  9
$TEXTSTYLE
  7
Standard
  9
$CLAYER
  8
0
  9
$CELTYPE
  6
ByLayer
  9
$CECOLOR
 62
     0
  9
$CELTSCALE
 40
1.0
  9
$DISPSILH
 70
     0
  9
$DIMSCALE
 40
1.0
  9
$DIMASZ
 40
30.0
  9
$DIMEXO
 40
0.0625
  9
$DIMDLI
 40
0.38
  9
$DIMRND
 40
0.0
  9
$DIMDLE
 40
0.0
  9
$DIMEXE
 40
0.18
  9
$DIMTP
 40
0.0
  9
$DIMTM
 40
0.0
  9
$DIMTXT
 40
30.0
  9
$DIMCEN
 40
0.09
  9
$DIMTSZ
 40
0.0
  9
$DIMTOL
 70
     0
  9
$DIMLIM
 70
     0
  9
$DIMTIH
 70
     0
  9
$DIMTOH
 70
     0
  9
$DIMSE1
 70
     0
  9
$DIMSE2
 70
     0
  9
$DIMTAD
 70
     1
  9
$DIMZIN
 70
     0
  9
$DIMBLK
  1

  9
$DIMASO
 70
     1
  9
$DIMSHO
 70
     1
  9
$DIMPOST
  1

  9
$DIMAPOST
  1

  9
$DIMALT
 70
     0
  9
$DIMALTD
 70
     2
  9
$DIMALTF
 40
25.4
  9
$DIMLFAC
 40
1.0
  9
$DIMTOFL
 70
     0
  9
$DIMTVP
 40
0.0
  9
$DIMTIX
 70
     0
  9
$DIMSOXD
 70
     0
  9
$DIMSAH
 70
     0
  9
$DIMBLK1
  1

  9
$DIMBLK2
  1

  9
$DIMSTYLE
  2
Standard
  9
$DIMCLRD
 70
     0
  9
$DIMCLRE
 70
     0
  9
$DIMCLRT
 70
     0
  9
$DIMTFAC
 40
1.0
  9
$DIMGAP
 40
10.0
  9
$DIMJUST
 70
     0
  9
$DIMSD1
 70
     0
  9
$DIMSD2
 70
     0
  9
$DIMTOLJ
 70
     1
  9
$DIMTZIN
 70
     0
  9
$DIMALTZ
 70
     0
  9
$DIMALTTZ
 70
     0
  9
$DIMUPT
 70
     0
  9
$DIMDEC
 70
     0
  9
$DIMTDEC
 70
     0
  9
$DIMALTU
 70
     2
  9
$DIMALTTD
 70
     2
  9
$DIMTXSTY
  7
Standard
  9
$DIMAUNIT
 70
     0
  9
$DIMADEC
 70
     0
  9
$DIMALTRND
 40
0.0
  9
$DIMAZIN
 70
     0
  9
$DIMDSEP
 70
    46
  9
$DIMATFIT
 70
     3
  9
$DIMFRAC
 70
     0
  9
$DIMLDRBLK
  1

  9
$DIMLUNIT
 70
     2
  9
$DIMLWD
 70
    -2
  9
$DIMLWE
 70
    -2
  9
$DIMTMOVE
 70
     0
  9
$DIMFXL
 40
0.18
  9
$DIMFXLON
 70
     0
  9
$DIMJOGANG
 40
1.570796326794896
  9
$DIMTFILL
 70
     0
  9
$DIMTFILLCLR
 70
     0
  9
$DIMARCSYM
 70
     0
  9
$DIMLTYPE
  6

  9
$DIMLTEX1
  6

  9
$DIMLTEX2
  6

  9
$DIMTXTDIRECTION
 70
     0
  9
$LUNITS
 70
     2
  9
$LUPREC
 70
     2
  9
$SKETCHINC
 40
0.1
  9
$FILLETRAD
 40
7.0
  9
$AUNITS
 70
     0
  9
$AUPREC
 70
     0
  9
$MENU
  1
.
  9
$ELEVATION
 40
0.0
  9
$PELEVATION
 40
0.0
  9
$THICKNESS
 40
0.0
  9
$LIMCHECK
 70
     0
  9
$CHAMFERA
 40
0.0
  9
$CHAMFERB
 40
0.0
  9
$CHAMFERC
 40
0.0
  9
$CHAMFERD
 40
0.0
  9
$SKPOLY
 70
     0
  9
$TDCREATE
 40
2453831.414907408
  9
$TDUCREATE
 40
2453831.331585278
  9
$TDUPDATE
 40
2459584.347337963
  9
$TDUUPDATE
 40
2459584.305671296
  9
$TDINDWG
 40
0.2692744444
  9
$TDUSRTIMER
 40
0.2692742708
  9
$USRTIMER
 70
     1
  9
$ANGBASE
 50
0.0
  9
$ANGDIR
 70
     0
  9
$PDMODE
 70
     0
  9
$PDSIZE
 40
0.0
  9
$PLINEWID
 40
0.0
  9
$SPLFRAME
 70
     0
  9
$SPLINETYPE
 70
     6
  9
$SPLINESEGS
 70
     8
  9
$HANDSEED
  5
2A94
  9
$SURFTAB1
 70
     6
  9
$SURFTAB2
 70
     6
  9
$SURFTYPE
 70
     6
  9
$SURFU
 70
     6
  9
$SURFV
 70
     6
  9
$UCSBASE
  2

  9
$UCSNAME
  2

  9
$UCSORG
 10
0.0
 20
0.0
 30
0.0
  9
$UCSXDIR
 10
1.0
 20
0.0
 30
0.0
  9
$UCSYDIR
 10
0.0
 20
1.0
 30
0.0
  9
$UCSORTHOREF
  2

  9
$UCSORTHOVIEW
 70
     0
  9
$UCSORGTOP
 10
0.0
 20
0.0
 30
0.0
  9
$UCSORGBOTTOM
 10
0.0
 20
0.0
 30
0.0
  9
$UCSORGLEFT
 10
0.0
 20
0.0
 30
0.0
  9
$UCSORGRIGHT
 10
0.0
 20
0.0
 30
0.0
  9
$UCSORGFRONT
 10
0.0
 20
0.0
 30
0.0
  9
$UCSORGBACK
 10
0.0
 20
0.0
 30
0.0
  9
$PUCSBASE
  2

  9
$PUCSNAME
  2

  9
$PUCSORG
 10
0.0
 20
0.0
 30
0.0
  9
$PUCSXDIR
 10
1.0
 20
0.0
 30
0.0
  9
$PUCSYDIR
 10
0.0
 20
1.0
 30
0.0
  9
$PUCSORTHOREF
  2

  9
$PUCSORTHOVIEW
 70
     0
  9
$PUCSORGTOP
 10
0.0
 20
0.0
 30
0.0
  9
$PUCSORGBOTTOM
 10
0.0
 20
0.0
 30
0.0
  9
$PUCSORGLEFT
 10
0.0
 20
0.0
 30
0.0
  9
$PUCSORGRIGHT
 10
0.0
 20
0.0
 30
0.0
  9
$PUCSORGFRONT
 10
0.0
 20
0.0
 30
0.0
  9
$PUCSORGBACK
 10
0.0
 20
0.0
 30
0.0
  9
$USERI1
 70
     0
  9
$USERI2
 70
     0
  9
$USERI3
 70
     0
  9
$USERI4
 70
     0
  9
$USERI5
 70
     0
  9
$USERR1
 40
0.0
  9
$USERR2
 40
0.0
  9
$USERR3
 40
0.0
  9
$USERR4
 40
0.0
  9
$USERR5
 40
0.0
  9
$WORLDVIEW
 70
     1
  9
$SHADEDGE
 70
     3
  9
$SHADEDIF
 70
    70
  9
$TILEMODE
 70
     1
  9
$MAXACTVP
 70
    64
  9
$PINSBASE
 10
0.0
 20
0.0
 30
0.0
  9
$PLIMCHECK
 70
     0
  9
$PEXTMIN
 10
0.0
 20
1.490140267999436
 30
0.0
  9
$PEXTMAX
 10
205.3618999156599
 20
284.1549702627116
 30
0.0
  9
$PLIMMIN
 10
-5.027083396911621
 20
-5.069413185119628
  9
$PLIMMAX
 10
204.946244239807
 20
291.8989095687866
  9
$UNITMODE
 70
     0
  9
$VISRETAIN
 70
     1
  9
$PLINEGEN
 70
     0
  9
$PSLTSCALE
 70
     1
  9
$TREEDEPTH
 70
  3020
  9
$CMLSTYLE
  2
Standard
  9
$CMLJUST
 70
     0
  9
$CMLSCALE
 40
1.0
  9
$PROXYGRAPHICS
 70
     1
  9
$MEASUREMENT
 70
     1
  9
$CELWEIGHT
370
    -1
  9
$ENDCAPS
280
     0
  9
$JOINSTYLE
280
     0
  9
$LWDISPLAY
290
     1
  9
$INSUNITS
 70
     4
  9
$HYPERLINKBASE
  1

  9
$STYLESHEET
  1

  9
$XEDIT
290
     1
  9
$CEPSNTYPE
380
     0
  9
$PSTYLEMODE
290
     1
  9
$FINGERPRINTGUID
  2
{A1FDC343-61EF-40A7-943F-C54F7BC2E70F}
  9
$VERSIONGUID
  2
{204A1C5D-8626-2B48-BBB9-1CE04C57B3BC}
  9
$EXTNAMES
290
     1
  9
$PSVPSCALE
 40
0.0
  9
$OLESTARTUP
290
     0
  9
$SORTENTS
280
   127
  9
$INDEXCTL
280
     0
  9
$HIDETEXT
280
     1
  9
$XCLIPFRAME
280
     0
  9
$HALOGAP
280
     0
  9
$OBSCOLOR
 70
   257
  9
$OBSLTYPE
280
     0
  9
$INTERSECTIONDISPLAY
280
     0
  9
$INTERSECTIONCOLOR
 70
   257
  9
$DIMASSOC
280
     2
  9
$PROJECTNAME
  1

  9
$CAMERADISPLAY
290
     0
  9
$LENSLENGTH
 40
50.0
  9
$CAMERAHEIGHT
 40
0.0
  9
$STEPSPERSEC
 40
2.0
  9
$STEPSIZE
 40
6.0
  9
$3DDWFPREC
 40
2.0
  9
$PSOLWIDTH
 40
0.25
  9
$PSOLHEIGHT
 40
4.0
  9
$LOFTANG1
 40
1.570796326794896
  9
$LOFTANG2
 40
1.570796326794896
  9
$LOFTMAG1
 40
0.0
  9
$LOFTMAG2
 40
0.0
  9
$LOFTPARAM
 70
     7
  9
$LOFTNORMALS
280
     1
  9
$LATITUDE
 40
37.795
  9
$LONGITUDE
 40
-122.394
  9
$NORTHDIRECTION
 40
0.0
  9
$TIMEZONE
 70
 -8000
  9
$LIGHTGLYPHDISPLAY
280
     1
  9
$TILEMODELIGHTSYNCH
280
     1
  9
$CMATERIAL
347
2957
  9
$SOLIDHIST
280
     0
  9
$SHOWHIST
280
     1
  9
$DWFFRAME
280
     2
  9
$DGNFRAME
280
     0
  9
$REALWORLDSCALE
290
     1
  9
$INTERFERECOLOR
 62
     1
  9
$INTERFEREOBJVS
345
2979
  9
$INTERFEREVPVS
346
2976
  9
$CSHADOW
280
     0
  9
$SHADOWPLANELOCATION
 40
0.0
  0
ENDSEC
  0
SECTION
  2
CLASSES
  0
CLASS
  1
ACDBDICTIONARYWDFLT
  2
AcDbDictionaryWithDefault
  3
ObjectDBX Classes
 90
        0
 91
        1
280
     0
281
     0
  0
CLASS
  1
DICTIONARYVAR
  2
AcDbDictionaryVar
  3
ObjectDBX Classes
 90
        0
 91
       11
280
     0
281
     0
  0
CLASS
  1
TABLESTYLE
  2
AcDbTableStyle
  3
ObjectDBX Classes
 90
     4095
 91
        1
280
     0
281
     0
  0
CLASS
  1
PLOTSETTINGS
  2
AcDbPlotSettings
  3
ObjectDBX Classes
 90
        0
 91
        1
280
     0
281
     0
  0
CLASS
  1
SORTENTSTABLE
  2
AcDbSortentsTable
  3
ObjectDBX Classes
 90
        0
 91
        3
280
     0
281
     0
  0
CLASS
  1
DIMASSOC
  2
AcDbDimAssoc
  3
"AcDbDimAssoc|Product Desc:     AcDim ARX App For Dimension|Company:          Autodesk, Inc.|WEB Address:      www.autodesk.com"
 90
        0
 91
        5
280
     0
281
     0
  0
CLASS
  1
MATERIAL
  2
AcDbMaterial
  3
ObjectDBX Classes
 90
     1153
 91
        3
280
     0
281
     0
  0
CLASS
  1
VISUALSTYLE
  2
AcDbVisualStyle
  3
ObjectDBX Classes
 90
     4095
 91
       24
280
     0
281
     0
  0
CLASS
  1
SCALE
  2
AcDbScale
  3
ObjectDBX Classes
 90
     1153
 91
       17
280
     0
281
     0
  0
CLASS
  1
MLEADERSTYLE
  2
AcDbMLeaderStyle
  3
ACDB_MLEADERSTYLE_CLASS
 90
     4095
 91
        1
280
     0
281
     0
  0
CLASS
  1
ACDBSECTIONVIEWSTYLE
  2
AcDbSectionViewStyle
  3
ObjectDBX Classes
 90
     1025
 91
        1
280
     0
281
     0
  0
CLASS
  1
ACDBDETAILVIEWSTYLE
  2
AcDbDetailViewStyle
  3
ObjectDBX Classes
 90
     1025
 91
        1
280
     0
281
     0
  0
CLASS
  1
CELLSTYLEMAP
  2
AcDbCellStyleMap
  3
ObjectDBX Classes
 90
     1152
 91
        1
280
     0
281
     0
  0
ENDSEC
  0
SECTION
  2
TABLES
  0
TABLE
  2
VPORT
  5
8
330
0
100
AcDbSymbolTable
 70
     1
  0
VPORT
  5
294D
330
8
100
AcDbSymbolTableRecord
100
AcDbViewportTableRecord
  2
*Active
 70
     0
 10
0.0
 20
0.0
 11
1.0
 21
1.0
 12
409.5588401987042
 22
332.0924511611718
 13
0.0
 23
0.0
 14
0.5
 24
0.5
 15
0.5
 25
0.5
 16
0.0
 26
0.0
 36
1.0
 17
0.0
 27
0.0
 37
0.0
 40
144.24742003658
 41
1.900877192982456
 42
50.0
 43
0.0
 44
0.0
 50
0.0
 51
0.0
 71
     0
 72
  1000
 73
     1
 74
     3
 75
     0
 76
     0
 77
     0
 78
     0
281
     0
 65
     1
110
0.0
120
0.0
130
0.0
111
1.0
121
0.0
131
0.0
112
0.0
122
1.0
132
0.0
 79
     0
146
0.0
348
2975
 60
     3
 61
     5
292
     1
282
     1
141
0.0
142
0.0
 63
   250
421
  3355443
1001
ACAD_NAV_VCDISPLAY
1070
     3
  0
ENDTAB
  0
TABLE
  2
LTYPE
  5
5
330
0
100
AcDbSymbolTable
 70
     4
  0
LTYPE
  5
14
330
5
100
AcDbSymbolTableRecord
100
AcDbLinetypeTableRecord
  2
ByBlock
 70
     0
  3

 72
    65
 73
     0
 40
0.0
  0
LTYPE
  5
15
330
5
100
AcDbSymbolTableRecord
100
AcDbLinetypeTableRecord
  2
ByLayer
 70
     0
  3

 72
    65
 73
     0
 40
0.0
  0
LTYPE
  5
16
330
5
100
AcDbSymbolTableRecord
100
AcDbLinetypeTableRecord
  2
Continuous
 70
     0
  3
Solid line
 72
    65
 73
     0
 40
0.0
  0
LTYPE
  5
8F2
330
5
100
AcDbSymbolTableRecord
100
AcDbLinetypeTableRecord
  2
ACAD_ISO02W100
 70
     0
  3
ISO èárkovaná __ __ __ __ __ __ __ __ __ __ __ 
 72
    65
 73
     2
 40
15.0
 49
12.0
 74
     0
 49
-3.0
 74
     0
  0
ENDTAB
  0
TABLE
  2
LAYER
  5
2
102
{ACAD_XDICTIONARY
360
238
102
}
330
0
100
AcDbSymbolTable
 70
     8
  0
LAYER
  5
10
102
{ACAD_XDICTIONARY
360
2A7A
102
}
330
2
100
AcDbSymbolTableRecord
100
AcDbLayerTableRecord
  2
0
 70
     0
 62
     7
  6
Continuous
370
    -3
390
F
347
2967
348
0
  0
LAYER
  5
1B3
102
{ACAD_XDICTIONARY
360
2A7C
102
}
330
2
100
AcDbSymbolTableRecord
100
AcDbLayerTableRecord
  2
KOTY
 70
     0
 62
     3
  6
Continuous
370
    -3
390
F
347
2967
348
0
  0
LAYER
  5
1B4
102
{ACAD_XDICTIONARY
360
2A7E
102
}
330
2
100
AcDbSymbolTableRecord
100
AcDbLayerTableRecord
  2
PROF_FRM1
 70
     0
 62
     1
  6
Continuous
370
    -3
390
F
347
2967
348
0
  0
LAYER
  5
1B5
102
{ACAD_XDICTIONARY
360
2A80
102
}
330
2
100
AcDbSymbolTableRecord
100
AcDbLayerTableRecord
  2
PROF_FRM3
 70
     0
 62
   244
  6
Continuous
370
    -3
390
F
347
2967
348
0
  0
LAYER
  5
1B6
102
{ACAD_XDICTIONARY
360
2A82
102
}
330
2
100
AcDbSymbolTableRecord
100
AcDbLayerTableRecord
  2
PROF_FRM2
 70
     0
 62
     7
  6
Continuous
370
    -3
390
F
347
2967
348
0
  0
LAYER
  5
24C
102
{ACAD_XDICTIONARY
360
2A84
102
}
330
2
100
AcDbSymbolTableRecord
100
AcDbLayerTableRecord
  2
VAREZ
 70
     0
 62
  -170
  6
Continuous
370
    -3
390
F
347
2967
348
0
1001
AcAecLayerStandard
1000

1000

  0
LAYER
  5
4AE
330
2
100
AcDbSymbolTableRecord
100
AcDbLayerTableRecord
  2
Defpoints
 70
     0
 62
     7
  6
Continuous
290
     0
370
    -3
390
F
347
2967
348
0
  0
LAYER
  5
20B9
102
{ACAD_XDICTIONARY
360
2A86
102
}
330
2
100
AcDbSymbolTableRecord
100
AcDbLayerTableRecord
  2
Hladina1
 70
     0
 62
     5
  6
Continuous
370
    -3
390
F
347
2967
348
0
  0
ENDTAB
  0
TABLE
  2
STYLE
  5
3
330
0
100
AcDbSymbolTable
 70
     5
  0
STYLE
  5
11
330
3
100
AcDbSymbolTableRecord
100
AcDbTextStyleTableRecord
  2
Standard
 70
     0
 40
0.0
 41
1.0
 50
0.0
 71
     0
 42
0.2
  3
romans.shx
  4

  0
STYLE
  5
1B7
330
3
100
AcDbSymbolTableRecord
100
AcDbTextStyleTableRecord
  2
SIMPLEX
 70
     0
 40
3.0
 41
0.8
 50
0.0
 71
     0
 42
3.0
  3
SIMPLEX
  4

  0
STYLE
  5
1B8
330
3
100
AcDbSymbolTableRecord
100
AcDbTextStyleTableRecord
  2
ROMANS
 70
     0
 40
0.0
 41
0.8
 50
0.0
 71
     0
 42
4.0
  3
ROMANS.SHX
  4

  0
STYLE
  5
1B9
330
3
100
AcDbSymbolTableRecord
100
AcDbTextStyleTableRecord
  2
MSPR_TXT
 70
     0
 40
0.0
 41
0.75
 50
0.0
 71
     0
 42
4.0
  3
TXT.SHX
  4

  0
STYLE
  5
8F1
330
3
100
AcDbSymbolTableRecord
100
AcDbTextStyleTableRecord
  2

 70
     1
 40
0.0
 41
1.0
 50
0.0
 71
     0
 42
0.2
  3
ltypeshp.shx
  4

  0
ENDTAB
  0
TABLE
  2
VIEW
  5
6
330
0
100
AcDbSymbolTable
 70
     0
  0
ENDTAB
  0
TABLE
  2
UCS
  5
7
330
0
100
AcDbSymbolTable
 70
     0
  0
ENDTAB
  0
TABLE
  2
APPID
  5
9
330
0
100
AcDbSymbolTable
 70
    15
  0
APPID
  5
12
330
9
100
AcDbSymbolTableRecord
100
AcDbRegAppTableRecord
  2
ACAD
 70
     0
  0
APPID
  5
9F
330
9
100
AcDbSymbolTableRecord
100
AcDbRegAppTableRecord
  2
ACAD_PSEXT
 70
     0
  0
APPID
  5
1BC
330
9
100
AcDbSymbolTableRecord
100
AcDbRegAppTableRecord
  2
PROFI
 70
     0
  0
APPID
  5
24D
330
9
100
AcDbSymbolTableRecord
100
AcDbRegAppTableRecord
  2
AcAecLayerStandard
 70
     0
  0
APPID
  5
2C1
330
9
100
AcDbSymbolTableRecord
100
AcDbRegAppTableRecord
  2
ACAD_DSTYLE_DIMTEXT_FILL
 70
     0
  0
APPID
  5
2C2
330
9
100
AcDbSymbolTableRecord
100
AcDbRegAppTableRecord
  2
ACAD_DSTYLE_DIMEXT_LENGTH
 70
     0
  0
APPID
  5
2C3
330
9
100
AcDbSymbolTableRecord
100
AcDbRegAppTableRecord
  2
ACAD_DSTYLE_DIMEXT_ENABLED
 70
     0
  0
APPID
  5
2C4
330
9
100
AcDbSymbolTableRecord
100
AcDbRegAppTableRecord
  2
ACAD_DSTYLE_DIM_LINETYPE
 70
     0
  0
APPID
  5
2C5
330
9
100
AcDbSymbolTableRecord
100
AcDbRegAppTableRecord
  2
ACAD_DSTYLE_DIM_EXT1_LINETYPE
 70
     0
  0
APPID
  5
2C6
330
9
100
AcDbSymbolTableRecord
100
AcDbRegAppTableRecord
  2
ACAD_DSTYLE_DIM_EXT2_LINETYPE
 70
     0
  0
APPID
  5
C02
330
9
100
AcDbSymbolTableRecord
100
AcDbRegAppTableRecord
  2
ACAD_DSTYLE_DIMJOGGED_JOGANGLE_SYMBOL
 70
     0
  0
APPID
  5
1326
330
9
100
AcDbSymbolTableRecord
100
AcDbRegAppTableRecord
  2
ACAD_DSTYLE_DIMARC_LENGTH_SYMBOL
 70
     0
  0
APPID
  5
2259
330
9
100
AcDbSymbolTableRecord
100
AcDbRegAppTableRecord
  2
ACAD_EXEMPT_FROM_CAD_STANDARDS
 70
     0
  0
APPID
  5
2A02
330
9
100
AcDbSymbolTableRecord
100
AcDbRegAppTableRecord
  2
AcadAnnoMonitorAlertIconDisabled
 70
     0
  0
APPID
  5
2A90
330
9
100
AcDbSymbolTableRecord
100
AcDbRegAppTableRecord
  2
ACAD_NAV_VCDISPLAY
 70
     0
  0
ENDTAB
  0
TABLE
  2
DIMSTYLE
  5
A
330
0
100
AcDbSymbolTable
 70
     4
100
AcDbDimStyleTable
 71
     3
340
27
340
1BA
340
1BB
  0
DIMSTYLE
105
27
102
{ACAD_REACTORS
330
2752
330
276A
102
}
330
A
100
AcDbSymbolTableRecord
100
AcDbDimStyleTableRecord
  2
Standard
 70
     0
 41
30.0
 49
0.18
 50
89.99999999999998
 73
     0
 74
     0
 77
     1
140
30.0
147
10.0
271
     0
272
     0
340
11
1001
ACAD_DSTYLE_DIMJOGGED_JOGANGLE_SYMBOL
1070
   384
1040
1.570796326794896
  0
DIMSTYLE
105
1BA
102
{ACAD_REACTORS
330
6B9
330
6BD
330
6C0
330
2865
330
2874
102
}
330
A
100
AcDbSymbolTableRecord
100
AcDbDimStyleTableRecord
  2
ISO-25
 70
     0
 41
2.5
 42
0.625
 43
3.75
 44
1.25
 73
     0
 74
     0
 77
     1
 78
     8
140
2.5
141
2.5
143
0.03937007874016
147
0.625
171
     3
172
     1
271
     2
272
     2
274
     3
278
    44
283
     0
284
     8
340
11
  0
DIMSTYLE
105
1BB
330
A
100
AcDbSymbolTableRecord
100
AcDbDimStyleTableRecord
  2
PROFI_CSN
 70
     0
 40
0.0
 41
3.0
 42
0.0
 43
8.0
 44
1.0
 73
     0
 74
     0
 77
     1
 78
     9
 79
     2
140
3.5
141
0.0
143
0.03937
144
-1.0
146
0.6
147
1.5
172
     1
176
   256
177
   256
178
   256
179
     2
271
     2
272
     2
277
     6
284
     8
285
     8
286
     8
289
     0
340
1B8
341
163
342
163
343
163
344
163
  0
ENDTAB
  0
TABLE
  2
BLOCK_RECORD
  5
1
330
0
100
AcDbSymbolTable
 70
    41
  0
BLOCK_RECORD
  5
1F
102
{ACAD_XDICTIONARY
360
8DA
102
}
330
1
100
AcDbSymbolTableRecord
100
AcDbBlockTableRecord
  2
*Model_Space
340
22
 70
     0
280
     1
281
     0
  0
BLOCK_RECORD
  5
9B
102
{ACAD_XDICTIONARY
360
8AE
102
}
330
1
100
AcDbSymbolTableRecord
100
AcDbBlockTableRecord
  2
*Paper_Space
340
9C
 70
     0
280
     1
281
     0
  0
BLOCK_RECORD
  5
A7
330
1
100
AcDbSymbolTableRecord
100
AcDbBlockTableRecord
  2
xxx
340
0
310
28000000200000002000000001000800000000000004000000000000000000000000000000000000000000004000000080000000FF000000002000004020000080200000FF200000004000004040000080400000FF400000006000004060000080600000FF600000008000004080000080800000FF80000000A0000040A000
310
0080A00000FFA0000000C0000040C0000080C00000FFC0000000FF000040FF000080FF0000FFFF0000000020004000200080002000FF002000002020004020200080202000FF202000004020004040200080402000FF402000006020004060200080602000FF602000008020004080200080802000FF80200000A0200040A0
310
200080A02000FFA0200000C0200040C0200080C02000FFC0200000FF200040FF200080FF2000FFFF2000000040004000400080004000FF004000002040004020400080204000FF204000004040004040400080404000FF404000006040004060400080604000FF604000008040004080400080804000FF80400000A0400040
310
A0400080A04000FFA0400000C0400040C0400080C04000FFC0400000FF400040FF400080FF4000FFFF4000000060004000600080006000FF006000002060004020600080206000FF206000004060004040600080406000FF406000006060004060600080606000FF606000008060004080600080806000FF80600000A06000
310
40A0600080A06000FFA0600000C0600040C0600080C06000FFC0600000FF600040FF600080FF6000FFFF6000000080004000800080008000FF008000002080004020800080208000FF208000004080004040800080408000FF408000006080004060800080608000FF608000008080004080800080808000FF80800000A080
310
0040A0800080A08000FFA0800000C0800040C0800080C08000FFC0800000FF800040FF800080FF8000FFFF80000000A0004000A0008000A000FF00A0000020A0004020A0008020A000FF20A0000040A0004040A0008040A000FF40A0000060A0004060A0008060A000FF60A0000080A0004080A0008080A000FF80A00000A0
310
A00040A0A00080A0A000FFA0A00000C0A00040C0A00080C0A000FFC0A00000FFA00040FFA00080FFA000FFFFA0000000C0004000C0008000C000FF00C0000020C0004020C0008020C000FF20C0000040C0004040C0008040C000FF40C0000060C0004060C0008060C000FF60C0000080C0004080C0008080C000FF80C00000
310
A0C00040A0C00080A0C000FFA0C00000C0C00040C0C00080C0C000FFC0C00000FFC00040FFC00080FFC000FFFFC0000000FF004000FF008000FF00FF00FF000020FF004020FF008020FF00FF20FF000040FF004040FF008040FF00FF40FF000060FF004060FF008060FF00FF60FF000080FF004080FF008080FF00FF80FF00
310
00A0FF0040A0FF0080A0FF00FFA0FF0000C0FF0040C0FF0080C0FF00FFC0FF0000FFFF0040FFFF0080FFFF00FFFFFF00FFFFFFFFFFFFFFFFFFFFFFFFFFFFFFFFFFFFFFFFFFFFFFFFFFFFFFFFFFFFFFFFFFFFFFFFFFFFFFFFFFFFFFFFFFFFFFFFFFFFFFFFFFFFFFFFFFFFFFFFFFFFFFFFFFFFFFFFFFFFFFFFFFFFFFFFFFFFFF
310
FFFFFFFFFFFFFFFFFFFFFFFFFFFFFFFFFFFFFFFFFFFFFFFFFFFFFFFFFFFFFFFFFFFFFFFFFFFFFFFFFFFFFFFFFFFFFFFFFFFFFFFFFFFFFFFFFFFFFFFFFFFFFFFFFFFFFFFFFFFFFFFFFFFFFFFFFFFFFFFFFFFFFFFFFFFFFFFFFFFFFFFFFFFFFFFFFFFFFFFFFFFFFFFFFFFFFFFFFFFFFFFFFFFFFFFFFFFFFFFFFFFFFFFFFFFFFF
310
FFFFFFFFFFFFFFFFFFFFFFFFFFFFFFFFFFFFFFFFFFFFFFFFFFFFFFFFFFFFFFFFFFFFFFFFFFFFFFFFFFFFFFFFFFFFFFFFFFFFFFFFFFFFFFFFFFFFFFFFFFFFFFFFFFFFFFFFFFFFFFFFFFFFFFFFFFFFFFFFFFFFFFFFFFFFFFFFFFFFFFFFFFFFFFFFFFFFFFFFFFFFFFFFFFFFFFFFFFFFFFFFFFFFFFFFFFFFFFFFFFFFFFFFFFFFFF
310
FFFFFFFFFFFFFFFFFFFFFFFFFFFFFFFFFFFFFFFFFFFFFFFFFFFFFFFFFFFFFFFFFFFFFFFFFFFFFFFFFFFFFFFFFFFFFFFFFFFFFFFFFFFFFFFFFFFFFFFFFFFFFFFFFFFFFFFFFFFFFFFFFFFFFFFFFFFFFFFFFFFFFFFFFFFFFF000000000000000000FFFF00FF000000000000000000FF00FFFFFFFFFFFFFFFF0000000000000000
310
0000FF0000000000000000000000000000FFFFFFFFFFFFFF00000000000000000000000000000000000000000000000000FFFFFFFFFFFFFFFFFFFF00FFFFFFFFFFFFFFFFFF0000FFFFFFFFFFFFFFFFFFFFFFFFFFFF00000000000000000000FFFFFFFFFFFFFFFFFFFFFFFFFFFFFFFFFFFFFFFFFFFFFFFF00FFFF0000FFFFFF
310
FFFFFFFFFFFFFFFFFFFFFFFFFFFFFFFFFFFFFFFFFFFFFFFFFFFFFFFFFFFFFFFFFFFFFFFFFFFFFFFFFFFFFFFFFFFFFFFFFFFFFFFFFFFFFFFFFFFFFFFFFFFFFFFFFFFFFFFFFFFFFFFFFFFFFFFFFFFFFFFFFFFFFFFFFFFFFFFFFFFFFFFFFFFFFFFFFFFFFFFFFFFFFFFFFFFFFFFFFFFFFFFFFFFFFFFFFFFFFFFFFFFFFFFFFFFFFF
310
FFFFFFFFFFFFFFFFFFFFFFFFFFFFFFFFFFFFFFFFFFFFFFFFFFFFFFFFFFFFFFFFFFFFFFFFFFFFFFFFFFFFFFFFFFFFFFFFFFFFFFFFFFFFFFFFFFFFFFFFFFFFFFFFFFFFFFFFFFFFFFFFFFFFFFFFFFFFFFFFFFFFFFFFFFFFFFFFFFFFFFFFFFFFFFFFFFFFFFFFFFFFFFFFFFFFFFFFFFFFFFFFFFFFFFFFFFFFFFFFFFFFFFFFFFFFFF
310
FFFFFFFFFFFFFFFFFFFFFFFFFFFFFFFFFFFFFFFFFFFFFFFFFFFFFFFFFFFFFFFFFFFFFFFFFFFFFFFFFFFFFFFFFFFFFFFFFFFFFFFFFFFFFFFFFFFFFFFFFFFFFFFFFFFFFFFFFFFFFFFFFFFFFFFFFFFFFFFFFFFFFFFFFFFFFFFFFFFFFFFFFFFFFFFFFFFFFFFFFFFFFFFFFFFFFFFFFFFFFFFFFFFFFFFFFFFFFFFFFFFFFFFFFFFFFF
310
FFFFFFFFFFFFFFFFFFFFFFFFFFFFFFFFFFFFFFFFFFFFFFFFFFFFFFFFFFFFFFFFFFFFFFFFFFFFFFFFFFFFFFFFFFFFFFFFFFFFFFFFFFFFFFFF
 70
     4
280
     1
281
     0
  0
BLOCK_RECORD
  5
AC
330
1
100
AcDbSymbolTableRecord
100
AcDbBlockTableRecord
  2
1
340
0
310
2800000020000000200000000100080000000000000400000000000000000000000000000000000000000000000080000080000000808000800000008000800080800000C0C0C000C0DCC000F0CAA6000020400000206000002080000020A0000020C0000020E00000400000004020000040400000406000004080000040A0
310
000040C0000040E00000600000006020000060400000606000006080000060A0000060C0000060E00000800000008020000080400000806000008080000080A0000080C0000080E00000A0000000A0200000A0400000A0600000A0800000A0A00000A0C00000A0E00000C0000000C0200000C0400000C0600000C0800000C0
310
A00000C0C00000C0E00000E0000000E0200000E0400000E0600000E0800000E0A00000E0C00000E0E00040000000400020004000400040006000400080004000A0004000C0004000E00040200000402020004020400040206000402080004020A0004020C0004020E000404000004040200040404000404060004040800040
310
40A0004040C0004040E00040600000406020004060400040606000406080004060A0004060C0004060E00040800000408020004080400040806000408080004080A0004080C0004080E00040A0000040A0200040A0400040A0600040A0800040A0A00040A0C00040A0E00040C0000040C0200040C0400040C0600040C08000
310
40C0A00040C0C00040C0E00040E0000040E0200040E0400040E0600040E0800040E0A00040E0C00040E0E00080000000800020008000400080006000800080008000A0008000C0008000E00080200000802020008020400080206000802080008020A0008020C0008020E00080400000804020008040400080406000804080
310
008040A0008040C0008040E00080600000806020008060400080606000806080008060A0008060C0008060E00080800000808020008080400080806000808080008080A0008080C0008080E00080A0000080A0200080A0400080A0600080A0800080A0A00080A0C00080A0E00080C0000080C0200080C0400080C0600080C0
310
800080C0A00080C0C00080C0E00080E0000080E0200080E0400080E0600080E0800080E0A00080E0C00080E0E000C0000000C0002000C0004000C0006000C0008000C000A000C000C000C000E000C0200000C0202000C0204000C0206000C0208000C020A000C020C000C020E000C0400000C0402000C0404000C0406000C0
310
408000C040A000C040C000C040E000C0600000C0602000C0604000C0606000C0608000C060A000C060C000C060E000C0800000C0802000C0804000C0806000C0808000C080A000C080C000C080E000C0A00000C0A02000C0A04000C0A06000C0A08000C0A0A000C0A0C000C0A0E000C0C00000C0C02000C0C04000C0C06000
310
C0C08000C0C0A000F0FBFF00A4A0A000808080000000FF0000FF000000FFFF00FF000000FF00FF00FFFF0000FFFFFF000000000000000000000000000000000000000000000000000000000000000000000000000000FFFFFFFFFFFFFFFFFFFFFFFFFFFFFFFFFFFFFFFF000000000000000000000000FF00000000FFFFFFFF
310
FFFFFFFFFFFFFFFF0000FF000000000000000000000000FF00000000FFFFFFFFFFFFFFFFFFFFFFFFFFFFFF000000000000000000000000FF00000000FFFFFFFFFFFFFFFF00FFFFFFFFFFFF000000000000000000000000FF00000000FFFFFFFFFFFFFFFFFFFFFFFFFFFFFF000000000000000000000000FF00000000FFFFFF
310
FFFFFFFFFFFFFFFFFFFFFFFF000000000000000000000000FF000000000000000000000000000000000000FF000000000000000000000000FF000000000000000000000000000000000000FF000000000000000000000000FF000000000000000000000000000000000000FF000000000000000000000000FF000000000000
310
000000000000000000000000FF000000000000000000000000FF000000000000000000000000000000000000FF000000000000000000000000FF000000000000000000000000000000000000FF000000000000000000000000FF000000000000000000000000000000000000FF000000000000000000000000FF0000000000
310
00000000000000000000000000FF000000000000000000000000FF000000000000000000000000000000000000FF000000000000000000000000FF000000000000000000000000000000000000FF000000000000000000000000FF000000000000000000000000000000000000FF000000000000000000000000FF00000000
310
0000000000000000000000000000FF000000000000000000000000FF000000000000000000000000000000000000FF000000000000000000000000FF000000000000000000000000000000000000FF000000000000000000000000FF000000000000000000000000000000000000FF000000000000000000000000FF000000
310
000000000000000000000000000000FF000000000000000000000000FF000000000000000000000000000000000000FF000000000000000000000000FF000000000000000000000000000000000000FF000000000000000000000000FF000000000000000000000000000000000000FF000000000000000000000000FF0000
310
00000000000000000000000000000000FF000000000000000000000000FF000000000000000000000000000000000000FF000000000000000000000000FF000000000000000000000000000000000000FF000000000000000000000000FF000000000000000000000000000000000000FF000000000000000000000000FFFF
310
FFFFFFFFFFFFFFFFFFFFFFFFFFFFFFFFFFFF0000000000000000000000000000000000000000000000000000000000000000000000000000
 70
     4
280
     1
281
     0
  0
BLOCK_RECORD
  5
DC
330
1
100
AcDbSymbolTableRecord
100
AcDbBlockTableRecord
  2
2
340
0
310
28000000200000002000000001000800000000000004000000000000000000000000000000000000000000004000000080000000FF000000002000004020000080200000FF200000004000004040000080400000FF400000006000004060000080600000FF600000008000004080000080800000FF80000000A0000040A000
310
0080A00000FFA0000000C0000040C0000080C00000FFC0000000FF000040FF000080FF0000FFFF0000000020004000200080002000FF002000002020004020200080202000FF202000004020004040200080402000FF402000006020004060200080602000FF602000008020004080200080802000FF80200000A0200040A0
310
200080A02000FFA0200000C0200040C0200080C02000FFC0200000FF200040FF200080FF2000FFFF2000000040004000400080004000FF004000002040004020400080204000FF204000004040004040400080404000FF404000006040004060400080604000FF604000008040004080400080804000FF80400000A0400040
310
A0400080A04000FFA0400000C0400040C0400080C04000FFC0400000FF400040FF400080FF4000FFFF4000000060004000600080006000FF006000002060004020600080206000FF206000004060004040600080406000FF406000006060004060600080606000FF606000008060004080600080806000FF80600000A06000
310
40A0600080A06000FFA0600000C0600040C0600080C06000FFC0600000FF600040FF600080FF6000FFFF6000000080004000800080008000FF008000002080004020800080208000FF208000004080004040800080408000FF408000006080004060800080608000FF608000008080004080800080808000FF80800000A080
310
0040A0800080A08000FFA0800000C0800040C0800080C08000FFC0800000FF800040FF800080FF8000FFFF80000000A0004000A0008000A000FF00A0000020A0004020A0008020A000FF20A0000040A0004040A0008040A000FF40A0000060A0004060A0008060A000FF60A0000080A0004080A0008080A000FF80A00000A0
310
A00040A0A00080A0A000FFA0A00000C0A00040C0A00080C0A000FFC0A00000FFA00040FFA00080FFA000FFFFA0000000C0004000C0008000C000FF00C0000020C0004020C0008020C000FF20C0000040C0004040C0008040C000FF40C0000060C0004060C0008060C000FF60C0000080C0004080C0008080C000FF80C00000
310
A0C00040A0C00080A0C000FFA0C00000C0C00040C0C00080C0C000FFC0C00000FFC00040FFC00080FFC000FFFFC0000000FF004000FF008000FF00FF00FF000020FF004020FF008020FF00FF20FF000040FF004040FF008040FF00FF40FF000060FF004060FF008060FF00FF60FF000080FF004080FF008080FF00FF80FF00
310
00A0FF0040A0FF0080A0FF00FFA0FF0000C0FF0040C0FF0080C0FF00FFC0FF0000FFFF0040FFFF0080FFFF00FFFFFF00FFFFFFFFFFFFFFFFFFFFFFFFFFFFFFFFFFFFFFFFFFFFFFFFFFFFFFFFFFFFFFFFFFFFFFFFFFFFFFFFFFFFFFFFFFFFFFFFFFFFFFFFFFFFFFFFFFFFFFFFFFFFFFFFFFFFFFFFFFFFFFFFFFFFFFFFFFFFFF
310
FFFFFFFFFFFFFFFFFFFFFFFFFFFFFFFFFFFFFFFFFFFFFFFFFFFFFFFFFFFFFFFFFFFFFFFFFFFFFFFFFFFFFFFFFFFFFFFFFFFFFFFFFFFFFFFFFFFFFFFFFFFFFFFFFFFFFFFFFFFFFFFFFFFFFFFFFFFFFFFFFFFFFFFFFFFFFFFFFFFFFFFFFFFFFFFFFFFFFFFFFFFFFFFFFFFFFFFFFFFFFFFFFFFFFFFFFFFFFFFFFFFFFFFFFFFFFF
310
FFFFFFFFFFFFFFFFFFFFFFFFFFFFFFFFFFFFFFFFFFFFFFFFFFFFFFFFFFFFFFFFFFFFFFFFFFFFFFFFFFFFFFFFFFFFFFFFFFFFFFFFFFFFFFFFFFFFFFFFFFFFFFFFFFFFFFFFFFFFFFFFFFFFFFFFFFFFFFFFFFFFFFFFFFFFFFFFFFFFFFFFFFFFFFFFFFFFFFFFFFFFFFFFFFFFFFFFFFFFFFFFFFFFFFFF00000000000000FFFFFFFF
310
FFFFFFFFFFFFFFFFFFFFFFFFFFFFFFFFFFFFFFFFFF00000000000000FFFFFFFFFFFFFFFFFFFFFFFFFFFFFFFFFFFFFFFFFFFFFFFFFFFFFFFFFFFFFFFFFFFFFFFFFFFFFFFFFFFFFFFFFFFFFFFFFFFFFFFFFFFFFFFFFFFFFFFFFFFFFFFFFFFFFFFFFFFFFFFFFFFFFFFFFFFFFFFFFFFFFFFFFFFFFFFF00000000000000FFFFFFFF
310
FFFFFFFFFFFFFFFFFFFFFFFFFFFFFFFFFFFFFFFFFF000000000000FFFFFFFFFFFFFFFFFFFFFFFFFFFFFFFFFFFFFFFFFFFFFFFFFFFFFFFFFFFFFFFFFFFFFFFFFFFFFFFFFFFFFFFFFFFFFFFFFFFFFFFFFFFFFFFFFFFFFFFFFFFFFFFFFFFFFFFFFFFFFFFFFFFFFFFFFFFFFFFFFFFFFFFFFFFFFFFFFFFFFF000000000000FFFFFF
310
FFFFFFFFFFFFFFFFFFFFFFFFFFFFFFFFFFFFFFFFFFFFFF0000000000FFFFFFFFFFFFFFFFFFFFFFFFFFFFFFFFFFFFFFFFFFFFFFFFFFFFFFFFFFFFFFFFFFFFFFFFFF0000000000FFFFFFFFFFFFFFFF0000000000FFFFFFFFFFFFFFFFFFFFFFFFFFFF0000000000FFFFFFFFFFFFFFFF0000000000FFFFFFFFFFFFFFFFFFFFFFFF
310
FFFFFFFFFFFFFFFFFFFFFFFFFFFFFFFFFFFFFFFFFFFFFFFFFFFFFFFFFFFFFFFFFFFFFFFFFFFFFFFFFFFFFFFFFFFFFFFFFFFFFFFFFFFFFFFFFFFFFFFFFFFFFFFFFFFFFFFFFFFFFFFFFFFFFFFFFFFFFFFFFFFFFFFFFFFFFFFFFFFFFFFFFFFFFFFFFFFFFFFFFFFFFFFFFFFFFFFFFFFFFFFFFFFFFFFFFFFFFFFFFFFFFFFFFFFFFF
310
FFFFFFFFFFFFFFFFFFFFFFFFFFFFFFFFFFFFFFFFFFFFFFFFFFFFFFFFFFFFFFFFFFFFFFFFFFFFFFFFFFFFFFFFFFFFFFFFFFFFFFFFFFFFFFFFFFFFFFFFFFFFFFFFFFFFFFFFFFFFFFFFFFFFFFFFFFFFFFFFFFFFFFFFFFFFFFFFFFFFFFFFFFFFFFFFFFFFFFFFFFFFFFFFFFFFFFFFFFFFFFFFFFFFFFFFFFFFFFFFFFFFFFFFFFFFFF
310
FFFFFFFFFFFFFFFFFFFFFFFFFFFFFFFFFFFFFFFFFFFFFFFFFFFFFFFFFFFFFFFFFFFFFFFFFFFFFFFFFFFFFFFFFFFFFFFFFFFFFFFFFFFFFFFF
102
{BLKREFS
331
21F8
102
}
 70
     4
280
     1
281
     0
  0
BLOCK_RECORD
  5
E4
330
1
100
AcDbSymbolTableRecord
100
AcDbBlockTableRecord
  2
3
340
0
310
28000000200000002000000001000800000000000004000000000000000000000000000000000000000000004000000080000000FF000000002000004020000080200000FF200000004000004040000080400000FF400000006000004060000080600000FF600000008000004080000080800000FF80000000A0000040A000
310
0080A00000FFA0000000C0000040C0000080C00000FFC0000000FF000040FF000080FF0000FFFF0000000020004000200080002000FF002000002020004020200080202000FF202000004020004040200080402000FF402000006020004060200080602000FF602000008020004080200080802000FF80200000A0200040A0
310
200080A02000FFA0200000C0200040C0200080C02000FFC0200000FF200040FF200080FF2000FFFF2000000040004000400080004000FF004000002040004020400080204000FF204000004040004040400080404000FF404000006040004060400080604000FF604000008040004080400080804000FF80400000A0400040
310
A0400080A04000FFA0400000C0400040C0400080C04000FFC0400000FF400040FF400080FF4000FFFF4000000060004000600080006000FF006000002060004020600080206000FF206000004060004040600080406000FF406000006060004060600080606000FF606000008060004080600080806000FF80600000A06000
310
40A0600080A06000FFA0600000C0600040C0600080C06000FFC0600000FF600040FF600080FF6000FFFF6000000080004000800080008000FF008000002080004020800080208000FF208000004080004040800080408000FF408000006080004060800080608000FF608000008080004080800080808000FF80800000A080
310
0040A0800080A08000FFA0800000C0800040C0800080C08000FFC0800000FF800040FF800080FF8000FFFF80000000A0004000A0008000A000FF00A0000020A0004020A0008020A000FF20A0000040A0004040A0008040A000FF40A0000060A0004060A0008060A000FF60A0000080A0004080A0008080A000FF80A00000A0
310
A00040A0A00080A0A000FFA0A00000C0A00040C0A00080C0A000FFC0A00000FFA00040FFA00080FFA000FFFFA0000000C0004000C0008000C000FF00C0000020C0004020C0008020C000FF20C0000040C0004040C0008040C000FF40C0000060C0004060C0008060C000FF60C0000080C0004080C0008080C000FF80C00000
310
A0C00040A0C00080A0C000FFA0C00000C0C00040C0C00080C0C000FFC0C00000FFC00040FFC00080FFC000FFFFC0000000FF004000FF008000FF00FF00FF000020FF004020FF008020FF00FF20FF000040FF004040FF008040FF00FF40FF000060FF004060FF008060FF00FF60FF000080FF004080FF008080FF00FF80FF00
310
00A0FF0040A0FF0080A0FF00FFA0FF0000C0FF0040C0FF0080C0FF00FFC0FF0000FFFF0040FFFF0080FFFF00FFFFFF00FFFFFFFFFFFFFFFFFFFFFFFFFFFFFFFFFFFFFFFFFFFFFFFFFFFFFFFFFFFFFFFFFFFFFFFFFFFFFFFFFFFFFFFFFFFFFFFFFFFFFFFFFFFFFFFFFFFFFFFFFFFFFFFFFFFFFFFFFFFFFFFFFFFFFFFFFFFFFF
310
FFFFFFFFFFFFFFFFFFFFFFFFFFFFFFFFFFFFFFFFFFFFFFFFFFFFFFFFFFFFFFFFFFFFFFFFFFFFFFFFFFFFFFFFFFFFFFFFFFFFFFFFFFFFFFFFFFFFFFFFFFFFFFFFFFFFFFFFFFFFFFFFFFFFFFFFFFFFFFFFFFFFFFFFFFFFFFFFFFFFFFFFFFFFFFFFFFFFFFFFFFFFFFFFFFFFFFFFFFFFFFFFFFFFFFFFFFFFFFFFFFFFFFFFFFFFFF
310
FFFFFFFFFFFFFFFFFFFFFFFFFFFFFFFFFFFFFFFFFFFFFFFFFFFFFFFFFFFFFFFFFFFFFFFFFFFFFFFFFFFFFFFFFFFFFFFFFFFFFFFFFFFFFFFFFFFFFFFFFFFFFFFFFFFFFFFFFFFFFFFFFFFFFFFFFFFFFFFFFFFFFFFFFFFFFFFFFFFFFFFFFFFFFFFFFFFFFFFFFFFFFFFFFFFF00FFFFFFFFFFFFFFFFFFFFFFFFFFFFFFFFFFFFFFFF
310
FFFFFFFFFFFFFFFFFFFFFF00FFFFFFFFFFFFFFFFFFFFFFFFFFFFFFFFFFFFFF000000FFFFFFFFFFFFFFFF000000FFFFFFFFFFFFFFFFFFFFFFFFFFFF00000000FFFF00FFFFFFFFFF000000FF00FF0000FFFFFFFFFFFFFFFFFF000000FFFFFFFFFFFF00FFFFFFFFFF00FFFF0000FFFF00FFFFFFFFFFFFFFFFFF00FFFFFFFFFFFF
310
FFFF00FFFFFFFFFF000000FF0000FFFF00FFFFFFFFFFFFFFFF00FFFFFFFFFFFFFFFF00FFFFFFFF00FF00FFFF0000FFFF00FFFFFFFF000000000000000000000000000000FFFF00000000000000000000000000FFFFFFFFFFFF00FFFFFFFFFFFFFFFF00FFFFFFFF00FF0000FF0000FFFF00FFFFFFFFFFFFFFFF000000FFFFFF
310
FFFFFF00FFFFFFFFFF00FFFF0000FFFF00FFFFFFFFFFFFFFFFFFFFFFFF00000000FFFF00FFFFFFFFFF0000FFFF00FF0000FFFFFFFFFFFFFFFFFFFFFFFFFFFFFFFF000000FFFFFFFFFFFFFF00000000FFFFFFFFFFFFFFFFFFFFFFFFFFFFFFFFFFFFFFFFFFFFFFFFFFFFFFFFFFFF00FFFFFFFFFFFFFFFFFFFFFFFFFFFFFFFFFF
310
FFFFFFFFFFFFFFFFFFFFFFFFFFFF00FFFFFFFFFFFFFFFFFFFFFFFFFFFFFFFFFFFFFFFFFFFFFFFFFFFFFFFFFFFFFFFFFFFFFFFFFFFFFFFFFFFFFFFFFFFFFFFFFFFFFFFFFFFFFFFFFFFFFFFFFFFFFFFFFFFFFFFFFFFFFFFFFFFFFFFFFFFFFFFFFFFFFFFFFFFFFFFFFFFFFFFFFFFFFFFFFFFFFFFFFFFFFFFFFFFFFFFFFFFFFFFF
310
FFFFFFFFFFFFFFFFFFFFFFFFFFFFFFFFFFFFFFFFFFFFFFFFFFFFFFFFFFFFFFFFFFFFFFFFFFFFFFFFFFFFFFFFFFFFFFFFFFFFFFFFFFFFFFFFFFFFFFFFFFFFFFFFFFFFFFFFFFFFFFFFFFFFFFFFFFFFFFFFFFFFFFFFFFFFFFFFFFFFFFFFFFFFFFFFFFFFFFFFFFFFFFFFFFFFFFFFFFFFFFFFFFFFFFFFFFFFFFFFFFFFFFFFFFFFFF
310
FFFFFFFFFFFFFFFFFFFFFFFFFFFFFFFFFFFFFFFFFFFFFFFFFFFFFFFFFFFFFFFFFFFFFFFFFFFFFFFFFFFFFFFFFFFFFFFFFFFFFFFFFFFFFFFF
102
{BLKREFS
331
CB
331
10B
331
1D2
331
85B
102
}
 70
     4
280
     1
281
     0
  0
BLOCK_RECORD
  5
F1
330
1
100
AcDbSymbolTableRecord
100
AcDbBlockTableRecord
  2
tabulka
340
0
310
2800000020000000200000000100080000000000000400000000000000000000000000000000000000000000000080000080000000808000800000008000800080800000C0C0C000C0DCC000F0CAA6000020400000206000002080000020A0000020C0000020E00000400000004020000040400000406000004080000040A0
310
000040C0000040E00000600000006020000060400000606000006080000060A0000060C0000060E00000800000008020000080400000806000008080000080A0000080C0000080E00000A0000000A0200000A0400000A0600000A0800000A0A00000A0C00000A0E00000C0000000C0200000C0400000C0600000C0800000C0
310
A00000C0C00000C0E00000E0000000E0200000E0400000E0600000E0800000E0A00000E0C00000E0E00040000000400020004000400040006000400080004000A0004000C0004000E00040200000402020004020400040206000402080004020A0004020C0004020E000404000004040200040404000404060004040800040
310
40A0004040C0004040E00040600000406020004060400040606000406080004060A0004060C0004060E00040800000408020004080400040806000408080004080A0004080C0004080E00040A0000040A0200040A0400040A0600040A0800040A0A00040A0C00040A0E00040C0000040C0200040C0400040C0600040C08000
310
40C0A00040C0C00040C0E00040E0000040E0200040E0400040E0600040E0800040E0A00040E0C00040E0E00080000000800020008000400080006000800080008000A0008000C0008000E00080200000802020008020400080206000802080008020A0008020C0008020E00080400000804020008040400080406000804080
310
008040A0008040C0008040E00080600000806020008060400080606000806080008060A0008060C0008060E00080800000808020008080400080806000808080008080A0008080C0008080E00080A0000080A0200080A0400080A0600080A0800080A0A00080A0C00080A0E00080C0000080C0200080C0400080C0600080C0
310
800080C0A00080C0C00080C0E00080E0000080E0200080E0400080E0600080E0800080E0A00080E0C00080E0E000C0000000C0002000C0004000C0006000C0008000C000A000C000C000C000E000C0200000C0202000C0204000C0206000C0208000C020A000C020C000C020E000C0400000C0402000C0404000C0406000C0
310
408000C040A000C040C000C040E000C0600000C0602000C0604000C0606000C0608000C060A000C060C000C060E000C0800000C0802000C0804000C0806000C0808000C080A000C080C000C080E000C0A00000C0A02000C0A04000C0A06000C0A08000C0A0A000C0A0C000C0A0E000C0C00000C0C02000C0C04000C0C06000
310
C0C08000C0C0A000F0FBFF00A4A0A000808080000000FF0000FF000000FFFF00FF000000FF00FF00FFFF0000FFFFFF000000000000000000000000000000000000000000000000000000000000000000000000000000F9F9F9F9F9F9F9F9F9F9F9F9F9F9F9F9F9F9F9F9000000000000000000000000F9F9F9F9F9F9F9F9F9
310
F9F9FFFFFFFFFFFFFFFFF9000000000000000000000000F9000000F9FFFFF9F9F9F9FFFFFFFFFFFFFFFFF9000000000000000000000000F9000000F9F9F9F9F9F9F9F9F9F9F9F9F9F9F9F9000000000000000000000000F9000000F9F9F9F9F9F9F9F9F9F9F9F9F9F9F9F9000000000000000000000000F9000000FFFFFFFF
310
FFFFFF0000F9F9F9F9F9F9F9000000000000000000000000F9000000F9F9F9F9F9F9F9F9F9F9F9F9F9F9F9F9000000000000000000000000F9000000000000000000000000000000000000F9000000000000000000000000F9000000000000000000000000000000000000F9000000000000000000000000F9000000000000
310
000000000000000000000000F9000000000000000000000000F9000000000000000000000000000000000000F9000000000000000000000000F9000000000000000000000000000000000000F9000000000000000000000000F9000000000000000000000000000000000000F9000000000000000000000000F90000000000
310
00000000000000000000000000F9000000000000000000000000F9000000000000000000000000000000000000F9000000000000000000000000F9000000000000000000000000000000000000F9000000000000000000000000F9000000000000000000000000000000000000F9000000000000000000000000F900000000
310
0000000000000000000000000000F9000000000000000000000000F9000000000000000000000000000000000000F9000000000000000000000000F9000000000000000000000000000000000000F9000000000000000000000000F9000000000000000000000000000000000000F9000000000000000000000000F9000000
310
000000000000000000000000000000F9000000000000000000000000F9000000000000000000000000000000000000F9000000000000000000000000F9000000000000000000000000000000000000F9000000000000000000000000F9000000000000000000000000000000000000F9000000000000000000000000F90000
310
00000000000000000000000000000000F9000000000000000000000000F9000000000000000000000000000000000000F9000000000000000000000000F9000000000000000000000000000000000000F9000000000000000000000000F9F9F9F9F9F9F9F9F9F9F9F9F9F9F9F9F9F9F9F9000000000000000000000000F9F9
310
F9F9F9F9F9F9F9F9F9F9F9F9F9F9F9F9F9F90000000000000000000000000000000000000000000000000000000000000000000000000000
 70
     4
280
     1
281
     0
  0
BLOCK_RECORD
  5
154
330
1
100
AcDbSymbolTableRecord
100
AcDbBlockTableRecord
  2
10
340
0
310
2800000020000000200000000100080000000000000400000000000000000000000000000000000000000000000080000080000000808000800000008000800080800000C0C0C000C0DCC000F0CAA6000020400000206000002080000020A0000020C0000020E00000400000004020000040400000406000004080000040A0
310
000040C0000040E00000600000006020000060400000606000006080000060A0000060C0000060E00000800000008020000080400000806000008080000080A0000080C0000080E00000A0000000A0200000A0400000A0600000A0800000A0A00000A0C00000A0E00000C0000000C0200000C0400000C0600000C0800000C0
310
A00000C0C00000C0E00000E0000000E0200000E0400000E0600000E0800000E0A00000E0C00000E0E00040000000400020004000400040006000400080004000A0004000C0004000E00040200000402020004020400040206000402080004020A0004020C0004020E000404000004040200040404000404060004040800040
310
40A0004040C0004040E00040600000406020004060400040606000406080004060A0004060C0004060E00040800000408020004080400040806000408080004080A0004080C0004080E00040A0000040A0200040A0400040A0600040A0800040A0A00040A0C00040A0E00040C0000040C0200040C0400040C0600040C08000
310
40C0A00040C0C00040C0E00040E0000040E0200040E0400040E0600040E0800040E0A00040E0C00040E0E00080000000800020008000400080006000800080008000A0008000C0008000E00080200000802020008020400080206000802080008020A0008020C0008020E00080400000804020008040400080406000804080
310
008040A0008040C0008040E00080600000806020008060400080606000806080008060A0008060C0008060E00080800000808020008080400080806000808080008080A0008080C0008080E00080A0000080A0200080A0400080A0600080A0800080A0A00080A0C00080A0E00080C0000080C0200080C0400080C0600080C0
310
800080C0A00080C0C00080C0E00080E0000080E0200080E0400080E0600080E0800080E0A00080E0C00080E0E000C0000000C0002000C0004000C0006000C0008000C000A000C000C000C000E000C0200000C0202000C0204000C0206000C0208000C020A000C020C000C020E000C0400000C0402000C0404000C0406000C0
310
408000C040A000C040C000C040E000C0600000C0602000C0604000C0606000C0608000C060A000C060C000C060E000C0800000C0802000C0804000C0806000C0808000C080A000C080C000C080E000C0A00000C0A02000C0A04000C0A06000C0A08000C0A0A000C0A0C000C0A0E000C0C00000C0C02000C0C04000C0C06000
310
C0C08000C0C0A000F0FBFF00A4A0A000808080000000FF0000FF000000FFFF00FF000000FF00FF00FFFF0000FFFFFF0000000000000000000000000000000000000000000000000000000000000000000000000000000000000000000000000000000000000000000000000000000000000000000000000000000000000000
310
00000000000000000000000000000000000000000000000000000000000000000000000000000000000000000000000000000000000000000000000000000000000000000000000000000000000000000000000000000000000000000000000000000000000000000000000000000000000000000000000000000000000000
310
00000000000000000000000000000000000000000000000000000000000000000000000000000000000000000000000000000000000000000000000000000000000000000000000000000000000000000000000000000000000000000000000000000000000000000000000000000000000000000000000000000000000000
310
0000000000000000000000000000000000000000000000000000000000000000000000000000000000000000000000000000000000000000000000000000000000000000000000000000000000000000000000000000000000000000000000000000000000000000000000000000000000000000FFFF00FFFFFFFFFFFFFFFF
310
FFFFFFFFFFFFFFFFFFFFFFFFFFFFFFFFFF0000000000FFFFFFFFFFFFFFFFFFFFFFFFFFFFFF00FF00FFFFFFFFFFFFFFFF000000000000FFFFFF00FFFFFFFFFFFFFFFFFFFFFF00FF00FFFFFFFFFFFFFFFF0000000000FFFFFFFFFFFFFFFFFFFFFFFFFF00FFFF00FF0000FFFF0000000000000000000000000000000000000000
310
00000000000000000000000000000000000000000000000000000000000000000000000000000000000000000000000000000000000000000000000000000000000000000000000000000000000000000000000000000000000000000000000000000000000000000000000000000000000000000000000000000000000000
310
00000000000000000000000000000000000000000000000000000000000000000000000000000000000000000000000000000000000000000000000000000000000000000000000000000000000000000000000000000000000000000000000000000000000000000000000000000000000000000000000000000000000000
310
00000000000000000000000000000000000000000000000000000000000000000000000000000000000000000000000000000000000000000000000000000000000000000000000000000000000000000000000000000000000000000000000000000000000000000000000000000000000000000000000000000000000000
310
0000000000000000000000000000000000000000000000000000000000000000000000000000000000000000000000000000000000000000
 70
     4
280
     1
281
     0
  0
BLOCK_RECORD
  5
158
330
1
100
AcDbSymbolTableRecord
100
AcDbBlockTableRecord
  2
montkov
340
0
310
2800000020000000200000000100080000000000000400000000000000000000000000000000000000000000000080000080000000808000800000008000800080800000C0C0C000C0DCC000F0CAA6000020400000206000002080000020A0000020C0000020E00000400000004020000040400000406000004080000040A0
310
000040C0000040E00000600000006020000060400000606000006080000060A0000060C0000060E00000800000008020000080400000806000008080000080A0000080C0000080E00000A0000000A0200000A0400000A0600000A0800000A0A00000A0C00000A0E00000C0000000C0200000C0400000C0600000C0800000C0
310
A00000C0C00000C0E00000E0000000E0200000E0400000E0600000E0800000E0A00000E0C00000E0E00040000000400020004000400040006000400080004000A0004000C0004000E00040200000402020004020400040206000402080004020A0004020C0004020E000404000004040200040404000404060004040800040
310
40A0004040C0004040E00040600000406020004060400040606000406080004060A0004060C0004060E00040800000408020004080400040806000408080004080A0004080C0004080E00040A0000040A0200040A0400040A0600040A0800040A0A00040A0C00040A0E00040C0000040C0200040C0400040C0600040C08000
310
40C0A00040C0C00040C0E00040E0000040E0200040E0400040E0600040E0800040E0A00040E0C00040E0E00080000000800020008000400080006000800080008000A0008000C0008000E00080200000802020008020400080206000802080008020A0008020C0008020E00080400000804020008040400080406000804080
310
008040A0008040C0008040E00080600000806020008060400080606000806080008060A0008060C0008060E00080800000808020008080400080806000808080008080A0008080C0008080E00080A0000080A0200080A0400080A0600080A0800080A0A00080A0C00080A0E00080C0000080C0200080C0400080C0600080C0
310
800080C0A00080C0C00080C0E00080E0000080E0200080E0400080E0600080E0800080E0A00080E0C00080E0E000C0000000C0002000C0004000C0006000C0008000C000A000C000C000C000E000C0200000C0202000C0204000C0206000C0208000C020A000C020C000C020E000C0400000C0402000C0404000C0406000C0
310
408000C040A000C040C000C040E000C0600000C0602000C0604000C0606000C0608000C060A000C060C000C060E000C0800000C0802000C0804000C0806000C0808000C080A000C080C000C080E000C0A00000C0A02000C0A04000C0A06000C0A08000C0A0A000C0A0C000C0A0E000C0C00000C0C02000C0C04000C0C06000
310
C0C08000C0C0A000F0FBFF00A4A0A000808080000000FF0000FF000000FFFF00FF000000FF00FF00FFFF0000FFFFFF0000000000000000000000000000000000000000000000000000000000000000000000000000000000000000000000000000000000000000000000000000000000000000000000000000000000000000
310
00000000000000000000000000000000000000000000000000000000000000000000000000000000000000000000000000000000000000000000000000000000000000000000000000000000000000000000000000000000000000000000000000000000000000000000000000000000000000000000000000000000000000
310
0000000000000000000000000000000000000000000000000000000000000000000000000000000000000000000000000000000000000000000000000000000000000000000000000000000000000000000000000000000000000000000000000000000000000000000000000000000000000000000000000000FFFFFFFFFF
310
FFFFFFFFFFFFFFFFFFFF0000000000000000000000000000FFFFFFFFFF00000000000000000000FFFFFFFFFFFF000000000000000000FFFFFFFF0000000000000000000000000000000000FFFFFFFF000000000000FFFFFF000000000000000000000000000000000000000000FFFFFF0000000000FFFFFFFFFFFFFFFFFFFF
310
FFFFFFFFFFFFFFFFFFFFFFFF00FFFFFFFF00000000FFFF00FFFFFFFFFF00FFFFFFFFFFFFFFFFFFFFFFFFFFFF00FFFF00FF00000000FFFF00FFFFFFFFFFFFFFFFFFFFFFFFFFFFFFFFFFFFFFFFFFFFFFFFFF0000000000FFFFFFFFFFFFFFFFFFFFFFFFFFFFFFFFFFFFFFFFFFFFFF00FFFFFF0000000000FFFFFF000000000000
310
000000000000000000000000000000FFFFFFFF0000000000FFFFFFFF0000000000000000000000000000000000FFFFFFFFFFFF00000000000000FFFFFFFFFF00000000000000000000FFFFFFFFFFFF00FFFFFFFF000000000000000000FFFFFFFFFFFFFFFFFFFFFFFFFFFFFF00000000FFFFFF000000000000000000000000
310
00000000000000000000000000000000000000000000000000000000000000000000000000000000000000000000000000000000000000000000000000000000000000000000000000000000000000000000000000000000000000000000000000000000000000000000000000000000000000000000000000000000000000
310
00000000000000000000000000000000000000000000000000000000000000000000000000000000000000000000000000000000000000000000000000000000000000000000000000000000000000000000000000000000000000000000000000000000000000000000000000000000000000000000000000000000000000
310
0000000000000000000000000000000000000000000000000000000000000000000000000000000000000000000000000000000000000000
 70
     4
280
     1
281
     0
  0
BLOCK_RECORD
  5
163
330
1
100
AcDbSymbolTableRecord
100
AcDbBlockTableRecord
  2
PRCLFILL
340
0
 70
     0
280
     1
281
     0
  0
BLOCK_RECORD
  5
170
330
1
100
AcDbSymbolTableRecord
100
AcDbBlockTableRecord
  2
PROFBT01KGJ3VD
340
0
 70
     0
280
     1
281
     0
  0
BLOCK_RECORD
  5
1AF
330
1
100
AcDbSymbolTableRecord
100
AcDbBlockTableRecord
  2
M
340
0
310
2800000020000000200000000100080000000000000400000000000000000000000000000000000000000000000080000080000000808000800000008000800080800000C0C0C000C0DCC000F0CAA6000020400000206000002080000020A0000020C0000020E00000400000004020000040400000406000004080000040A0
310
000040C0000040E00000600000006020000060400000606000006080000060A0000060C0000060E00000800000008020000080400000806000008080000080A0000080C0000080E00000A0000000A0200000A0400000A0600000A0800000A0A00000A0C00000A0E00000C0000000C0200000C0400000C0600000C0800000C0
310
A00000C0C00000C0E00000E0000000E0200000E0400000E0600000E0800000E0A00000E0C00000E0E00040000000400020004000400040006000400080004000A0004000C0004000E00040200000402020004020400040206000402080004020A0004020C0004020E000404000004040200040404000404060004040800040
310
40A0004040C0004040E00040600000406020004060400040606000406080004060A0004060C0004060E00040800000408020004080400040806000408080004080A0004080C0004080E00040A0000040A0200040A0400040A0600040A0800040A0A00040A0C00040A0E00040C0000040C0200040C0400040C0600040C08000
310
40C0A00040C0C00040C0E00040E0000040E0200040E0400040E0600040E0800040E0A00040E0C00040E0E00080000000800020008000400080006000800080008000A0008000C0008000E00080200000802020008020400080206000802080008020A0008020C0008020E00080400000804020008040400080406000804080
310
008040A0008040C0008040E00080600000806020008060400080606000806080008060A0008060C0008060E00080800000808020008080400080806000808080008080A0008080C0008080E00080A0000080A0200080A0400080A0600080A0800080A0A00080A0C00080A0E00080C0000080C0200080C0400080C0600080C0
310
800080C0A00080C0C00080C0E00080E0000080E0200080E0400080E0600080E0800080E0A00080E0C00080E0E000C0000000C0002000C0004000C0006000C0008000C000A000C000C000C000E000C0200000C0202000C0204000C0206000C0208000C020A000C020C000C020E000C0400000C0402000C0404000C0406000C0
310
408000C040A000C040C000C040E000C0600000C0602000C0604000C0606000C0608000C060A000C060C000C060E000C0800000C0802000C0804000C0806000C0808000C080A000C080C000C080E000C0A00000C0A02000C0A04000C0A06000C0A08000C0A0A000C0A0C000C0A0E000C0C00000C0C02000C0C04000C0C06000
310
C0C08000C0C0A000F0FBFF00A4A0A000808080000000FF0000FF000000FFFF00FF000000FF00FF00FFFF0000FFFFFF0000000000000000000000000000000000000000000000000000000000000000000000000000000000000000000000000000000000000000000000000000000000000000000000000000000000000000
310
00000000000000000000000000000000000000000000000000000000000000000000000000000000000000000000000000000000000000000000000000000000000000000000000000000000000000000000000000000000000000000000000000000000000000000000000000000000000000000000000000000000000000
310
00000000000000000000000000000000000000000000000000000000000000000000000000000000000000000000000000000000000000000000000000000000000000000000000000000000000000000000000000000000000000000000000000000000000000000000000000000000000000000000000000000000000000
310
00000000000000000000000000000000000000000000000000000000000000000000000000000000000000000000000000000000000000000000000000000000000000000000000000000000000000000000000000FFFF0000FFFFFF00FFFFFF00FF0000FFFFFFFFFFFFFFFFFFFFFFFFFFFF000000FFFF00FFFFFFFF00FFFF
310
0000FFFF00FFFFFFFF00FFFF00FFFFFFFF00FFFF0000FFFF00FFFF00FFFFFFFF00FFFFFF00FFFF00FF00FFFFFFFFFFFFFF0000000000FFFFFFFFFF00FFFFFF0000FFFF00FFFFFFFFFF00FFFFFFFFFFFFFF0000000000FFFFFFFFFF0000FFFF00FFFF0000FFFFFFFFFF00FFFF00FFFFFFFF00000000FFFFFF00FFFFFF00FF00
310
00FFFFFFFFFFFFFFFFFFFFFFFFFFFFFFFFFFFF000000000000000000000000000000000000000000000000000000000000000000000000000000000000000000000000000000000000000000000000000000000000000000000000000000000000000000000000000000000000000000000000000000000000000000000000
310
00000000000000000000000000000000000000000000000000000000000000000000000000000000000000000000000000000000000000000000000000000000000000000000000000000000000000000000000000000000000000000000000000000000000000000000000000000000000000000000000000000000000000
310
00000000000000000000000000000000000000000000000000000000000000000000000000000000000000000000000000000000000000000000000000000000000000000000000000000000000000000000000000000000000000000000000000000000000000000000000000000000000000000000000000000000000000
310
0000000000000000000000000000000000000000000000000000000000000000000000000000000000000000000000000000000000000000
 70
     4
280
     1
281
     0
  0
BLOCK_RECORD
  5
1BE
102
{ACAD_XDICTIONARY
360
225
102
}
330
1
100
AcDbSymbolTableRecord
100
AcDbBlockTableRecord
  2
Montkov_A4.dwg
340
0
 70
     4
280
     1
281
     0
  0
BLOCK_RECORD
  5
284
330
1
100
AcDbSymbolTableRecord
100
AcDbBlockTableRecord
  2
DVIEWBLOCK
340
0
 70
     0
280
     1
281
     0
  0
BLOCK_RECORD
  5
549
330
1
100
AcDbSymbolTableRecord
100
AcDbBlockTableRecord
  2
*D12
340
0
 70
     0
280
     1
281
     0
  0
BLOCK_RECORD
  5
555
330
1
100
AcDbSymbolTableRecord
100
AcDbBlockTableRecord
  2
*D13
340
0
 70
     0
280
     1
281
     0
  0
BLOCK_RECORD
  5
6FD
330
1
100
AcDbSymbolTableRecord
100
AcDbBlockTableRecord
  2
*D14
340
0
 70
     0
280
     1
281
     0
  0
BLOCK_RECORD
  5
709
330
1
100
AcDbSymbolTableRecord
100
AcDbBlockTableRecord
  2
*D15
340
0
 70
     0
280
     1
281
     0
  0
BLOCK_RECORD
  5
74E
330
1
100
AcDbSymbolTableRecord
100
AcDbBlockTableRecord
  2
*D16
340
0
 70
     0
280
     1
281
     0
  0
BLOCK_RECORD
  5
933
330
1
100
AcDbSymbolTableRecord
100
AcDbBlockTableRecord
  2
*D17
340
0
 70
     0
280
     1
281
     0
  0
BLOCK_RECORD
  5
94D
330
1
100
AcDbSymbolTableRecord
100
AcDbBlockTableRecord
  2
*D18
340
0
 70
     0
280
     1
281
     0
  0
BLOCK_RECORD
  5
967
330
1
100
AcDbSymbolTableRecord
100
AcDbBlockTableRecord
  2
*D19
340
0
 70
     0
280
     1
281
     0
  0
BLOCK_RECORD
  5
9B3
330
1
100
AcDbSymbolTableRecord
100
AcDbBlockTableRecord
  2
*D20
340
0
 70
     0
280
     1
281
     0
  0
BLOCK_RECORD
  5
9CD
330
1
100
AcDbSymbolTableRecord
100
AcDbBlockTableRecord
  2
*D21
340
0
 70
     0
280
     1
281
     0
  0
BLOCK_RECORD
  5
204E
330
1
100
AcDbSymbolTableRecord
100
AcDbBlockTableRecord
  2
*D22
340
0
 70
     0
280
     1
281
     0
  0
BLOCK_RECORD
  5
205A
330
1
100
AcDbSymbolTableRecord
100
AcDbBlockTableRecord
  2
*D23
340
0
 70
     0
280
     1
281
     0
  0
BLOCK_RECORD
  5
2066
330
1
100
AcDbSymbolTableRecord
100
AcDbBlockTableRecord
  2
*D24
340
0
 70
     0
280
     1
281
     0
  0
BLOCK_RECORD
  5
21F7
330
1
100
AcDbSymbolTableRecord
100
AcDbBlockTableRecord
  2
A$C6ACD3F3C
340
0
 70
     4
280
     1
281
     0
  0
BLOCK_RECORD
  5
226F
330
1
100
AcDbSymbolTableRecord
100
AcDbBlockTableRecord
  2
*D26
340
0
 70
     0
280
     1
281
     0
  0
BLOCK_RECORD
  5
2384
330
1
100
AcDbSymbolTableRecord
100
AcDbBlockTableRecord
  2
*D27
340
0
 70
     0
280
     1
281
     0
  0
BLOCK_RECORD
  5
23D7
330
1
100
AcDbSymbolTableRecord
100
AcDbBlockTableRecord
  2
*D28
340
0
 70
     0
280
     1
281
     0
  0
BLOCK_RECORD
  5
243D
330
1
100
AcDbSymbolTableRecord
100
AcDbBlockTableRecord
  2
*D29
340
0
 70
     0
280
     1
281
     0
  0
BLOCK_RECORD
  5
2681
330
1
100
AcDbSymbolTableRecord
100
AcDbBlockTableRecord
  2
*D30
340
0
 70
     0
280
     1
281
     0
  0
BLOCK_RECORD
  5
26D5
330
1
100
AcDbSymbolTableRecord
100
AcDbBlockTableRecord
  2
*D31
340
0
 70
     0
280
     1
281
     0
  0
BLOCK_RECORD
  5
26EF
330
1
100
AcDbSymbolTableRecord
100
AcDbBlockTableRecord
  2
*D32
340
0
 70
     0
280
     1
281
     0
  0
BLOCK_RECORD
  5
2738
330
1
100
AcDbSymbolTableRecord
100
AcDbBlockTableRecord
  2
*D33
340
0
 70
     0
280
     1
281
     0
  0
BLOCK_RECORD
  5
2755
330
1
100
AcDbSymbolTableRecord
100
AcDbBlockTableRecord
  2
*D34
340
0
 70
     0
280
     1
281
     0
  0
BLOCK_RECORD
  5
276D
330
1
100
AcDbSymbolTableRecord
100
AcDbBlockTableRecord
  2
*D35
340
0
 70
     0
280
     1
281
     0
  0
BLOCK_RECORD
  5
284A
330
1
100
AcDbSymbolTableRecord
100
AcDbBlockTableRecord
  2
*D36
340
0
 70
     0
280
     1
281
     0
  0
BLOCK_RECORD
  5
2859
330
1
100
AcDbSymbolTableRecord
100
AcDbBlockTableRecord
  2
*D37
340
0
 70
     0
280
     1
281
     0
  0
BLOCK_RECORD
  5
2868
330
1
100
AcDbSymbolTableRecord
100
AcDbBlockTableRecord
  2
*D38
340
0
 70
     0
280
     1
281
     0
  0
BLOCK_RECORD
  5
2877
330
1
100
AcDbSymbolTableRecord
100
AcDbBlockTableRecord
  2
*D39
340
0
 70
     0
280
     1
281
     0
  0
ENDTAB
  0
ENDSEC
  0
SECTION
  2
BLOCKS
  0
BLOCK
  5
20
330
1F
100
AcDbEntity
  8
0
100
AcDbBlockBegin
  2
*Model_Space
 70
     0
 10
0.0
 20
0.0
 30
0.0
  3
*Model_Space
  1

  0
ENDBLK
  5
21
330
1F
100
AcDbEntity
  8
0
100
AcDbBlockEnd
  0
BLOCK
  5
9D
330
9B
100
AcDbEntity
 67
     1
  8
0
100
AcDbBlockBegin
  2
*Paper_Space
 70
     0
 10
0.0
 20
0.0
 30
0.0
  3
*Paper_Space
  1

  0
ENDBLK
  5
9E
330
9B
100
AcDbEntity
 67
     1
  8
0
100
AcDbBlockEnd
  0
BLOCK
  5
A8
330
A7
100
AcDbEntity
  8
0
100
AcDbBlockBegin
  2
xxx
 70
     0
 10
0.0
 20
0.0
 30
0.0
  3
xxx
  1

  0
MTEXT
  5
A9
330
A7
100
AcDbEntity
  8
0
100
AcDbMText
 10
507.4791538303884
 20
478.7240082706863
 30
0.0
 40
1.5
 41
18.7557304190218
 46
0.0
 71
     1
 72
     5
  1
{\fTimes New Roman|b0|i0|c238|p18;NÁZEV VÝKRESU}
 73
     1
 44
1.0
  0
MTEXT
  5
AA
330
A7
100
AcDbEntity
  8
0
100
AcDbMText
 10
511.709301348068
 20
475.4976940256295
 30
0.0
 40
4.0
 41
52.6676087488986
 46
0.0
 71
     1
 72
     5
  1
{\fTimes New Roman|b0|i0|c238|p18;NÁZEV VÝKRESU}
 73
     1
 44
1.0
  0
ENDBLK
  5
AB
330
A7
100
AcDbEntity
  8
0
100
AcDbBlockEnd
  0
BLOCK
  5
AD
330
AC
100
AcDbEntity
  8
0
100
AcDbBlockBegin
  2
1
 70
     0
 10
0.0
 20
0.0
 30
0.0
  3
1
  1

  0
LWPOLYLINE
  5
AE
330
AC
100
AcDbEntity
  8
0
100
AcDbPolyline
 90
        5
 70
     0
 43
0.0
 10
662.4804791289989
 20
479.8778908696191
 10
662.4804791289989
 20
431.2134997231352
 10
452.4804791289986
 20
431.2134997231352
 10
452.4804791289986
 20
728.2134997231352
 10
662.4804791289989
 20
728.2134997231352
  0
LWPOLYLINE
  5
AF
330
AC
100
AcDbEntity
  8
0
100
AcDbPolyline
 90
        4
 70
     1
 43
0.0
 10
662.4804791289989
 20
431.2134997231352
 10
506.054481063084
 20
431.2134997231352
 10
506.054481063084
 20
479.8778908696191
 10
662.4804791289989
 20
479.8778908696191
  0
MTEXT
  5
B0
330
AC
100
AcDbEntity
  8
0
100
AcDbMText
 10
580.8347300625057
 20
446.7800318163729
 30
0.0
 40
2.5
 41
50.01528326767789
 46
0.0
 71
     1
 72
     5
  1
{\fTimes New Roman|b0|i0|c238|p18;\H1.4x;MONTKOV spol. s r.o. \H1.143x;\P\H0.6252x;Malé Výkleky 26, 53316 Vápno }
 73
     1
 44
1.0
  0
LINE
  5
B1
330
AC
100
AcDbEntity
  8
0
100
AcDbLine
 10
638.9043171079475
 20
431.2134997231352
 30
0.0
 11
648.8390269111235
 21
431.2134997231352
 31
0.0
  0
LINE
  5
B2
330
AC
100
AcDbEntity
  8
0
100
AcDbLine
 10
662.4804791289989
 20
431.2134997231352
 30
0.0
 11
584.2674800960415
 21
431.2134997231352
 31
0.0
  0
LINE
  5
B3
330
AC
100
AcDbEntity
  8
0
100
AcDbLine
 10
662.4804791289989
 20
450.7777609883397
 30
0.0
 11
506.054481063084
 21
450.7777609883397
 31
0.0
  0
LINE
  5
B4
330
AC
100
AcDbEntity
  8
0
100
AcDbLine
 10
662.4804791289989
 20
472.2596472505366
 30
0.0
 11
602.950877394878
 21
472.2596472505366
 31
0.0
  0
LINE
  5
B5
330
AC
100
AcDbEntity
  8
0
100
AcDbLine
 10
662.4804791289989
 20
476.3460306242563
 30
0.0
 11
602.950877394878
 21
476.3460306242563
 31
0.0
  0
LINE
  5
B6
330
AC
100
AcDbEntity
  8
0
100
AcDbLine
 10
602.950877394878
 20
479.8778908696191
 30
0.0
 11
602.950877394878
 21
450.7777609883397
 31
0.0
  0
LINE
  5
B7
330
AC
100
AcDbEntity
  8
0
100
AcDbLine
 10
618.4599276070525
 20
479.8778908696191
 30
0.0
 11
618.4599276070525
 21
450.7777609883397
 31
0.0
  0
LINE
  5
B8
330
AC
100
AcDbEntity
  8
0
100
AcDbLine
 10
637.6616107420241
 20
479.8778908696191
 30
0.0
 11
637.6616107420241
 21
450.7777609883397
 31
0.0
  0
LINE
  5
B9
330
AC
100
AcDbEntity
  8
0
100
AcDbLine
 10
602.950877394878
 20
464.0868805030971
 30
0.0
 11
506.054481063084
 21
464.0868805030971
 31
0.0
  0
LINE
  5
BA
330
AC
100
AcDbEntity
  8
0
100
AcDbLine
 10
662.4804791289989
 20
728.2134997231352
 30
0.0
 11
662.4804791289989
 21
479.8778908696191
 31
0.0
  0
LINE
  5
BB
330
AC
100
AcDbEntity
  8
0
100
AcDbLine
 10
546.2424119073016
 20
464.0868805030971
 30
0.0
 11
546.2424119073016
 21
450.7777609883397
 31
0.0
  0
LINE
  5
BC
330
AC
100
AcDbEntity
  8
0
100
AcDbLine
 10
574.2440681181462
 20
431.2134997231352
 30
0.0
 11
574.2440681181462
 21
450.7777609883397
 31
0.0
  0
LINE
  5
BD
330
AC
100
AcDbEntity
  8
0
100
AcDbLine
 10
662.4804791289989
 20
468.1732638768168
 30
0.0
 11
602.950877394878
 21
468.1732638768168
 31
0.0
  0
LINE
  5
BE
330
AC
100
AcDbEntity
  8
0
100
AcDbLine
 10
662.4804791289989
 20
464.0868805030971
 30
0.0
 11
602.950877394878
 21
464.0868805030971
 31
0.0
  0
MTEXT
  5
BF
330
AC
100
AcDbEntity
  8
0
100
AcDbMText
 10
604.9554334258207
 20
475.0112283386655
 30
0.0
 40
1.5
 41
10.04094738617345
 46
0.0
 71
     1
 72
     5
  1
{\fTimes New Roman|b0|i0|c238|p18;NAVRHL}
 73
     1
 44
1.0
  0
MTEXT
  5
C0
330
AC
100
AcDbEntity
  8
0
100
AcDbMText
 10
604.805020360873
 20
471.149391590696
 30
0.0
 40
1.5
 41
11.36711012678415
 46
0.0
 71
     1
 72
     5
  1
{\fTimes New Roman|b0|i0|c238|p18;KRESLIL}
 73
     1
 44
1.0
  0
MTEXT
  5
C1
330
AC
100
AcDbEntity
  8
0
100
AcDbMText
 10
604.940956085668
 20
467.4216439023168
 30
0.0
 40
1.5
 41
11.74601261501925
 46
0.0
 71
     1
 72
     5
  1
{\fTimes New Roman|b0|i0|c238|p18;SCHVÁLIL}
 73
     1
 44
1.0
  0
MTEXT
  5
C2
330
AC
100
AcDbEntity
  8
0
100
AcDbMText
 10
622.6665423913573
 20
478.9658611818461
 30
0.0
 40
1.5
 41
8.904235083323328
 46
0.0
 71
     1
 72
     5
  1
{\fTimes New Roman|b0|i0|c238|p18;DATUM}
 73
     1
 44
1.0
  0
MTEXT
  5
C3
330
AC
100
AcDbEntity
  8
0
100
AcDbMText
 10
645.2421731162838
 20
479.1782468735458
 30
0.0
 40
1.5
 41
8.335880544613017
 46
0.0
 71
     1
 72
     5
  1
{\fTimes New Roman|b0|i0|c238|p18;JMÉNO}
 73
     1
 44
1.0
  0
MTEXT
  5
C4
330
AC
100
AcDbEntity
  8
0
100
AcDbMText
 10
513.9247069285548
 20
458.0653470501133
 30
0.0
 40
4.0
 41
27.84941916553498
 46
0.0
 71
     1
 72
     5
  1
{\fTimes New Roman|b0|i0|c238|p18;0004-03-03}
 73
     1
 44
1.0
  0
MTEXT
  5
C5
330
AC
100
AcDbEntity
  8
0
100
AcDbMText
 10
509.7365141846388
 20
462.4885725280293
 30
0.0
 40
1.5
 41
17.80847339207616
 46
0.0
 71
     1
 72
     5
  1
{\fTimes New Roman|b0|i0|c238|p18;ČÍSLO VÝKRESU}
 73
     1
 44
1.0
  0
MTEXT
  5
C6
330
AC
100
AcDbEntity
  8
0
100
AcDbMText
 10
605.0964233985866
 20
462.8014606697455
 30
0.0
 40
1.5
 41
10.41985148712342
 46
0.0
 71
     1
 72
     5
  1
{\fTimes New Roman|b0|i0|c238|p18;MĚŘÍTKO}
 73
     1
 44
1.0
  0
MTEXT
  5
C7
330
AC
100
AcDbEntity
  8
0
100
AcDbMText
 10
607.0279218394357
 20
458.2777403119061
 30
0.0
 40
4.0
 41
27.84941916553498
 46
0.0
 71
     1
 72
     5
  1
{\fTimes New Roman|b0|i0|c238|p18;1:1}
 73
     1
 44
1.0
  0
MTEXT
  5
C8
330
AC
100
AcDbEntity
  8
0
100
AcDbMText
 10
510.0126496519813
 20
448.9498251727891
 30
0.0
 40
1.5
 41
10.04094738617345
 46
0.0
 71
     1
 72
     5
  1
{\fTimes New Roman|b0|i0|c238|p18;MATERIÁL}
 73
     1
 44
1.0
  0
LINE
  5
C9
330
AC
100
AcDbEntity
  8
0
100
AcDbLine
 10
506.054481063084
 20
450.7777609883397
 30
0.0
 11
506.054481063084
 21
431.2134997231352
 31
0.0
  0
LINE
  5
CA
330
AC
100
AcDbEntity
  8
0
100
AcDbLine
 10
506.054481063084
 20
440.9956303557375
 30
0.0
 11
574.2440681181462
 21
440.9956303557375
 31
0.0
  0
INSERT
  5
CB
330
AC
100
AcDbEntity
  8
0
100
AcDbBlockReference
  2
3
 10
20.85315462783001
 20
-54.77461416037312
 30
0.0
  0
MTEXT
  5
CC
330
AC
100
AcDbEntity
  8
0
100
AcDbMText
 10
525.4209438985334
 20
447.5876467580361
 30
0.0
 40
2.5
 41
27.84941916553498
 46
0.0
 71
     1
 72
     5
  1
{\fTimes New Roman|b0|i0|c238|p18;PLECH tl.1.5mm}
 73
     1
 44
1.0
  0
MTEXT
  5
CD
330
AC
100
AcDbEntity
  8
0
100
AcDbMText
 10
622.8450021782157
 20
462.8014606697455
 30
0.0
 40
1.5
 41
10.41985148712342
 46
0.0
 71
     1
 72
     5
  1
{\fTimes New Roman|b0|i0|c238|p18;LIST/LISŮ}
 73
     1
 44
1.0
  0
MTEXT
  5
CE
330
AC
100
AcDbEntity
  8
0
100
AcDbMText
 10
624.7765006190652
 20
458.2777403119061
 30
0.0
 40
4.0
 41
27.84941916553498
 46
0.0
 71
     1
 72
     5
  1
{\fTimes New Roman|b0|i0|c238|p18;1/1}
 73
     1
 44
1.0
  0
MTEXT
  5
CF
330
AC
100
AcDbEntity
  8
0
100
AcDbMText
 10
509.0567855665088
 20
478.6129079016853
 30
0.0
 40
1.5
 41
18.7557304190218
 46
0.0
 71
     1
 72
     5
  1
{\fTimes New Roman|b0|i0|c238|p18;NÁZEV VÝKRESU}
 73
     1
 44
1.0
  0
MTEXT
  5
D0
330
AC
100
AcDbEntity
  8
0
100
AcDbMText
 10
509.0301709352798
 20
475.3865928155071
 30
0.0
 40
3.0
 41
88.30086007899536
 46
0.0
 71
     1
 72
     5
  1
{\fTimes New Roman|b0|i0|c238|p18;OCELOVÁ VRATA OTOČNÁ \PDVOUKŘÍDLÁ - ZATEPLENÁ}
 73
     1
 44
1.0
  0
TEXT
  5
D1
330
AC
100
AcDbEntity
  8
0
100
AcDbText
 10
525.3596605531838
 20
435.377080352802
 30
0.0
 40
2.5
  1
POZN.
100
AcDbText
  0
TEXT
  5
D2
330
AC
100
AcDbEntity
  8
0
100
AcDbText
 10
509.9758796447715
 20
437.3589415361205
 30
0.0
 40
1.5
  1
POZNAMKA
100
AcDbText
  0
MTEXT
  5
D3
330
AC
100
AcDbEntity
  8
0
100
AcDbMText
 10
623.3334145249877
 20
475.0112283386655
 30
0.0
 40
1.5
 41
10.04094738617345
 46
0.0
 71
     1
 72
     5
  1
{\fTimes New Roman|b0|i0|c238|p18;NAVRHL}
 73
     1
 44
1.0
  0
MTEXT
  5
D4
330
AC
100
AcDbEntity
  8
0
100
AcDbMText
 10
623.1830014600403
 20
471.149391590696
 30
0.0
 40
1.5
 41
11.36711012678415
 46
0.0
 71
     1
 72
     5
  1
{\fTimes New Roman|b0|i0|c238|p18;KRESLIL}
 73
     1
 44
1.0
  0
MTEXT
  5
D5
330
AC
100
AcDbEntity
  8
0
100
AcDbMText
 10
623.318937184835
 20
467.4216439023168
 30
0.0
 40
1.5
 41
11.74601261501925
 46
0.0
 71
     1
 72
     5
  1
{\fTimes New Roman|b0|i0|c238|p18;SCHVÁLIL}
 73
     1
 44
1.0
  0
MTEXT
  5
D6
330
AC
100
AcDbEntity
  8
0
100
AcDbMText
 10
644.959140796087
 20
475.0112283386655
 30
0.0
 40
1.5
 41
10.04094738617345
 46
0.0
 71
     1
 72
     5
  1
{\fTimes New Roman|b0|i0|c238|p18;NAVRHL}
 73
     1
 44
1.0
  0
MTEXT
  5
D7
330
AC
100
AcDbEntity
  8
0
100
AcDbMText
 10
644.8087277311392
 20
471.149391590696
 30
0.0
 40
1.5
 41
11.36711012678415
 46
0.0
 71
     1
 72
     5
  1
{\fTimes New Roman|b0|i0|c238|p18;KRESLIL}
 73
     1
 44
1.0
  0
MTEXT
  5
D8
330
AC
100
AcDbEntity
  8
0
100
AcDbMText
 10
644.9446634559342
 20
467.4216439023168
 30
0.0
 40
1.5
 41
11.74601261501925
 46
0.0
 71
     1
 72
     5
  1
{\fTimes New Roman|b0|i0|c238|p18;SCHVÁLIL}
 73
     1
 44
1.0
  0
MTEXT
  5
D9
330
AC
100
AcDbEntity
  8
0
100
AcDbMText
 10
549.7718171148995
 20
462.4885725280293
 30
0.0
 40
1.5
 41
17.80847339207616
 46
0.0
 71
     1
 72
     5
  1
{\fTimes New Roman|b0|i0|c238|p18;Datum}
 73
     1
 44
1.0
  0
MTEXT
  5
DA
330
AC
100
AcDbEntity
  8
0
100
AcDbMText
 10
558.6979137563396
 20
458.0653470501133
 30
0.0
 40
4.0
 41
27.84941916553498
 46
0.0
 71
     1
 72
     5
  1
{\fTimes New Roman|b0|i0|c238|p18;22.08. 2005}
 73
     1
 44
1.0
  0
ENDBLK
  5
DB
330
AC
100
AcDbEntity
  8
0
100
AcDbBlockEnd
  0
BLOCK
  5
DD
330
DC
100
AcDbEntity
  8
0
100
AcDbBlockBegin
  2
2
 70
     0
 10
0.0
 20
0.0
 30
0.0
  3
2
  1

  0
MTEXT
  5
DE
330
DC
100
AcDbEntity
  8
0
100
AcDbMText
 10
601.8001683408653
 20
474.2351322976451
 30
0.0
 40
1.5
 41
10.04094738617345
 46
0.0
 71
     1
 72
     5
  1
{\fTimes New Roman|b0|i0|c238|p18;NAVRHL}
 73
     1
 44
1.0
  0
MTEXT
  5
DF
330
DC
100
AcDbEntity
  8
0
100
AcDbMText
 10
601.6497552759176
 20
467.2660027875891
 30
0.0
 40
1.5
 41
11.36711012678415
 46
0.0
 71
     1
 72
     5
  1
{\fTimes New Roman|b0|i0|c238|p18;KRESLIL}
 73
     1
 44
1.0
  0
MTEXT
  5
E0
330
DC
100
AcDbEntity
  8
0
100
AcDbMText
 10
601.7856910007123
 20
460.7710050326182
 30
0.0
 40
1.5
 41
11.74601261501925
 46
0.0
 71
     1
 72
     5
  1
{\fTimes New Roman|b0|i0|c238|p18;SCHVÁLIL}
 73
     1
 44
1.0
  0
MTEXT
  5
E1
330
DC
100
AcDbEntity
  8
0
100
AcDbMText
 10
619.5112773064018
 20
478.1897651408256
 30
0.0
 40
1.5
 41
8.904235083323328
 46
0.0
 71
     1
 72
     5
  1
{\fTimes New Roman|b0|i0|c238|p18;DATUM}
 73
     1
 44
1.0
  0
MTEXT
  5
E2
330
DC
100
AcDbEntity
  8
0
100
AcDbMText
 10
642.0869080313281
 20
478.4021508325253
 30
0.0
 40
1.5
 41
8.335880544613017
 46
0.0
 71
     1
 72
     5
  1
{\fTimes New Roman|b0|i0|c238|p18;JMÉNO}
 73
     1
 44
1.0
  0
ENDBLK
  5
E3
330
DC
100
AcDbEntity
  8
0
100
AcDbBlockEnd
  0
BLOCK
  5
E5
330
E4
100
AcDbEntity
  8
0
100
AcDbBlockBegin
  2
3
 70
     0
 10
0.0
 20
0.0
 30
0.0
  3
3
  1

  0
CIRCLE
  5
E6
330
E4
100
AcDbEntity
  8
0
100
AcDbCircle
 10
635.2312334417232
 20
512.7568818010209
 30
0.0
 40
1.792126931918438
  0
CIRCLE
  5
E7
330
E4
100
AcDbEntity
  8
0
100
AcDbCircle
 10
635.2312334417232
 20
512.7568818010209
 30
0.0
 40
3.456244102355085
  0
LINE
  5
E8
330
E4
100
AcDbEntity
  8
0
100
AcDbLine
 10
630.9734506291778
 20
512.7568818010209
 30
0.0
 11
639.4890162542687
 21
512.7568818010209
 31
0.0
  0
LINE
  5
E9
330
E4
100
AcDbEntity
  8
0
100
AcDbLine
 10
635.2312334417232
 20
508.4990989884756
 30
0.0
 11
635.2312334417232
 21
517.0146646135665
 31
0.0
  0
LINE
  5
EA
330
E4
100
AcDbEntity
  8
0
100
AcDbLine
 10
628.4866756241629
 20
516.2131259033762
 30
0.0
 11
628.4866756241629
 21
509.3006376986658
 31
0.0
  0
LINE
  5
EB
330
E4
100
AcDbEntity
  8
0
100
AcDbLine
 10
621.8558258572308
 20
514.5605730752771
 30
0.0
 11
621.8558258572308
 21
510.9763192114402
 31
0.0
  0
LINE
  5
EC
330
E4
100
AcDbEntity
  8
0
100
AcDbLine
 10
621.8558258572308
 20
510.9763192114402
 30
0.0
 11
628.4866756241629
 21
509.3006376986658
 31
0.0
  0
LINE
  5
ED
330
E4
100
AcDbEntity
  8
0
100
AcDbLine
 10
628.4866756241629
 20
516.2131259033762
 30
0.0
 11
621.8558258572308
 21
514.5605730752771
 31
0.0
  0
LINE
  5
EE
330
E4
100
AcDbEntity
  8
0
100
AcDbLine
 10
621.8558258572308
 20
514.5605730752771
 30
0.0
 11
621.8558258572308
 21
510.9763192114402
 31
0.0
  0
LINE
  5
EF
330
E4
100
AcDbEntity
  8
0
100
AcDbLine
 10
629.498682563459
 20
512.7568818010209
 30
0.0
 11
619.6155167358456
 21
512.7568818010209
 31
0.0
  0
ENDBLK
  5
F0
330
E4
100
AcDbEntity
  8
0
100
AcDbBlockEnd
  0
BLOCK
  5
F2
330
F1
100
AcDbEntity
  8
0
100
AcDbBlockBegin
  2
tabulka
 70
     0
 10
0.0
 20
0.0
 30
0.0
  3
tabulka
  1

  0
MTEXT
  5
F3
330
F1
100
AcDbEntity
  8
0
100
AcDbMText
 10
1121.451436088717
 20
416.283123395541
 30
0.0
 40
2.5
 41
50.01528326767789
 46
0.0
 71
     1
 72
     5
  1
{\fTimes New Roman|b0|i0|c238|p18;\H1.4x;MONTKOV spol. s r.o. \H1.143x;\P\H0.6252x;Malé Výkleky 26, 53316 Vápno }
 73
     1
 44
1.0
  0
LINE
  5
F4
330
F1
100
AcDbEntity
  8
PROF_FRM1
100
AcDbLine
 10
1203.09718515521
 20
420.2808525675076
 30
0.0
 11
1046.671187089295
 21
420.2808525675076
 31
0.0
  0
LINE
  5
F5
330
F1
100
AcDbEntity
  8
PROF_FRM1
100
AcDbLine
 10
1203.09718515521
 20
441.7627388297047
 30
0.0
 11
1143.567583421089
 21
441.7627388297047
 31
0.0
  0
LINE
  5
F6
330
F1
100
AcDbEntity
  8
PROF_FRM1
100
AcDbLine
 10
1203.09718515521
 20
445.8491222034242
 30
0.0
 11
1143.567583421089
 21
445.8491222034242
 31
0.0
  0
LINE
  5
F7
330
F1
100
AcDbEntity
  8
PROF_FRM1
100
AcDbLine
 10
1143.567583421089
 20
449.3809824487871
 30
0.0
 11
1143.567583421089
 21
420.2808525675076
 31
0.0
  0
LINE
  5
F8
330
F1
100
AcDbEntity
  8
PROF_FRM1
100
AcDbLine
 10
1159.076633633264
 20
449.3809824487871
 30
0.0
 11
1159.076633633264
 21
420.2808525675076
 31
0.0
  0
LINE
  5
F9
330
F1
100
AcDbEntity
  8
PROF_FRM1
100
AcDbLine
 10
1178.278316768236
 20
449.3809824487871
 30
0.0
 11
1178.278316768236
 21
420.2808525675076
 31
0.0
  0
LINE
  5
FA
330
F1
100
AcDbEntity
  8
PROF_FRM1
100
AcDbLine
 10
1143.567583421089
 20
433.589972082265
 30
0.0
 11
1046.671187089295
 21
433.589972082265
 31
0.0
  0
LINE
  5
FB
330
F1
100
AcDbEntity
  8
PROF_FRM1
100
AcDbLine
 10
1086.859117933513
 20
433.589972082265
 30
0.0
 11
1086.859117933513
 21
420.2808525675076
 31
0.0
  0
LINE
  5
FC
330
F1
100
AcDbEntity
  8
PROF_FRM1
100
AcDbLine
 10
1114.860774144357
 20
400.7165913023031
 30
0.0
 11
1114.860774144357
 21
420.280852567508
 31
0.0
  0
LINE
  5
FD
330
F1
100
AcDbEntity
  8
PROF_FRM1
100
AcDbLine
 10
1203.09718515521
 20
437.676355455985
 30
0.0
 11
1143.567583421089
 21
437.676355455985
 31
0.0
  0
LINE
  5
FE
330
F1
100
AcDbEntity
  8
PROF_FRM1
100
AcDbLine
 10
1203.09718515521
 20
433.589972082265
 30
0.0
 11
1143.567583421089
 21
433.589972082265
 31
0.0
  0
MTEXT
  5
FF
330
F1
100
AcDbEntity
  8
0
100
AcDbMText
 10
1145.572139452032
 20
444.5143199178335
 30
0.0
 40
1.5
 41
10.04094738617345
 46
0.0
 71
     1
 72
     5
  1
{\fTimes New Roman|b0|i0|c238|p18;NAVRHL}
 73
     1
 44
1.0
  0
MTEXT
  5
100
330
F1
100
AcDbEntity
  8
0
100
AcDbMText
 10
1145.421726387084
 20
440.6524831698641
 30
0.0
 40
1.5
 41
11.36711012678415
 46
0.0
 71
     1
 72
     5
  1
{\fTimes New Roman|b0|i0|c238|p18;KRESLIL}
 73
     1
 44
1.0
  0
MTEXT
  5
101
330
F1
100
AcDbEntity
  8
0
100
AcDbMText
 10
1145.557662111879
 20
436.9247354814848
 30
0.0
 40
1.5
 41
11.74601261501925
 46
0.0
 71
     1
 72
     5
  1
{\fTimes New Roman|b0|i0|c238|p18;SCHVÁLIL}
 73
     1
 44
1.0
  0
MTEXT
  5
102
330
F1
100
AcDbEntity
  8
0
100
AcDbMText
 10
1163.283248417569
 20
448.4689527610141
 30
0.0
 40
1.5
 41
8.904235083323328
 46
0.0
 71
     1
 72
     5
  1
{\fTimes New Roman|b0|i0|c238|p18;DATUM}
 73
     1
 44
1.0
  0
MTEXT
  5
103
330
F1
100
AcDbEntity
  8
0
100
AcDbMText
 10
1185.858879142495
 20
448.6813384527136
 30
0.0
 40
1.5
 41
8.335880544613017
 46
0.0
 71
     1
 72
     5
  1
{\fTimes New Roman|b0|i0|c238|p18;JMÉNO}
 73
     1
 44
1.0
  0
MTEXT
  5
104
330
F1
100
AcDbEntity
  8
0
100
AcDbMText
 10
1054.541412954766
 20
427.5684386292813
 30
0.0
 40
4.0
 41
27.84941916553498
 46
0.0
 71
     1
 72
     5
  1
{\fTimes New Roman|b0|i0|c238|p18;0004-03-03}
 73
     1
 44
1.0
  0
MTEXT
  5
105
330
F1
100
AcDbEntity
  8
0
100
AcDbMText
 10
1050.35322021085
 20
431.9916641071973
 30
0.0
 40
1.5
 41
17.80847339207616
 46
0.0
 71
     1
 72
     5
  1
{\fTimes New Roman|b0|i0|c238|p18;ČÍSLO VÝKRESU}
 73
     1
 44
1.0
  0
MTEXT
  5
106
330
F1
100
AcDbEntity
  8
0
100
AcDbMText
 10
1145.713129424798
 20
432.3045522489135
 30
0.0
 40
1.5
 41
10.41985148712342
 46
0.0
 71
     1
 72
     5
  1
{\fTimes New Roman|b0|i0|c238|p18;MĚŘÍTKO}
 73
     1
 44
1.0
  0
MTEXT
  5
107
330
F1
100
AcDbEntity
  8
0
100
AcDbMText
 10
1147.644627865647
 20
427.7808318910742
 30
0.0
 40
4.0
 41
27.84941916553498
 46
0.0
 71
     1
 72
     5
  1
{\fTimes New Roman|b0|i0|c238|p18;1:1}
 73
     1
 44
1.0
  0
MTEXT
  5
108
330
F1
100
AcDbEntity
  8
0
100
AcDbMText
 10
1050.629355678192
 20
418.4529167519573
 30
0.0
 40
1.5
 41
10.04094738617345
 46
0.0
 71
     1
 72
     5
  1
{\fTimes New Roman|b0|i0|c238|p18;MATERIÁL}
 73
     1
 44
1.0
  0
LINE
  5
109
330
F1
100
AcDbEntity
  8
PROF_FRM1
100
AcDbLine
 10
1046.671187089295
 20
420.2808525675076
 30
0.0
 11
1046.671187089295
 21
400.7165913023031
 31
0.0
  0
LINE
  5
10A
330
F1
100
AcDbEntity
  8
PROF_FRM1
100
AcDbLine
 10
1046.671187089295
 20
410.4987219349056
 30
0.0
 11
1114.860774144357
 21
410.4987219349056
 31
0.0
  0
INSERT
  5
10B
330
F1
100
AcDbEntity
  8
0
100
AcDbBlockReference
  2
3
 10
561.4698606540413
 20
-85.27152258120514
 30
0.0
  0
MTEXT
  5
10C
330
F1
100
AcDbEntity
  8
0
100
AcDbMText
 10
1163.461708204427
 20
432.3045522489135
 30
0.0
 40
1.5
 41
10.41985148712342
 46
0.0
 71
     1
 72
     5
  1
{\fTimes New Roman|b0|i0|c238|p18;LIST/LISŮ}
 73
     1
 44
1.0
  0
MTEXT
  5
10D
330
F1
100
AcDbEntity
  8
0
100
AcDbMText
 10
1165.393206645276
 20
427.7808318910742
 30
0.0
 40
4.0
 41
27.84941916553498
 46
0.0
 71
     1
 72
     5
  1
{\fTimes New Roman|b0|i0|c238|p18;1/1}
 73
     1
 44
1.0
  0
MTEXT
  5
10E
330
F1
100
AcDbEntity
  8
0
100
AcDbMText
 10
1049.67349159272
 20
448.1159994808534
 30
0.0
 40
1.5
 41
18.7557304190218
 46
0.0
 71
     1
 72
     5
  1
{\fTimes New Roman|b0|i0|c238|p18;NÁZEV VÝKRESU}
 73
     1
 44
1.0
  0
MTEXT
  5
10F
330
F1
100
AcDbEntity
  8
0
100
AcDbMText
 10
1049.646876961491
 20
444.8896843946751
 30
0.0
 40
3.0
 41
88.30086007899536
 46
0.0
 71
     1
 72
     5
  1
{\fTimes New Roman|b0|i0|c238|p18;OCELOVÁ VRATA OTOČNÁ \PDVOUKŘÍDLÁ - ZATEPLENÁ}
 73
     1
 44
1.0
  0
MTEXT
  5
110
330
F1
100
AcDbEntity
  8
0
100
AcDbMText
 10
1163.950120551199
 20
444.5143199178335
 30
0.0
 40
1.5
 41
10.04094738617345
 46
0.0
 71
     1
 72
     5
  1
{\fTimes New Roman|b0|i0|c238|p18;NAVRHL}
 73
     1
 44
1.0
  0
MTEXT
  5
111
330
F1
100
AcDbEntity
  8
0
100
AcDbMText
 10
1163.799707486251
 20
440.6524831698641
 30
0.0
 40
1.5
 41
11.36711012678415
 46
0.0
 71
     1
 72
     5
  1
{\fTimes New Roman|b0|i0|c238|p18;KRESLIL}
 73
     1
 44
1.0
  0
MTEXT
  5
112
330
F1
100
AcDbEntity
  8
0
100
AcDbMText
 10
1163.935643211046
 20
436.9247354814849
 30
0.0
 40
1.5
 41
11.74601261501925
 46
0.0
 71
     1
 72
     5
  1
{\fTimes New Roman|b0|i0|c238|p18;SCHVÁLIL}
 73
     1
 44
1.0
  0
MTEXT
  5
113
330
F1
100
AcDbEntity
  8
0
100
AcDbMText
 10
1185.575846822298
 20
444.5143199178335
 30
0.0
 40
1.5
 41
10.04094738617345
 46
0.0
 71
     1
 72
     5
  1
{\fTimes New Roman|b0|i0|c238|p18;NAVRHL}
 73
     1
 44
1.0
  0
MTEXT
  5
114
330
F1
100
AcDbEntity
  8
0
100
AcDbMText
 10
1185.425433757351
 20
440.6524831698641
 30
0.0
 40
1.5
 41
11.36711012678415
 46
0.0
 71
     1
 72
     5
  1
{\fTimes New Roman|b0|i0|c238|p18;KRESLIL}
 73
     1
 44
1.0
  0
MTEXT
  5
115
330
F1
100
AcDbEntity
  8
0
100
AcDbMText
 10
1185.561369482146
 20
436.9247354814849
 30
0.0
 40
1.5
 41
11.74601261501925
 46
0.0
 71
     1
 72
     5
  1
{\fTimes New Roman|b0|i0|c238|p18;SCHVÁLIL}
 73
     1
 44
1.0
  0
MTEXT
  5
116
330
F1
100
AcDbEntity
  8
0
100
AcDbMText
 10
1090.388523141111
 20
431.9916641071973
 30
0.0
 40
1.5
 41
36.77551580697514
 46
0.0
 71
     1
 72
     5
  1
{\fTimes New Roman|b0|i0|c238|p18;ČÍSLO ŘÍZENÉ KOPIE}
 73
     1
 44
1.0
  0
MTEXT
  5
117
330
F1
100
AcDbEntity
  8
0
100
AcDbMText
 10
1099.314619782551
 20
427.5684386292813
 30
0.0
 40
4.0
 41
39.38886286790489
 46
0.0
 71
     1
 72
     5
  1
{\fTimes New Roman|b0|i0|c238|p18;0004-055-52}
 73
     1
 44
1.0
  0
MTEXT
  5
118
330
F1
100
AcDbEntity
  8
0
100
AcDbMText
 10
1066.037649924745
 20
417.0907383372042
 30
0.0
 40
2.5
 41
48.82312421961272
 46
0.0
 71
     1
 72
     5
  1
{\fTimes New Roman|b0|i0|c238|p18;OCEL 11321  tl.1.5mm}
 73
     1
 44
1.0
  0
ELLIPSE
  5
119
102
{ACAD_REACTORS
330
11F
102
}
330
F1
100
AcDbEntity
  8
0
100
AcDbEllipse
 10
1186.585063421125
 20
410.6152150617167
 30
0.0
 11
-10.28943239498608
 21
0.0
 31
0.0
210
0.0
220
0.0
230
1.0
 40
0.4427098778200563
 41
0.0
 42
6.283185307179584
  0
ELLIPSE
  5
11A
102
{ACAD_REACTORS
330
11F
102
}
330
F1
100
AcDbEntity
  8
0
100
AcDbEllipse
 10
1186.535077420551
 20
410.6152150617167
 30
0.0
 11
-9.933185758467175
 21
0.0
 31
0.0
210
0.0
220
0.0
230
1.0
 40
0.4224340543967271
 41
0.0
 42
6.283185307179584
  0
MTEXT
  5
11B
330
F1
100
AcDbEntity
  8
0
100
AcDbMText
 10
1177.924683346355
 20
411.8116365440354
 30
0.0
 40
2.0
 41
18.66668809605653
 46
0.0
 71
     1
 72
     5
  1
{\fUnivers|b1|i0|c238|p34;\H1.2x;MONTKOV}
 73
     1
 44
1.0
  0
CIRCLE
  5
11C
102
{ACAD_REACTORS
330
120
102
}
330
F1
100
AcDbEntity
  8
0
100
AcDbCircle
 10
1196.628331539241
 20
413.9709326481098
 30
0.0
 40
1.112879619698478
  0
CIRCLE
  5
11D
102
{ACAD_REACTORS
330
120
102
}
330
F1
100
AcDbEntity
  8
0
100
AcDbCircle
 10
1196.628331539241
 20
413.9709326481098
 30
0.0
 40
0.9114131270303767
  0
MTEXT
  5
11E
330
F1
100
AcDbEntity
  8
0
100
AcDbMText
 10
1196.257452351835
 20
414.4908070566494
 30
0.0
 40
1.0
 41
1.01638022695829
 46
0.0
 71
     1
 72
     5
  1
{\fArial|b1|i0|c0|p34;R}
 73
     1
 44
1.0
  0
HATCH
  5
11F
330
F1
100
AcDbEntity
  8
0
100
AcDbHatch
 10
0.0
 20
0.0
 30
0.0
210
0.0
220
0.0
230
1.0
  2
SOLID
 70
     1
 71
     1
 91
        2
 92
        1
 93
        1
 72
     3
 10
1186.585063421125
 20
410.6152150617167
 11
-10.28943239498608
 21
0.0
 40
0.4427098778200563
 50
0.0
 51
360.0
 73
     1
 97
        1
330
119
 92
       16
 93
        1
 72
     3
 10
1186.535077420551
 20
410.6152150617167
 11
-9.933185758467175
 21
0.0
 40
0.4224340543967271
 50
0.0
 51
360.0
 73
     1
 97
        1
330
11A
 75
     0
 76
     1
 98
        1
 10
504.3534648163781
 20
-30.49621376264366
450
        0
451
        0
460
0.0
461
0.0
452
        1
462
1.0
453
        2
463
0.0
 63
     5
421
      255
463
1.0
 63
    51
421
 16777113
470
LINEAR
  0
HATCH
  5
120
330
F1
100
AcDbEntity
  8
0
100
AcDbHatch
 10
0.0
 20
0.0
 30
0.0
210
0.0
220
0.0
230
1.0
  2
SOLID
 70
     1
 71
     1
 91
        2
 92
       16
 93
        1
 72
     2
 10
1196.628331539241
 20
413.9709326481098
 40
0.9114131270303767
 50
0.0
 51
360.0
 73
     1
 97
        1
330
11D
 92
        1
 93
        1
 72
     2
 10
1196.628331539241
 20
413.9709326481098
 40
1.112879619698478
 50
0.0
 51
360.0
 73
     1
 97
        1
330
11C
 75
     0
 76
     1
 98
        1
 10
504.3534648163781
 20
-30.49621376264366
450
        0
451
        0
460
0.0
461
0.0
452
        1
462
1.0
453
        2
463
0.0
 63
     5
421
      255
463
1.0
 63
    51
421
 16777113
470
LINEAR
  0
LINE
  5
121
330
F1
100
AcDbEntity
  8
PROF_FRM1
100
AcDbLine
 10
998.0971851552105
 20
395.7165913023033
 30
0.0
 11
998.0971851552105
 21
692.7165913023032
 31
0.0
  0
LINE
  5
122
330
F1
100
AcDbEntity
  8
PROF_FRM1
100
AcDbLine
 10
998.0971851552105
 20
692.7165913023032
 30
0.0
 11
1208.09718515521
 21
692.7165913023032
 31
0.0
  0
LINE
  5
123
330
F1
100
AcDbEntity
  8
PROF_FRM1
100
AcDbLine
 10
1208.09718515521
 20
692.7165913023032
 30
0.0
 11
1208.09718515521
 21
395.7165913023033
 31
0.0
  0
LINE
  5
124
330
F1
100
AcDbEntity
  8
PROF_FRM1
100
AcDbLine
 10
1208.09718515521
 20
395.7165913023033
 30
0.0
 11
998.0971851552105
 21
395.7165913023033
 31
0.0
  0
LINE
  5
125
330
F1
100
AcDbEntity
  8
PROF_FRM1
100
AcDbLine
 10
1003.09718515521
 20
400.7165913023031
 30
0.0
 11
1003.09718515521
 21
687.7165913023032
 31
0.0
  0
LINE
  5
126
330
F1
100
AcDbEntity
  8
PROF_FRM1
100
AcDbLine
 10
1003.09718515521
 20
687.7165913023032
 30
0.0
 11
1203.09718515521
 21
687.7165913023032
 31
0.0
  0
LINE
  5
127
330
F1
100
AcDbEntity
  8
PROF_FRM1
100
AcDbLine
 10
1203.09718515521
 20
687.7165913023032
 30
0.0
 11
1203.09718515521
 21
400.7165913023031
 31
0.0
  0
LINE
  5
128
330
F1
100
AcDbEntity
  8
PROF_FRM1
100
AcDbLine
 10
1203.09718515521
 20
400.7165913023031
 30
0.0
 11
1003.09718515521
 21
400.7165913023031
 31
0.0
  0
TEXT
  5
129
330
F1
100
AcDbEntity
  8
PROF_FRM2
100
AcDbText
 10
1027.829328012352
 20
688.7165913023032
 30
0.0
 40
3.0
  1
1
 41
0.75
  7
SIMPLEX
 72
     1
 11
1028.09718515521
 21
688.7165913023032
 31
0.0
100
AcDbText
  0
LINE
  5
12A
330
F1
100
AcDbEntity
  8
PROF_FRM1
100
AcDbLine
 10
1053.09718515521
 20
692.7165913023032
 30
0.0
 11
1053.09718515521
 21
687.7165913023032
 31
0.0
  0
TEXT
  5
12B
330
F1
100
AcDbEntity
  8
PROF_FRM2
100
AcDbText
 10
1077.34718515521
 20
688.7165913023032
 30
0.0
 40
3.0
  1
2
 41
0.75
  7
SIMPLEX
 72
     1
 11
1078.09718515521
 21
688.7165913023032
 31
0.0
100
AcDbText
  0
LINE
  5
12C
330
F1
100
AcDbEntity
  8
PROF_FRM1
100
AcDbLine
 10
1103.09718515521
 20
692.7165913023032
 30
0.0
 11
1103.09718515521
 21
687.7165913023032
 31
0.0
  0
TEXT
  5
12D
330
F1
100
AcDbEntity
  8
PROF_FRM2
100
AcDbText
 10
1127.34718515521
 20
688.7165913023032
 30
0.0
 40
3.0
  1
3
 41
0.75
  7
SIMPLEX
 72
     1
 11
1128.09718515521
 21
688.7165913023032
 31
0.0
100
AcDbText
  0
LINE
  5
12E
330
F1
100
AcDbEntity
  8
PROF_FRM1
100
AcDbLine
 10
1153.09718515521
 20
692.7165913023032
 30
0.0
 11
1153.09718515521
 21
687.7165913023032
 31
0.0
  0
TEXT
  5
12F
330
F1
100
AcDbEntity
  8
PROF_FRM2
100
AcDbText
 10
1177.293613726638
 20
688.7165913023032
 30
0.0
 40
3.0
  1
4
 41
0.75
  7
SIMPLEX
 72
     1
 11
1178.09718515521
 21
688.7165913023032
 31
0.0
100
AcDbText
  0
TEXT
  5
130
330
F1
100
AcDbEntity
  8
PROF_FRM2
100
AcDbText
 10
1027.829328012352
 20
396.7165913023034
 30
0.0
 40
3.0
  1
1
 41
0.75
  7
SIMPLEX
 72
     1
 11
1028.09718515521
 21
396.7165913023034
 31
0.0
100
AcDbText
  0
LINE
  5
131
330
F1
100
AcDbEntity
  8
PROF_FRM1
100
AcDbLine
 10
1053.09718515521
 20
395.7165913023033
 30
0.0
 11
1053.09718515521
 21
400.7165913023031
 31
0.0
  0
TEXT
  5
132
330
F1
100
AcDbEntity
  8
PROF_FRM2
100
AcDbText
 10
1077.34718515521
 20
396.7165913023034
 30
0.0
 40
3.0
  1
2
 41
0.75
  7
SIMPLEX
 72
     1
 11
1078.09718515521
 21
396.7165913023034
 31
0.0
100
AcDbText
  0
LINE
  5
133
330
F1
100
AcDbEntity
  8
PROF_FRM1
100
AcDbLine
 10
1103.09718515521
 20
395.7165913023033
 30
0.0
 11
1103.09718515521
 21
400.7165913023031
 31
0.0
  0
TEXT
  5
134
330
F1
100
AcDbEntity
  8
PROF_FRM2
100
AcDbText
 10
1127.34718515521
 20
396.7165913023034
 30
0.0
 40
3.0
  1
3
 41
0.75
  7
SIMPLEX
 72
     1
 11
1128.09718515521
 21
396.7165913023034
 31
0.0
100
AcDbText
  0
LINE
  5
135
330
F1
100
AcDbEntity
  8
PROF_FRM1
100
AcDbLine
 10
1153.09718515521
 20
395.7165913023033
 30
0.0
 11
1153.09718515521
 21
400.7165913023031
 31
0.0
  0
TEXT
  5
136
330
F1
100
AcDbEntity
  8
PROF_FRM2
100
AcDbText
 10
1177.293613726638
 20
396.7165913023034
 30
0.0
 40
3.0
  1
4
 41
0.75
  7
SIMPLEX
 72
     1
 11
1178.09718515521
 21
396.7165913023034
 31
0.0
100
AcDbText
  0
TEXT
  5
137
330
F1
100
AcDbEntity
  8
PROF_FRM2
100
AcDbText
 10
999.7400422980671
 20
662.2999243023032
 30
0.0
 40
3.0
  1
A
 41
0.75
  7
SIMPLEX
 72
     1
 11
1000.59718515521
 21
662.2999243023032
 31
0.0
100
AcDbText
  0
LINE
  5
138
330
F1
100
AcDbEntity
  8
PROF_FRM1
100
AcDbLine
 10
998.0971851552105
 20
639.8832583023033
 30
0.0
 11
1003.09718515521
 21
639.8832583023033
 31
0.0
  0
TEXT
  5
139
330
F1
100
AcDbEntity
  8
PROF_FRM2
100
AcDbText
 10
999.84718515521
 20
614.4665913023032
 30
0.0
 40
3.0
  1
B
 41
0.75
  7
SIMPLEX
 72
     1
 11
1000.59718515521
 21
614.4665913023032
 31
0.0
100
AcDbText
  0
LINE
  5
13A
330
F1
100
AcDbEntity
  8
PROF_FRM1
100
AcDbLine
 10
998.0971851552105
 20
592.0499243023032
 30
0.0
 11
1003.09718515521
 21
592.0499243023032
 31
0.0
  0
TEXT
  5
13B
330
F1
100
AcDbEntity
  8
PROF_FRM2
100
AcDbText
 10
999.7936137266385
 20
566.6332583023033
 30
0.0
 40
3.0
  1
C
 41
0.75
  7
SIMPLEX
 72
     1
 11
1000.59718515521
 21
566.6332583023033
 31
0.0
100
AcDbText
  0
LINE
  5
13C
330
F1
100
AcDbEntity
  8
PROF_FRM1
100
AcDbLine
 10
998.0971851552105
 20
544.2165913023034
 30
0.0
 11
1003.09718515521
 21
544.2165913023034
 31
0.0
  0
TEXT
  5
13D
330
F1
100
AcDbEntity
  8
PROF_FRM2
100
AcDbText
 10
999.84718515521
 20
518.7999243023033
 30
0.0
 40
3.0
  1
D
 41
0.75
  7
SIMPLEX
 72
     1
 11
1000.59718515521
 21
518.7999243023033
 31
0.0
100
AcDbText
  0
LINE
  5
13E
330
F1
100
AcDbEntity
  8
PROF_FRM1
100
AcDbLine
 10
998.0971851552105
 20
496.3832583023033
 30
0.0
 11
1003.09718515521
 21
496.3832583023033
 31
0.0
  0
TEXT
  5
13F
330
F1
100
AcDbEntity
  8
PROF_FRM2
100
AcDbText
 10
999.9007565837814
 20
470.9665913023033
 30
0.0
 40
3.0
  1
E
 41
0.75
  7
SIMPLEX
 72
     1
 11
1000.59718515521
 21
470.9665913023033
 31
0.0
100
AcDbText
  0
LINE
  5
140
330
F1
100
AcDbEntity
  8
PROF_FRM1
100
AcDbLine
 10
998.0971851552105
 20
448.5499243023033
 30
0.0
 11
1003.09718515521
 21
448.5499243023033
 31
0.0
  0
TEXT
  5
141
330
F1
100
AcDbEntity
  8
PROF_FRM2
100
AcDbText
 10
999.9007565837814
 20
423.1332583023033
 30
0.0
 40
3.0
  1
F
 41
0.75
  7
SIMPLEX
 72
     1
 11
1000.59718515521
 21
423.1332583023033
 31
0.0
100
AcDbText
  0
TEXT
  5
142
330
F1
100
AcDbEntity
  8
PROF_FRM2
100
AcDbText
 10
1204.740042298067
 20
662.2999243023032
 30
0.0
 40
3.0
  1
A
 41
0.75
  7
SIMPLEX
 72
     1
 11
1205.59718515521
 21
662.2999243023032
 31
0.0
100
AcDbText
  0
LINE
  5
143
330
F1
100
AcDbEntity
  8
PROF_FRM1
100
AcDbLine
 10
1208.09718515521
 20
639.8832583023033
 30
0.0
 11
1203.09718515521
 21
639.8832583023033
 31
0.0
  0
TEXT
  5
144
330
F1
100
AcDbEntity
  8
PROF_FRM2
100
AcDbText
 10
1204.84718515521
 20
614.4665913023032
 30
0.0
 40
3.0
  1
B
 41
0.75
  7
SIMPLEX
 72
     1
 11
1205.59718515521
 21
614.4665913023032
 31
0.0
100
AcDbText
  0
LINE
  5
145
330
F1
100
AcDbEntity
  8
PROF_FRM1
100
AcDbLine
 10
1208.09718515521
 20
592.0499243023032
 30
0.0
 11
1203.09718515521
 21
592.0499243023032
 31
0.0
  0
TEXT
  5
146
330
F1
100
AcDbEntity
  8
PROF_FRM2
100
AcDbText
 10
1204.793613726639
 20
566.6332583023033
 30
0.0
 40
3.0
  1
C
 41
0.75
  7
SIMPLEX
 72
     1
 11
1205.59718515521
 21
566.6332583023033
 31
0.0
100
AcDbText
  0
LINE
  5
147
330
F1
100
AcDbEntity
  8
PROF_FRM1
100
AcDbLine
 10
1208.09718515521
 20
544.2165913023034
 30
0.0
 11
1203.09718515521
 21
544.2165913023034
 31
0.0
  0
TEXT
  5
148
330
F1
100
AcDbEntity
  8
PROF_FRM2
100
AcDbText
 10
1204.84718515521
 20
518.7999243023033
 30
0.0
 40
3.0
  1
D
 41
0.75
  7
SIMPLEX
 72
     1
 11
1205.59718515521
 21
518.7999243023033
 31
0.0
100
AcDbText
  0
LINE
  5
149
330
F1
100
AcDbEntity
  8
PROF_FRM1
100
AcDbLine
 10
1208.09718515521
 20
496.3832583023033
 30
0.0
 11
1203.09718515521
 21
496.3832583023033
 31
0.0
  0
TEXT
  5
14A
330
F1
100
AcDbEntity
  8
PROF_FRM2
100
AcDbText
 10
1204.900756583781
 20
470.9665913023033
 30
0.0
 40
3.0
  1
E
 41
0.75
  7
SIMPLEX
 72
     1
 11
1205.59718515521
 21
470.9665913023033
 31
0.0
100
AcDbText
  0
LINE
  5
14B
330
F1
100
AcDbEntity
  8
PROF_FRM1
100
AcDbLine
 10
1208.09718515521
 20
448.5499243023033
 30
0.0
 11
1203.09718515521
 21
448.5499243023033
 31
0.0
  0
TEXT
  5
14C
330
F1
100
AcDbEntity
  8
PROF_FRM2
100
AcDbText
 10
1204.900756583781
 20
423.1332583023033
 30
0.0
 40
3.0
  1
F
 41
0.75
  7
SIMPLEX
 72
     1
 11
1205.59718515521
 21
423.1332583023033
 31
0.0
100
AcDbText
  0
LINE
  5
14D
330
F1
100
AcDbEntity
  8
PROF_FRM1
100
AcDbLine
 10
1203.09718515521
 20
400.7165913023031
 30
0.0
 11
1046.671187089295
 21
400.7165913023031
 31
0.0
  0
LINE
  5
14E
330
F1
100
AcDbEntity
  8
PROF_FRM1
100
AcDbLine
 10
1046.671187089295
 20
400.7165913023031
 30
0.0
 11
1046.671187089295
 21
449.3809824487871
 31
0.0
  0
LINE
  5
14F
330
F1
100
AcDbEntity
  8
PROF_FRM1
100
AcDbLine
 10
1046.671187089295
 20
449.3809824487871
 30
0.0
 11
1203.09718515521
 21
449.3809824487871
 31
0.0
  0
LINE
  5
150
330
F1
100
AcDbEntity
  8
PROF_FRM1
100
AcDbLine
 10
1203.09718515521
 20
449.3809824487871
 30
0.0
 11
1203.09718515521
 21
400.7165913023031
 31
0.0
  0
MTEXT
  5
151
330
F1
100
AcDbEntity
  8
0
100
AcDbMText
 10
1050.629355678192
 20
408.0553656878272
 30
0.0
 40
1.5
 41
10.04094738617345
 46
0.0
 71
     1
 72
     5
  1
{\fTimes New Roman|b0|i0|c238|p18;POZNÁMKA}
 73
     1
 44
1.0
  0
MTEXT
  5
152
330
F1
100
AcDbEntity
  8
0
100
AcDbMText
 10
1066.037649924745
 20
406.6931872730741
 30
0.0
 40
2.5
 41
48.82312421961272
 46
0.0
 71
     1
 72
     5
  1
{\fTimes New Roman|b0|i0|c238|p18;OCEL 11321  tl.1.5mm}
 73
     1
 44
1.0
  0
ENDBLK
  5
153
330
F1
100
AcDbEntity
  8
0
100
AcDbBlockEnd
  0
BLOCK
  5
155
330
154
100
AcDbEntity
  8
0
100
AcDbBlockBegin
  2
10
 70
     0
 10
0.0
 20
0.0
 30
0.0
  3
10
  1

  0
MTEXT
  5
156
330
154
100
AcDbEntity
  8
0
100
AcDbMText
 10
525.4209438985334
 20
447.5876467580361
 30
0.0
 40
2.5
 41
27.84941916553498
 46
0.0
 71
     1
 72
     5
  1
{\fTimes New Roman|b0|i0|c238|p18;PLECH tl.1.5mm}
 73
     1
 44
1.0
  0
ENDBLK
  5
157
330
154
100
AcDbEntity
  8
0
100
AcDbBlockEnd
  0
BLOCK
  5
159
330
158
100
AcDbEntity
  8
0
100
AcDbBlockBegin
  2
montkov
 70
     0
 10
0.0
 20
0.0
 30
0.0
  3
montkov
  1

  0
ELLIPSE
  5
15A
102
{ACAD_REACTORS
330
160
102
}
330
158
100
AcDbEntity
  8
0
100
AcDbEllipse
 10
682.2315986047471
 20
441.1114288243601
 30
0.0
 11
-10.28943239498608
 21
0.0
 31
0.0
210
0.0
220
0.0
230
1.0
 40
0.4427098778200563
 41
0.0
 42
6.283185307179584
  0
ELLIPSE
  5
15B
102
{ACAD_REACTORS
330
160
102
}
330
158
100
AcDbEntity
  8
0
100
AcDbEllipse
 10
682.1816126041738
 20
441.1114288243601
 30
0.0
 11
-9.933185758467175
 21
0.0
 31
0.0
210
0.0
220
0.0
230
1.0
 40
0.4224340543967271
 41
0.0
 42
6.283185307179584
  0
MTEXT
  5
15C
330
158
100
AcDbEntity
  8
0
100
AcDbMText
 10
673.5712185299769
 20
442.3078503066791
 30
0.0
 40
2.0
 41
18.66668809605653
 46
0.0
 71
     1
 72
     5
  1
{\fUnivers|b1|i0|c238|p34;\H1.2x;MONTKOV}
 73
     1
 44
1.0
  0
CIRCLE
  5
15D
102
{ACAD_REACTORS
330
161
102
}
330
158
100
AcDbEntity
  8
0
100
AcDbCircle
 10
692.2748667228631
 20
444.4671464107535
 30
0.0
 40
1.112879619698478
  0
CIRCLE
  5
15E
102
{ACAD_REACTORS
330
161
102
}
330
158
100
AcDbEntity
  8
0
100
AcDbCircle
 10
692.2748667228631
 20
444.4671464107535
 30
0.0
 40
0.9114131270303767
  0
MTEXT
  5
15F
330
158
100
AcDbEntity
  8
0
100
AcDbMText
 10
691.9475254856036
 20
444.9434828691466
 30
0.0
 40
1.0
 41
1.01638022695829
 46
0.0
 71
     1
 72
     5
  1
{\fArial|b1|i0|c0|p34;R}
 73
     1
 44
1.0
  0
HATCH
  5
160
330
158
100
AcDbEntity
  8
0
100
AcDbHatch
 10
0.0
 20
0.0
 30
0.0
210
0.0
220
0.0
230
1.0
  2
SOLID
 70
     1
 71
     1
 91
        2
 92
        1
 93
        1
 72
     3
 10
682.2315986047471
 20
441.1114288243601
 11
-10.28943239498608
 21
0.0
 40
0.4427098778200563
 50
0.0
 51
360.0
 73
     1
 97
        1
330
15A
 92
       16
 93
        1
 72
     3
 10
682.1816126041738
 20
441.1114288243601
 11
-9.933185758467175
 21
0.0
 40
0.4224340543967271
 50
0.0
 51
360.0
 73
     1
 97
        1
330
15B
 75
     0
 76
     1
 98
        1
 10
0.0
 20
0.0
450
        0
451
        0
460
0.0
461
0.0
452
        1
462
1.0
453
        2
463
0.0
 63
     5
421
      255
463
1.0
 63
    51
421
 16777113
470
LINEAR
  0
HATCH
  5
161
330
158
100
AcDbEntity
  8
0
100
AcDbHatch
 10
0.0
 20
0.0
 30
0.0
210
0.0
220
0.0
230
1.0
  2
SOLID
 70
     1
 71
     1
 91
        2
 92
       16
 93
        1
 72
     2
 10
692.2748667228631
 20
444.4671464107535
 40
0.9114131270303767
 50
0.0
 51
360.0
 73
     1
 97
        1
330
15E
 92
        1
 93
        1
 72
     2
 10
692.2748667228631
 20
444.4671464107535
 40
1.112879619698478
 50
0.0
 51
360.0
 73
     1
 97
        1
330
15D
 75
     0
 76
     1
 98
        1
 10
0.0
 20
0.0
450
        0
451
        0
460
0.0
461
0.0
452
        1
462
1.0
453
        2
463
0.0
 63
     5
421
      255
463
1.0
 63
    51
421
 16777113
470
LINEAR
  0
ENDBLK
  5
162
330
158
100
AcDbEntity
  8
0
100
AcDbBlockEnd
  0
BLOCK
  5
164
330
163
100
AcDbEntity
  8
0
100
AcDbBlockBegin
  2
PRCLFILL
 70
     0
 10
0.0
 20
0.0
 30
0.0
  3
PRCLFILL
  1

  0
LINE
  5
165
330
163
100
AcDbEntity
  8
0
 62
     0
 48
20.0
100
AcDbLine
 10
-1.0
 20
-0.1044679561127122
 30
0.0
 11
-0.6268077366762716
 21
-0.1044679561127122
 31
0.0
  0
LINE
  5
166
330
163
100
AcDbEntity
  8
0
 62
     0
 48
20.0
100
AcDbLine
 10
-1.0
 20
-0.0544679561127115
 30
0.0
 11
-0.3268077366762689
 21
-0.0544679561127115
 31
0.0
  0
LINE
  5
167
330
163
100
AcDbEntity
  8
0
 62
     0
 48
20.0
100
AcDbLine
 10
-1.0
 20
0.0955320438872889
 30
0.0
 11
-0.5731922633237314
 21
0.0955320438872889
 31
0.0
  0
LINE
  5
168
330
163
100
AcDbEntity
  8
0
 62
     0
 48
20.0
100
AcDbLine
 10
-1.0
 20
0.0455320438872882
 30
0.0
 11
-0.2731922633237289
 21
0.0455320438872882
 31
0.0
  0
LINE
  5
169
330
163
100
AcDbEntity
  8
0
 62
     0
 48
20.0
100
AcDbLine
 10
-1.0
 20
-0.0044679561127126
 30
0.0
 11
-0.0268077366762771
 21
-0.0044679561127126
 31
0.0
  0
LINE
  5
16A
330
163
100
AcDbEntity
  8
0
 48
20.0
100
AcDbLine
 10
0.0
 20
0.0
 30
0.0
 11
-1.0
 21
-0.1666666666666678
 31
0.0
  0
LINE
  5
16B
330
163
100
AcDbEntity
  8
0
 48
20.0
100
AcDbLine
 10
-1.0
 20
0.1666666666666678
 30
0.0
 11
0.0
 21
0.0
 31
0.0
  0
LINE
  5
16C
330
163
100
AcDbEntity
  8
0
 48
20.0
100
AcDbLine
 10
-1.0
 20
-0.1666666666666678
 30
0.0
 11
-1.0
 21
0.1666666666666678
 31
0.0
  0
LINE
  5
16D
330
163
100
AcDbEntity
  8
0
 62
     0
 48
20.0
100
AcDbLine
 10
-1.0
 20
-0.1544679561127111
 30
0.0
 11
-0.9268077366762629
 21
-0.1544679561127111
 31
0.0
  0
LINE
  5
16E
330
163
100
AcDbEntity
  8
0
 62
     0
 48
20.0
100
AcDbLine
 10
-1.0
 20
0.1455320438872878
 30
0.0
 11
-0.8731922633237232
 21
0.1455320438872878
 31
0.0
  0
ENDBLK
  5
16F
330
163
100
AcDbEntity
  8
0
100
AcDbBlockEnd
  0
BLOCK
  5
171
330
170
100
AcDbEntity
  8
0
100
AcDbBlockBegin
  2
PROFBT01KGJ3VD
 70
     2
 10
0.0
 20
0.0
 30
0.0
  3
PROFBT01KGJ3VD
  1
PROFBT01KGJ3VD
  0
ATTDEF
  5
172
330
170
100
AcDbEntity
  8
0
100
AcDbText
 10
0.0
 20
0.0
 30
0.0
 40
3.0
  1

 41
0.75
  7
MSPR_TXT
100
AcDbAttributeDefinition
280
     0
  3

  2
INFO
 70
     9
280
     0
1001
PROFI
1002
{
1070
   300
1000
[Main]
1000
DataFile=SymbolsData|xFORMATS
1000
Standard=CSN
1000
View=NARYS
1000
PartKey=Symb
1000
[Globals]
1000
Standard=CSN
1000
Language=CZ
1000
FormatUnit=mm
1000
Scale=1.0
1000
Path=C:\CADIS\SYMBOLS\
1000
Caption=Výkresy a razítka
1000
Model=XFORMATS
1000
Removeinfo=1
1000
Level=1
1000
NamePrefix=BT
1000
DataType=PART
1000
[View]
1000
VISIBLED=1
1000
View=NARYS
1000
Main=
1000
Data=(setq _data (list "Symb" "csn_A4" " " "1.000000" "205.00000000" "5.00000000" "0"))
1000
Driver=C:/CADIS/SYMBOLS/DRV/XFORMATS.LSP
1000
[BaseView]
1000
BaseView=1
1000
FromSymbols=1
1000
OnTop=0
1000
Left=345
1000
Top=242
1000
EnableUpdate=
1000
[Acad]
1000
ReCalc=0
1000
Id=
1000
Update=0
1000
PartName=PROFBT01KGJ3VD
1000
[Data]
1000
Formatblk=csn_A4{ND
1000
Titleblk={ND
1000
xxScale=1.000000{ND
1000
x=205{ND
1000
y=5{ND
1000
recalc=0{ND
1000
Format_Width=210{ND
1000
Format_Height=297{ND
1000
Center_X={ND
1000
Center_Y={ND
1000
FormatEnabled=1{ND
1000
TitleBlockEnabled=0{ND
1000
ScaleEnabled=1{ND
1000
ScaleChecked=1{ND
1000
xxDimIncrement=8.000000{nd
1000
xxHT=3.500000{ND
1000
[Object]
1000
Description=Výkresy a razítka
1000
[Position]
1000
Origin=0.0 0.0 0.0
1000
RefPoint=0.00000000000000e+000 0.00000000000000e+000 0.00000000000000e+000
1000
InfPoint=0.00000000000000e+000 0.00000000000000e+000 0.00000000000000e+000
1000
[LTParam]
1000
StdScale=1.000000
1000
UnitScale=1
1000
AxisElev=100
1000
UseSolids=1
1000
SolidRatio=0
1000
AxisLenght=2.000000
1000
[Files]
1000
Output=C:\WINDOWS\TEMP\BVDC122.DXF
1000
Layers=C:\CADIS\MSP2000P\Layers.ini
1000
[TextSize]
1000
Symb=2.750000
1000
csn_A4=4.250000
1002
}
  0
ATTDEF
  5
173
330
170
100
AcDbEntity
  8
0
100
AcDbText
 10
0.0
 20
0.0
 30
0.0
 40
3.0
  1

 41
0.75
  7
MSPR_TXT
100
AcDbAttributeDefinition
280
     0
  3

  2
INFO1
 70
     9
280
     0
  0
ATTDEF
  5
174
330
170
100
AcDbEntity
  8
0
100
AcDbText
 10
0.0
 20
0.0
 30
0.0
 40
3.0
  1

 41
0.75
  7
MSPR_TXT
100
AcDbAttributeDefinition
280
     0
  3

  2
INFO2
 70
     9
280
     0
  0
ATTDEF
  5
175
330
170
100
AcDbEntity
  8
0
100
AcDbText
 10
0.0
 20
0.0
 30
0.0
 40
3.0
  1

 41
0.75
  7
MSPR_TXT
100
AcDbAttributeDefinition
280
     0
  3

  2
INFO3
 70
     9
280
     0
  0
ATTDEF
  5
176
330
170
100
AcDbEntity
  8
0
100
AcDbText
 10
0.0
 20
0.0
 30
0.0
 40
3.0
  1

 41
0.75
  7
MSPR_TXT
100
AcDbAttributeDefinition
280
     0
  3

  2
INFO4
 70
     9
280
     0
  0
ATTDEF
  5
177
330
170
100
AcDbEntity
  8
0
100
AcDbText
 10
0.0
 20
0.0
 30
0.0
 40
3.0
  1

 41
0.75
  7
MSPR_TXT
100
AcDbAttributeDefinition
280
     0
  3

  2
INFO5
 70
     9
280
     0
  0
ATTDEF
  5
178
330
170
100
AcDbEntity
  8
0
100
AcDbText
 10
0.0
 20
0.0
 30
0.0
 40
3.0
  1

 41
0.75
  7
MSPR_TXT
100
AcDbAttributeDefinition
280
     0
  3

  2
INFO6
 70
     9
280
     0
  0
ATTDEF
  5
179
330
170
100
AcDbEntity
  8
0
100
AcDbText
 10
0.0
 20
0.0
 30
0.0
 40
3.0
  1

 41
0.75
  7
MSPR_TXT
100
AcDbAttributeDefinition
280
     0
  3

  2
INFO7
 70
     9
280
     0
  0
ATTDEF
  5
17A
330
170
100
AcDbEntity
  8
0
100
AcDbText
 10
0.0
 20
0.0
 30
0.0
 40
3.0
  1

 41
0.75
  7
MSPR_TXT
100
AcDbAttributeDefinition
280
     0
  3

  2
INFO8
 70
     9
280
     0
  0
ATTDEF
  5
17B
330
170
100
AcDbEntity
  8
0
100
AcDbText
 10
0.0
 20
0.0
 30
0.0
 40
3.0
  1

 41
0.75
  7
MSPR_TXT
100
AcDbAttributeDefinition
280
     0
  3

  2
INFO9
 70
     9
280
     0
  0
LINE
  5
17C
330
170
100
AcDbEntity
  8
PROF_FRM1
100
AcDbLine
 10
0.0
 20
0.0
 30
0.0
 11
0.0
 21
297.0
 31
0.0
  0
LINE
  5
17D
330
170
100
AcDbEntity
  8
PROF_FRM1
100
AcDbLine
 10
0.0
 20
297.0
 30
0.0
 11
210.0
 21
297.0
 31
0.0
  0
LINE
  5
17E
330
170
100
AcDbEntity
  8
PROF_FRM1
100
AcDbLine
 10
210.0
 20
297.0
 30
0.0
 11
210.0
 21
0.0
 31
0.0
  0
LINE
  5
17F
330
170
100
AcDbEntity
  8
PROF_FRM1
100
AcDbLine
 10
210.0
 20
0.0
 30
0.0
 11
0.0
 21
0.0
 31
0.0
  0
LINE
  5
180
330
170
100
AcDbEntity
  8
PROF_FRM3
100
AcDbLine
 10
5.0
 20
5.0
 30
0.0
 11
5.0
 21
292.0
 31
0.0
  0
LINE
  5
181
330
170
100
AcDbEntity
  8
PROF_FRM3
100
AcDbLine
 10
5.0
 20
292.0
 30
0.0
 11
205.0
 21
292.0
 31
0.0
  0
LINE
  5
182
330
170
100
AcDbEntity
  8
PROF_FRM3
100
AcDbLine
 10
205.0
 20
292.0
 30
0.0
 11
205.0
 21
5.0
 31
0.0
  0
LINE
  5
183
330
170
100
AcDbEntity
  8
PROF_FRM3
100
AcDbLine
 10
205.0
 20
5.0
 30
0.0
 11
5.0
 21
5.0
 31
0.0
  0
LINE
  5
184
330
170
100
AcDbEntity
  8
PROF_FRM3
100
AcDbLine
 10
-5.0
 20
-5.0
 30
0.0
 11
-5.0
 21
302.0
 31
0.0
  0
LINE
  5
185
330
170
100
AcDbEntity
  8
PROF_FRM3
100
AcDbLine
 10
-5.0
 20
302.0
 30
0.0
 11
215.0
 21
302.0
 31
0.0
  0
LINE
  5
186
330
170
100
AcDbEntity
  8
PROF_FRM3
100
AcDbLine
 10
215.0
 20
302.0
 30
0.0
 11
215.0
 21
-5.0
 31
0.0
  0
LINE
  5
187
330
170
100
AcDbEntity
  8
PROF_FRM3
100
AcDbLine
 10
215.0
 20
-5.0
 30
0.0
 11
-5.0
 21
-5.0
 31
0.0
  0
TEXT
  5
188
330
170
100
AcDbEntity
  8
PROF_FRM2
100
AcDbText
 10
29.73214285714286
 20
293.0
 30
0.0
 40
3.0
  1
1
 41
0.75
  7
SIMPLEX
 72
     1
 11
30.0
 21
293.0
 31
0.0
100
AcDbText
  0
LINE
  5
189
330
170
100
AcDbEntity
  8
PROF_FRM3
100
AcDbLine
 10
55.0
 20
297.0
 30
0.0
 11
55.0
 21
292.0
 31
0.0
  0
TEXT
  5
18A
330
170
100
AcDbEntity
  8
PROF_FRM2
100
AcDbText
 10
79.25
 20
293.0
 30
0.0
 40
3.0
  1
2
 41
0.75
  7
SIMPLEX
 72
     1
 11
80.0
 21
293.0
 31
0.0
100
AcDbText
  0
LINE
  5
18B
330
170
100
AcDbEntity
  8
PROF_FRM3
100
AcDbLine
 10
105.0
 20
297.0
 30
0.0
 11
105.0
 21
292.0
 31
0.0
  0
TEXT
  5
18C
330
170
100
AcDbEntity
  8
PROF_FRM2
100
AcDbText
 10
129.25
 20
293.0
 30
0.0
 40
3.0
  1
3
 41
0.75
  7
SIMPLEX
 72
     1
 11
130.0
 21
293.0
 31
0.0
100
AcDbText
  0
LINE
  5
18D
330
170
100
AcDbEntity
  8
PROF_FRM3
100
AcDbLine
 10
155.0
 20
297.0
 30
0.0
 11
155.0
 21
292.0
 31
0.0
  0
TEXT
  5
18E
330
170
100
AcDbEntity
  8
PROF_FRM2
100
AcDbText
 10
179.1964285714286
 20
293.0
 30
0.0
 40
3.0
  1
4
 41
0.75
  7
SIMPLEX
 72
     1
 11
180.0
 21
293.0
 31
0.0
100
AcDbText
  0
TEXT
  5
18F
330
170
100
AcDbEntity
  8
PROF_FRM2
100
AcDbText
 10
29.73214285714286
 20
1.0
 30
0.0
 40
3.0
  1
1
 41
0.75
  7
SIMPLEX
 72
     1
 11
30.0
 21
1.0
 31
0.0
100
AcDbText
  0
LINE
  5
190
330
170
100
AcDbEntity
  8
PROF_FRM3
100
AcDbLine
 10
55.0
 20
0.0
 30
0.0
 11
55.0
 21
5.0
 31
0.0
  0
TEXT
  5
191
330
170
100
AcDbEntity
  8
PROF_FRM2
100
AcDbText
 10
79.25
 20
1.0
 30
0.0
 40
3.0
  1
2
 41
0.75
  7
SIMPLEX
 72
     1
 11
80.0
 21
1.0
 31
0.0
100
AcDbText
  0
LINE
  5
192
330
170
100
AcDbEntity
  8
PROF_FRM3
100
AcDbLine
 10
105.0
 20
0.0
 30
0.0
 11
105.0
 21
5.0
 31
0.0
  0
TEXT
  5
193
330
170
100
AcDbEntity
  8
PROF_FRM2
100
AcDbText
 10
129.25
 20
1.0
 30
0.0
 40
3.0
  1
3
 41
0.75
  7
SIMPLEX
 72
     1
 11
130.0
 21
1.0
 31
0.0
100
AcDbText
  0
LINE
  5
194
330
170
100
AcDbEntity
  8
PROF_FRM3
100
AcDbLine
 10
155.0
 20
0.0
 30
0.0
 11
155.0
 21
5.0
 31
0.0
  0
TEXT
  5
195
330
170
100
AcDbEntity
  8
PROF_FRM2
100
AcDbText
 10
179.1964285714286
 20
1.0
 30
0.0
 40
3.0
  1
4
 41
0.75
  7
SIMPLEX
 72
     1
 11
180.0
 21
1.0
 31
0.0
100
AcDbText
  0
TEXT
  5
196
330
170
100
AcDbEntity
  8
PROF_FRM2
100
AcDbText
 10
1.642857142857142
 20
266.583333
 30
0.0
 40
3.0
  1
A
 41
0.75
  7
SIMPLEX
 72
     1
 11
2.5
 21
266.583333
 31
0.0
100
AcDbText
  0
LINE
  5
197
330
170
100
AcDbEntity
  8
PROF_FRM3
100
AcDbLine
 10
0.0
 20
244.166667
 30
0.0
 11
5.0
 21
244.166667
 31
0.0
  0
TEXT
  5
198
330
170
100
AcDbEntity
  8
PROF_FRM2
100
AcDbText
 10
1.75
 20
218.75
 30
0.0
 40
3.0
  1
B
 41
0.75
  7
SIMPLEX
 72
     1
 11
2.5
 21
218.75
 31
0.0
100
AcDbText
  0
LINE
  5
199
330
170
100
AcDbEntity
  8
PROF_FRM3
100
AcDbLine
 10
0.0
 20
196.333333
 30
0.0
 11
5.0
 21
196.333333
 31
0.0
  0
TEXT
  5
19A
330
170
100
AcDbEntity
  8
PROF_FRM2
100
AcDbText
 10
1.696428571428571
 20
170.916667
 30
0.0
 40
3.0
  1
C
 41
0.75
  7
SIMPLEX
 72
     1
 11
2.5
 21
170.916667
 31
0.0
100
AcDbText
  0
LINE
  5
19B
330
170
100
AcDbEntity
  8
PROF_FRM3
100
AcDbLine
 10
0.0
 20
148.5
 30
0.0
 11
5.0
 21
148.5
 31
0.0
  0
TEXT
  5
19C
330
170
100
AcDbEntity
  8
PROF_FRM2
100
AcDbText
 10
1.75
 20
123.083333
 30
0.0
 40
3.0
  1
D
 41
0.75
  7
SIMPLEX
 72
     1
 11
2.5
 21
123.083333
 31
0.0
100
AcDbText
  0
LINE
  5
19D
330
170
100
AcDbEntity
  8
PROF_FRM3
100
AcDbLine
 10
0.0
 20
100.666667
 30
0.0
 11
5.0
 21
100.666667
 31
0.0
  0
TEXT
  5
19E
330
170
100
AcDbEntity
  8
PROF_FRM2
100
AcDbText
 10
1.803571428571428
 20
75.25
 30
0.0
 40
3.0
  1
E
 41
0.75
  7
SIMPLEX
 72
     1
 11
2.5
 21
75.25
 31
0.0
100
AcDbText
  0
LINE
  5
19F
330
170
100
AcDbEntity
  8
PROF_FRM3
100
AcDbLine
 10
0.0
 20
52.83333299999998
 30
0.0
 11
5.0
 21
52.83333299999998
 31
0.0
  0
TEXT
  5
1A0
330
170
100
AcDbEntity
  8
PROF_FRM2
100
AcDbText
 10
1.803571428571428
 20
27.416667
 30
0.0
 40
3.0
  1
F
 41
0.75
  7
SIMPLEX
 72
     1
 11
2.5
 21
27.416667
 31
0.0
100
AcDbText
  0
TEXT
  5
1A1
330
170
100
AcDbEntity
  8
PROF_FRM2
100
AcDbText
 10
206.6428571428571
 20
266.583333
 30
0.0
 40
3.0
  1
A
 41
0.75
  7
SIMPLEX
 72
     1
 11
207.5
 21
266.583333
 31
0.0
100
AcDbText
  0
LINE
  5
1A2
330
170
100
AcDbEntity
  8
PROF_FRM3
100
AcDbLine
 10
210.0
 20
244.166667
 30
0.0
 11
205.0
 21
244.166667
 31
0.0
  0
TEXT
  5
1A3
330
170
100
AcDbEntity
  8
PROF_FRM2
100
AcDbText
 10
206.75
 20
218.75
 30
0.0
 40
3.0
  1
B
 41
0.75
  7
SIMPLEX
 72
     1
 11
207.5
 21
218.75
 31
0.0
100
AcDbText
  0
LINE
  5
1A4
330
170
100
AcDbEntity
  8
PROF_FRM3
100
AcDbLine
 10
210.0
 20
196.333333
 30
0.0
 11
205.0
 21
196.333333
 31
0.0
  0
TEXT
  5
1A5
330
170
100
AcDbEntity
  8
PROF_FRM2
100
AcDbText
 10
206.6964285714286
 20
170.916667
 30
0.0
 40
3.0
  1
C
 41
0.75
  7
SIMPLEX
 72
     1
 11
207.5
 21
170.916667
 31
0.0
100
AcDbText
  0
LINE
  5
1A6
330
170
100
AcDbEntity
  8
PROF_FRM3
100
AcDbLine
 10
210.0
 20
148.5
 30
0.0
 11
205.0
 21
148.5
 31
0.0
  0
TEXT
  5
1A7
330
170
100
AcDbEntity
  8
PROF_FRM2
100
AcDbText
 10
206.75
 20
123.083333
 30
0.0
 40
3.0
  1
D
 41
0.75
  7
SIMPLEX
 72
     1
 11
207.5
 21
123.083333
 31
0.0
100
AcDbText
  0
LINE
  5
1A8
330
170
100
AcDbEntity
  8
PROF_FRM3
100
AcDbLine
 10
210.0
 20
100.666667
 30
0.0
 11
205.0
 21
100.666667
 31
0.0
  0
TEXT
  5
1A9
330
170
100
AcDbEntity
  8
PROF_FRM2
100
AcDbText
 10
206.8035714285714
 20
75.25
 30
0.0
 40
3.0
  1
E
 41
0.75
  7
SIMPLEX
 72
     1
 11
207.5
 21
75.25
 31
0.0
100
AcDbText
  0
LINE
  5
1AA
330
170
100
AcDbEntity
  8
PROF_FRM3
100
AcDbLine
 10
210.0
 20
52.83333299999998
 30
0.0
 11
205.0
 21
52.83333299999998
 31
0.0
  0
TEXT
  5
1AB
330
170
100
AcDbEntity
  8
PROF_FRM2
100
AcDbText
 10
206.8035714285714
 20
27.416667
 30
0.0
 40
3.0
  1
F
 41
0.75
  7
SIMPLEX
 72
     1
 11
207.5
 21
27.416667
 31
0.0
100
AcDbText
  0
ATTDEF
  5
1AC
330
170
100
AcDbEntity
  8
PROF_FRM2
100
AcDbText
 10
0.0
 20
0.0
 30
0.0
 40
10.0
  1
210
 41
0.75
  7
MSPR_TXT
100
AcDbAttributeDefinition
280
     0
  3
DX
  2
DX
 70
     1
280
     0
  0
ATTDEF
  5
1AD
330
170
100
AcDbEntity
  8
PROF_FRM2
100
AcDbText
 10
210.0
 20
297.0
 30
0.0
 40
10.0
  1
297
 41
0.75
  7
MSPR_TXT
100
AcDbAttributeDefinition
280
     0
  3
DY
  2
DY
 70
     1
280
     0
  0
ENDBLK
  5
1AE
330
170
100
AcDbEntity
  8
0
100
AcDbBlockEnd
  0
BLOCK
  5
1B0
330
1AF
100
AcDbEntity
  8
0
100
AcDbBlockBegin
  2
M
 70
     0
 10
0.0
 20
0.0
 30
0.0
  3
M
  1

  0
MTEXT
  5
1B1
330
1AF
100
AcDbEntity
  8
0
100
AcDbMText
 10
162.9391980004977
 20
56.72015810225211
 30
0.0
 40
1.7
 41
10.04094738617345
 46
0.0
 71
     1
 72
     5
  1
{\fTimes New Roman|b0|i0|c238|p18;NAVRHL}
 73
     1
 44
1.0
  0
ENDBLK
  5
1B2
330
1AF
100
AcDbEntity
  8
0
100
AcDbBlockEnd
  0
BLOCK
  5
227
330
1BE
100
AcDbEntity
  8
0
100
AcDbBlockBegin
  2
Montkov_A4.dwg
 70
     0
 10
0.0
 20
0.0
 30
0.0
  3
Montkov_A4.dwg
  1

  0
MTEXT
  5
1BF
330
1BE
100
AcDbEntity
  8
0
 62
     0
100
AcDbMText
 10
113.6121555569496
 20
19.12687484671102
 30
0.0
 40
2.325
 41
46.51421343894043
 46
0.0
 71
     1
 72
     5
  1
{\fTimes New Roman|b0|i0|c238|p18;\H1.4x;MONTKOV spol. s r.o. \H1.143x;\P\H0.6252x;Malé Výkleky 26, 53316 Vápno }
 73
     1
 44
1.0
  0
LINE
  5
1C0
330
1BE
100
AcDbEntity
  8
PROF_FRM1
 62
     0
100
AcDbLine
 10
190.65
 20
22.84476297664031
 30
0.0
 11
45.17382179869914
 21
22.84476297664031
 31
0.0
  0
LINE
  5
1C1
330
1BE
100
AcDbEntity
  8
PROF_FRM1
 62
     0
100
AcDbLine
 10
190.65
 20
54.18506021268647
 30
0.0
 11
45.17382179869914
 21
54.18506021268647
 31
0.0
  0
LINE
  5
1C2
330
1BE
100
AcDbEntity
  8
PROF_FRM1
 62
     0
100
AcDbLine
 10
135.2874703872675
 20
35.2222441253646
 30
0.0
 11
135.2874703872675
 21
22.84476297664031
 31
0.0
  0
LINE
  5
1C3
330
1BE
100
AcDbEntity
  8
PROF_FRM1
 62
     0
100
AcDbLine
 10
149.7108870845899
 20
35.2222441253646
 30
0.0
 11
149.7108870845899
 21
22.84476297664031
 31
0.0
  0
LINE
  5
1C4
330
1BE
100
AcDbEntity
  8
PROF_FRM1
 62
     0
100
AcDbLine
 10
167.5684524001136
 20
35.2222441253646
 30
0.0
 11
167.5684524001136
 21
22.84476297664031
 31
0.0
  0
LINE
  5
1C5
330
1BE
100
AcDbEntity
  8
PROF_FRM1
 62
     0
100
AcDbLine
 10
135.2874703872675
 20
35.2222441253646
 30
0.0
 11
45.17382179869914
 21
35.2222441253646
 31
0.0
  0
LINE
  5
1C6
330
1BE
100
AcDbEntity
  8
PROF_FRM1
 62
     0
100
AcDbLine
 10
82.5485974838215
 20
35.2222441253646
 30
0.0
 11
82.5485974838215
 21
22.84476297664031
 31
0.0
  0
LINE
  5
1C7
330
1BE
100
AcDbEntity
  8
PROF_FRM1
 62
     0
100
AcDbLine
 10
108.590137759907
 20
4.650000000000003
 30
0.0
 11
108.590137759907
 21
22.84476297664034
 31
0.0
  0
LINE
  5
1C8
330
1BE
100
AcDbEntity
  8
PROF_FRM1
 62
     0
100
AcDbLine
 10
190.65
 20
35.2222441253646
 30
0.0
 11
135.2874703872675
 21
35.2222441253646
 31
0.0
  0
MTEXT
  5
1C9
330
1BE
100
AcDbEntity
  8
0
 62
     0
100
AcDbMText
 10
136.7281768043212
 20
52.02018192577234
 30
0.0
 40
1.580999999999999
 41
9.338081069141315
 46
0.0
 71
     1
 72
     5
  1
{\fTimes New Roman|b0|i0|c238|p18;NAVRHL}
 73
     1
 44
1.0
  0
MTEXT
  5
1CA
330
1BE
100
AcDbEntity
  8
0
 62
     0
100
AcDbMText
 10
123.525028030629
 20
57.18894294734973
 30
0.0
 40
1.395
 41
8.280938627490691
 46
0.0
 71
     1
 72
     5
  1
{\fTimes New Roman|b0|i0|c238|p18;\H1.133x;DATUM}
 73
     1
 44
1.0
  0
MTEXT
  5
1CB
330
1BE
100
AcDbEntity
  8
0
 62
     0
100
AcDbMText
 10
52.49313185358714
 20
29.62221801408969
 30
0.0
 40
3.72
 41
25.89995982394754
 46
0.0
 71
     1
 72
     5
  1
{\fTimes New Roman|b0|i0|c238|p18;0004-03-03}
 73
     1
 44
1.0
  0
MTEXT
  5
1CC
330
1BE
100
AcDbEntity
  8
0
 62
     0
100
AcDbMText
 10
48.59811260174524
 20
33.73581770855146
 30
0.0
 40
1.395
 41
16.56188025463083
 46
0.0
 71
     1
 72
     5
  1
{\fTimes New Roman|b0|i0|c238|p18;ČÍSLO VÝKRESU}
 73
     1
 44
1.0
  0
MTEXT
  5
1CD
330
1BE
100
AcDbEntity
  8
0
 62
     0
100
AcDbMText
 10
137.2828281707166
 20
34.02680368034746
 30
0.0
 40
1.395
 41
9.690461883024783
 46
0.0
 71
     1
 72
     5
  1
{\fTimes New Roman|b0|i0|c238|p18;MĚŘÍTKO}
 73
     1
 44
1.0
  0
MTEXT
  5
1CE
330
1BE
100
AcDbEntity
  8
0
 62
     0
100
AcDbMText
 10
139.0791217207064
 20
29.81974374755703
 30
0.0
 40
3.72
 41
25.89995982394754
 46
0.0
 71
     1
 72
     5
  1
{\fTimes New Roman|b0|i0|c238|p18;1:1}
 73
     1
 44
1.0
  0
MTEXT
  5
1CF
330
1BE
100
AcDbEntity
  8
0
 62
     0
100
AcDbMText
 10
48.85491858637361
 20
21.14478266817821
 30
0.0
 40
1.395
 41
9.338081069141315
 46
0.0
 71
     1
 72
     5
  1
{\fTimes New Roman|b0|i0|c238|p18;MATERIÁL}
 73
     1
 44
1.0
  0
LINE
  5
1D0
330
1BE
100
AcDbEntity
  8
PROF_FRM1
 62
     0
100
AcDbLine
 10
45.17382179869914
 20
22.84476297664031
 30
0.0
 11
45.17382179869914
 21
4.650000000000003
 31
0.0
  0
LINE
  5
1D1
330
1BE
100
AcDbEntity
  8
PROF_FRM1
 62
     0
100
AcDbLine
 10
45.17382179869914
 20
13.74738148832011
 30
0.0
 11
108.590137759907
 21
13.74738148832017
 31
0.0
  0
INSERT
  5
1D2
330
1BE
100
AcDbEntity
  8
0
 62
     0
100
AcDbBlockReference
  2
3
 10
-406.063411786087
 20
-447.3189459116629
 30
0.0
 41
0.93
 42
0.93
 43
0.93
  0
MTEXT
  5
1D3
330
1BE
100
AcDbEntity
  8
0
 62
     0
100
AcDbMText
 10
153.7890064357718
 20
34.02680368034746
 30
0.0
 40
1.395
 41
9.690461883024783
 46
0.0
 71
     1
 72
     5
  1
{\fTimes New Roman|b0|i0|c238|p18;LIST/LISŮ}
 73
     1
 44
1.0
  0
MTEXT
  5
1D4
330
1BE
100
AcDbEntity
  8
0
 62
     0
100
AcDbMText
 10
155.5852999857616
 20
29.81974374755703
 30
0.0
 40
3.72
 41
25.89995982394754
 46
0.0
 71
     1
 72
     5
  1
{\fTimes New Roman|b0|i0|c238|p18;1/1}
 73
     1
 44
1.0
  0
MTEXT
  5
1D5
330
1BE
100
AcDbEntity
  8
0
 62
     0
100
AcDbMText
 10
47.96596498688415
 20
52.84069169264734
 30
0.0
 40
1.395
 41
17.44282928969028
 46
0.0
 71
     1
 72
     5
  1
{\fTimes New Roman|b0|i0|c238|p18;NÁZEV VÝKRESU}
 73
     1
 44
1.0
  0
MTEXT
  5
1D6
330
1BE
100
AcDbEntity
  8
0
 62
     0
100
AcDbMText
 10
57.77822967487757
 20
48.81270651491735
 30
0.0
 40
2.79
 41
82.1197998734657
 46
0.0
 71
     1
 72
     5
  1
{\fTimes New Roman|b0|i0|c238|p18;OCELOVÁ VRATA OTOČNÁ \PDVOUKŘÍDLÁ - ZATEPLENÁ}
 73
     1
 44
1.0
  0
MTEXT
  5
1D7
330
1BE
100
AcDbEntity
  8
0
 62
     0
100
AcDbMText
 10
85.83094432688751
 20
33.73581770855146
 30
0.0
 40
1.395
 41
34.20122970048688
 46
0.0
 71
     1
 72
     5
  1
{\fTimes New Roman|b0|i0|c238|p18;ČÍSLO ŘÍZENÉ KOPIE}
 73
     1
 44
1.0
  0
MTEXT
  5
1D8
330
1BE
100
AcDbEntity
  8
0
 62
     0
100
AcDbMText
 10
63.18463223566721
 20
19.87795674245778
 30
0.0
 40
2.325
 41
45.40550552423986
 46
0.0
 71
     1
 72
     5
  1
{\fTimes New Roman|b0|i0|c238|p18;OCEL 11321  tl.1.5mm}
 73
     1
 44
1.0
  0
ELLIPSE
  5
1D9
102
{ACAD_REACTORS
330
1DF
102
}
330
1BE
100
AcDbEntity
  8
0
 62
     0
100
AcDbEllipse
 10
173.6933144501668
 20
13.85572009625447
 30
0.0
 11
-13.82690311465314
 21
0.0
 31
0.0
210
0.0
220
0.0
230
0.9999999999999998
 40
0.4427098778200561
 41
0.0
 42
6.283185307179584
  0
ELLIPSE
  5
1DA
102
{ACAD_REACTORS
330
1DF
102
}
330
1BE
100
AcDbEntity
  8
0
 62
     0
100
AcDbEllipse
 10
173.6261434381528
 20
13.85572009625447
 30
0.0
 11
-13.34818013568024
 21
0.0
 31
0.0
210
0.0
220
0.0
230
1.0
 40
0.4224340543967271
 41
0.0
 42
6.283185307179584
  0
MTEXT
  5
1DB
330
1BE
100
AcDbEntity
  8
0
 62
     0
100
AcDbMText
 10
162.0555261219913
 20
15.46346708221779
 30
0.0
 40
2.687592975758474
 41
25.08422990381794
 46
0.0
 71
     1
 72
     5
  1
{\fUnivers|b1|i0|c238|p34;\H1.2x;MONTKOV}
 73
     1
 44
1.0
  0
CIRCLE
  5
1DC
102
{ACAD_REACTORS
330
1E0
102
}
330
1BE
100
AcDbEntity
  8
0
 62
     0
100
AcDbCircle
 10
187.1894228741204
 20
18.36512160316411
 30
0.0
 40
1.495483724383198
  0
CIRCLE
  5
1DD
102
{ACAD_REACTORS
330
1E0
102
}
330
1BE
100
AcDbEntity
  8
0
 62
     0
100
AcDbCircle
 10
187.1894228741204
 20
18.36512160316411
 30
0.0
 40
1.224753759110452
  0
MTEXT
  5
1DE
330
1BE
100
AcDbEntity
  8
0
 62
     0
100
AcDbMText
 10
186.6910367246569
 20
19.06372700749797
 30
0.0
 40
1.343796487879237
 41
1.365808179336452
 46
0.0
 71
     1
 72
     5
  1
{\fArial|b1|i0|c0|p34;R}
 73
     1
 44
1.0
  0
HATCH
  5
1DF
330
1BE
100
AcDbEntity
  8
0
 62
     0
100
AcDbHatch
 10
0.0
 20
0.0
 30
0.0
210
0.0
220
0.0
230
1.0
  2
SOLID
 70
     1
 71
     1
 91
        2
 92
        1
 93
        1
 72
     3
 10
173.6933144501668
 20
13.85572009625447
 11
-13.82690311465314
 21
0.0
 40
0.4427098778200561
 50
0.0
 51
360.0
 73
     1
 97
        1
330
1D9
 92
       16
 93
        1
 72
     3
 10
173.6261434381528
 20
13.85572009625447
 11
-13.34818013568024
 21
0.0
 40
0.4224340543967271
 50
0.0
 51
360.0
 73
     1
 97
        1
330
1DA
 75
     0
 76
     1
 98
        1
 10
-743.0871116751299
 20
-578.9082687213132
450
        0
451
        0
460
0.0
461
0.0
452
        1
462
1.0
453
        2
463
0.0
 63
     5
421
      255
463
1.0
 63
    51
421
 16777113
470
LINEAR
  0
HATCH
  5
1E0
330
1BE
100
AcDbEntity
  8
0
 62
     0
100
AcDbHatch
 10
0.0
 20
0.0
 30
0.0
210
0.0
220
0.0
230
1.0
  2
SOLID
 70
     1
 71
     1
 91
        2
 92
       16
 93
        1
 72
     2
 10
187.1894228741204
 20
18.36512160316411
 40
1.224753759110452
 50
0.0
 51
360.0
 73
     1
 97
        1
330
1DD
 92
        1
 93
        1
 72
     2
 10
187.1894228741204
 20
18.36512160316411
 40
1.495483724383198
 50
0.0
 51
360.0
 73
     1
 97
        1
330
1DC
 75
     0
 76
     1
 98
        1
 10
-743.0871116751299
 20
-578.9082687213132
450
        0
451
        0
460
0.0
461
0.0
452
        1
462
1.0
453
        2
463
0.0
 63
     5
421
      255
463
1.0
 63
    51
421
 16777113
470
LINEAR
  0
LINE
  5
1E1
330
1BE
100
AcDbEntity
  8
PROF_FRM1
 62
     0
100
AcDbLine
 10
0.0
 20
0.0
 30
0.0
 11
0.0
 21
276.21
 31
0.0
  0
LINE
  5
1E2
330
1BE
100
AcDbEntity
  8
PROF_FRM1
 62
     0
100
AcDbLine
 10
0.0
 20
276.21
 30
0.0
 11
195.3
 21
276.21
 31
0.0
  0
LINE
  5
1E3
330
1BE
100
AcDbEntity
  8
PROF_FRM1
 62
     0
100
AcDbLine
 10
195.3
 20
276.21
 30
0.0
 11
195.3
 21
0.0
 31
0.0
  0
LINE
  5
1E4
330
1BE
100
AcDbEntity
  8
PROF_FRM1
 62
     0
100
AcDbLine
 10
195.3
 20
0.0
 30
0.0
 11
0.0
 21
0.0
 31
0.0
  0
LINE
  5
1E5
330
1BE
100
AcDbEntity
  8
PROF_FRM1
 62
     0
100
AcDbLine
 10
4.649999999999998
 20
4.650000000000003
 30
0.0
 11
4.649999999999998
 21
271.5600000000001
 31
0.0
  0
LINE
  5
1E6
330
1BE
100
AcDbEntity
  8
PROF_FRM1
 62
     0
100
AcDbLine
 10
4.649999999999998
 20
271.5600000000001
 30
0.0
 11
190.65
 21
271.5600000000001
 31
0.0
  0
LINE
  5
1E7
330
1BE
100
AcDbEntity
  8
PROF_FRM1
 62
     0
100
AcDbLine
 10
190.65
 20
271.5600000000001
 30
0.0
 11
190.65
 21
4.650000000000003
 31
0.0
  0
LINE
  5
1E8
330
1BE
100
AcDbEntity
  8
PROF_FRM1
 62
     0
100
AcDbLine
 10
190.65
 20
4.650000000000003
 30
0.0
 11
4.649999999999998
 21
4.650000000000003
 31
0.0
  0
TEXT
  5
1E9
330
1BE
100
AcDbEntity
  8
PROF_FRM2
 62
     0
100
AcDbText
 10
27.65089285714286
 20
272.4900000000001
 30
0.0
 40
2.79
  1
1
 41
0.75
  7
SIMPLEX
 72
     1
 11
27.9
 21
272.4900000000001
 31
0.0
100
AcDbText
  0
LINE
  5
1EA
330
1BE
100
AcDbEntity
  8
PROF_FRM1
 62
     0
100
AcDbLine
 10
51.15
 20
276.21
 30
0.0
 11
51.15
 21
271.5600000000001
 31
0.0
  0
TEXT
  5
1EB
330
1BE
100
AcDbEntity
  8
PROF_FRM2
 62
     0
100
AcDbText
 10
73.70249999999997
 20
272.4900000000001
 30
0.0
 40
2.79
  1
2
 41
0.75
  7
SIMPLEX
 72
     1
 11
74.39999999999997
 21
272.4900000000001
 31
0.0
100
AcDbText
  0
LINE
  5
1EC
330
1BE
100
AcDbEntity
  8
PROF_FRM1
 62
     0
100
AcDbLine
 10
97.65
 20
276.21
 30
0.0
 11
97.65
 21
271.5600000000001
 31
0.0
  0
TEXT
  5
1ED
330
1BE
100
AcDbEntity
  8
PROF_FRM2
 62
     0
100
AcDbText
 10
120.2025
 20
272.4900000000001
 30
0.0
 40
2.79
  1
3
 41
0.75
  7
SIMPLEX
 72
     1
 11
120.9
 21
272.4900000000001
 31
0.0
100
AcDbText
  0
LINE
  5
1EE
330
1BE
100
AcDbEntity
  8
PROF_FRM1
 62
     0
100
AcDbLine
 10
144.15
 20
276.21
 30
0.0
 11
144.15
 21
271.5600000000001
 31
0.0
  0
TEXT
  5
1EF
330
1BE
100
AcDbEntity
  8
PROF_FRM2
 62
     0
100
AcDbText
 10
166.6526785714284
 20
272.4900000000001
 30
0.0
 40
2.79
  1
4
 41
0.75
  7
SIMPLEX
 72
     1
 11
167.3999999999999
 21
272.4900000000001
 31
0.0
100
AcDbText
  0
TEXT
  5
1F0
330
1BE
100
AcDbEntity
  8
PROF_FRM2
 62
     0
100
AcDbText
 10
27.65089285714286
 20
0.9300000000000068
 30
0.0
 40
2.79
  1
1
 41
0.75
  7
SIMPLEX
 72
     1
 11
27.9
 21
0.9300000000000068
 31
0.0
100
AcDbText
  0
LINE
  5
1F1
330
1BE
100
AcDbEntity
  8
PROF_FRM1
 62
     0
100
AcDbLine
 10
51.15
 20
0.0
 30
0.0
 11
51.15
 21
4.650000000000003
 31
0.0
  0
TEXT
  5
1F2
330
1BE
100
AcDbEntity
  8
PROF_FRM2
 62
     0
100
AcDbText
 10
73.70249999999997
 20
0.9300000000000068
 30
0.0
 40
2.79
  1
2
 41
0.75
  7
SIMPLEX
 72
     1
 11
74.39999999999997
 21
0.9300000000000068
 31
0.0
100
AcDbText
  0
LINE
  5
1F3
330
1BE
100
AcDbEntity
  8
PROF_FRM1
 62
     0
100
AcDbLine
 10
97.65
 20
0.0
 30
0.0
 11
97.65
 21
4.650000000000003
 31
0.0
  0
TEXT
  5
1F4
330
1BE
100
AcDbEntity
  8
PROF_FRM2
 62
     0
100
AcDbText
 10
120.2025
 20
0.9300000000000068
 30
0.0
 40
2.79
  1
3
 41
0.75
  7
SIMPLEX
 72
     1
 11
120.9
 21
0.9300000000000068
 31
0.0
100
AcDbText
  0
LINE
  5
1F5
330
1BE
100
AcDbEntity
  8
PROF_FRM1
 62
     0
100
AcDbLine
 10
144.15
 20
0.0
 30
0.0
 11
144.15
 21
4.650000000000003
 31
0.0
  0
TEXT
  5
1F6
330
1BE
100
AcDbEntity
  8
PROF_FRM2
 62
     0
100
AcDbText
 10
166.6526785714284
 20
0.9300000000000068
 30
0.0
 40
2.79
  1
4
 41
0.75
  7
SIMPLEX
 72
     1
 11
167.3999999999999
 21
0.9300000000000068
 31
0.0
100
AcDbText
  0
TEXT
  5
1F7
330
1BE
100
AcDbEntity
  8
PROF_FRM2
 62
     0
100
AcDbText
 10
1.527857142857138
 20
247.92249969
 30
0.0
 40
2.79
  1
A
 41
0.75
  7
SIMPLEX
 72
     1
 11
2.324999999999995
 21
247.92249969
 31
0.0
100
AcDbText
  0
LINE
  5
1F8
330
1BE
100
AcDbEntity
  8
PROF_FRM1
 62
     0
100
AcDbLine
 10
0.0
 20
227.07500031
 30
0.0
 11
4.649999999999998
 21
227.07500031
 31
0.0
  0
TEXT
  5
1F9
330
1BE
100
AcDbEntity
  8
PROF_FRM2
 62
     0
100
AcDbText
 10
1.627499999999995
 20
203.4375000000001
 30
0.0
 40
2.79
  1
B
 41
0.75
  7
SIMPLEX
 72
     1
 11
2.324999999999995
 21
203.4375000000001
 31
0.0
100
AcDbText
  0
LINE
  5
1FA
330
1BE
100
AcDbEntity
  8
PROF_FRM1
 62
     0
100
AcDbLine
 10
0.0
 20
182.58999969
 30
0.0
 11
4.649999999999998
 21
182.58999969
 31
0.0
  0
TEXT
  5
1FB
330
1BE
100
AcDbEntity
  8
PROF_FRM2
 62
     0
100
AcDbText
 10
1.577678571428566
 20
158.95250031
 30
0.0
 40
2.79
  1
C
 41
0.75
  7
SIMPLEX
 72
     1
 11
2.324999999999995
 21
158.95250031
 31
0.0
100
AcDbText
  0
LINE
  5
1FC
330
1BE
100
AcDbEntity
  8
PROF_FRM1
 62
     0
100
AcDbLine
 10
0.0
 20
138.105
 30
0.0
 11
4.649999999999998
 21
138.105
 31
0.0
  0
TEXT
  5
1FD
330
1BE
100
AcDbEntity
  8
PROF_FRM2
 62
     0
100
AcDbText
 10
1.627499999999995
 20
114.46749969
 30
0.0
 40
2.79
  1
D
 41
0.75
  7
SIMPLEX
 72
     1
 11
2.324999999999995
 21
114.46749969
 31
0.0
100
AcDbText
  0
LINE
  5
1FE
330
1BE
100
AcDbEntity
  8
PROF_FRM1
 62
     0
100
AcDbLine
 10
0.0
 20
93.62000031000004
 30
0.0
 11
4.649999999999998
 21
93.62000031000004
 31
0.0
  0
TEXT
  5
1FF
330
1BE
100
AcDbEntity
  8
PROF_FRM2
 62
     0
100
AcDbText
 10
1.677321428571423
 20
69.98250000000002
 30
0.0
 40
2.79
  1
E
 41
0.75
  7
SIMPLEX
 72
     1
 11
2.324999999999995
 21
69.98250000000002
 31
0.0
100
AcDbText
  0
LINE
  5
200
330
1BE
100
AcDbEntity
  8
PROF_FRM1
 62
     0
100
AcDbLine
 10
0.0
 20
49.13499969
 30
0.0
 11
4.649999999999998
 21
49.13499969
 31
0.0
  0
TEXT
  5
201
330
1BE
100
AcDbEntity
  8
PROF_FRM2
 62
     0
100
AcDbText
 10
1.677321428571423
 20
25.49750031000002
 30
0.0
 40
2.79
  1
F
 41
0.75
  7
SIMPLEX
 72
     1
 11
2.324999999999995
 21
25.49750031000002
 31
0.0
100
AcDbText
  0
TEXT
  5
202
330
1BE
100
AcDbEntity
  8
PROF_FRM2
 62
     0
100
AcDbText
 10
192.1778571428571
 20
247.92249969
 30
0.0
 40
2.79
  1
A
 41
0.75
  7
SIMPLEX
 72
     1
 11
192.975
 21
247.92249969
 31
0.0
100
AcDbText
  0
LINE
  5
203
330
1BE
100
AcDbEntity
  8
PROF_FRM1
 62
     0
100
AcDbLine
 10
195.3
 20
227.07500031
 30
0.0
 11
190.65
 21
227.07500031
 31
0.0
  0
TEXT
  5
204
330
1BE
100
AcDbEntity
  8
PROF_FRM2
 62
     0
100
AcDbText
 10
192.2775
 20
203.4375000000001
 30
0.0
 40
2.79
  1
B
 41
0.75
  7
SIMPLEX
 72
     1
 11
192.975
 21
203.4375000000001
 31
0.0
100
AcDbText
  0
LINE
  5
205
330
1BE
100
AcDbEntity
  8
PROF_FRM1
 62
     0
100
AcDbLine
 10
195.3
 20
182.58999969
 30
0.0
 11
190.65
 21
182.58999969
 31
0.0
  0
TEXT
  5
206
330
1BE
100
AcDbEntity
  8
PROF_FRM2
 62
     0
100
AcDbText
 10
192.2276785714285
 20
158.95250031
 30
0.0
 40
2.79
  1
C
 41
0.75
  7
SIMPLEX
 72
     1
 11
192.975
 21
158.95250031
 31
0.0
100
AcDbText
  0
LINE
  5
207
330
1BE
100
AcDbEntity
  8
PROF_FRM1
 62
     0
100
AcDbLine
 10
195.3
 20
138.105
 30
0.0
 11
190.65
 21
138.105
 31
0.0
  0
TEXT
  5
208
330
1BE
100
AcDbEntity
  8
PROF_FRM2
 62
     0
100
AcDbText
 10
192.2775
 20
114.46749969
 30
0.0
 40
2.79
  1
D
 41
0.75
  7
SIMPLEX
 72
     1
 11
192.975
 21
114.46749969
 31
0.0
100
AcDbText
  0
LINE
  5
209
330
1BE
100
AcDbEntity
  8
PROF_FRM1
 62
     0
100
AcDbLine
 10
195.3
 20
93.62000031000004
 30
0.0
 11
190.65
 21
93.62000031000004
 31
0.0
  0
TEXT
  5
20A
330
1BE
100
AcDbEntity
  8
PROF_FRM2
 62
     0
100
AcDbText
 10
192.3273214285714
 20
69.98250000000002
 30
0.0
 40
2.79
  1
E
 41
0.75
  7
SIMPLEX
 72
     1
 11
192.975
 21
69.98250000000002
 31
0.0
100
AcDbText
  0
LINE
  5
20B
330
1BE
100
AcDbEntity
  8
PROF_FRM1
 62
     0
100
AcDbLine
 10
195.3
 20
49.13499969
 30
0.0
 11
190.65
 21
49.13499969
 31
0.0
  0
TEXT
  5
20C
330
1BE
100
AcDbEntity
  8
PROF_FRM2
 62
     0
100
AcDbText
 10
192.3273214285714
 20
25.49750031000002
 30
0.0
 40
2.79
  1
F
 41
0.75
  7
SIMPLEX
 72
     1
 11
192.975
 21
25.49750031000002
 31
0.0
100
AcDbText
  0
LINE
  5
20D
330
1BE
100
AcDbEntity
  8
PROF_FRM1
 62
     0
100
AcDbLine
 10
190.65
 20
4.650000000000003
 30
0.0
 11
45.17382179869914
 21
4.650000000000003
 31
0.0
  0
LINE
  5
20E
330
1BE
100
AcDbEntity
  8
PROF_FRM1
 62
     0
100
AcDbLine
 10
45.17382179869914
 20
4.650000000000003
 30
0.0
 11
45.17382179869914
 21
54.18506021268647
 31
0.0
  0
LINE
  5
20F
330
1BE
100
AcDbEntity
  8
PROF_FRM1
 62
     0
100
AcDbLine
 10
121.029977754995
 20
58.15047513179378
 30
0.0
 11
190.65
 21
58.15047513179378
 31
0.0
  0
LINE
  5
210
330
1BE
100
AcDbEntity
  8
PROF_FRM1
 62
     0
100
AcDbLine
 10
190.65
 20
49.90788376623001
 30
0.0
 11
190.65
 21
4.650000000000003
 31
0.0
  0
MTEXT
  5
211
330
1BE
100
AcDbEntity
  8
0
 62
     0
100
AcDbMText
 10
48.85491858637361
 20
11.47506017853723
 30
0.0
 40
1.395
 41
9.338081069141315
 46
0.0
 71
     1
 72
     5
  1
{\fTimes New Roman|b0|i0|c238|p18;POZNÁMKA}
 73
     1
 44
1.0
  0
MTEXT
  5
212
330
1BE
100
AcDbEntity
  8
0
 62
     0
100
AcDbMText
 10
63.18463223566721
 20
10.20823425281681
 30
0.0
 40
2.325
 41
45.40550552423986
 46
0.0
 71
     1
 72
     5
  1
{\fTimes New Roman|b0|i0|c238|p18;OCEL 11321  tl.1.5mm}
 73
     1
 44
1.0
  0
LINE
  5
213
330
1BE
100
AcDbEntity
  8
PROF_FRM1
 62
     0
100
AcDbLine
 10
121.029977754995
 20
58.15047513179378
 30
0.0
 11
121.029977754995
 21
54.18506021268647
 31
0.0
  0
LINE
  5
214
330
1BE
100
AcDbEntity
  8
PROF_FRM1
 62
     0
100
AcDbLine
 10
135.2874703872675
 20
35.2222441253646
 30
0.0
 11
135.2874703872675
 21
58.15047513179378
 31
0.0
  0
LINE
  5
215
330
1BE
100
AcDbEntity
  8
PROF_FRM1
 62
     0
100
AcDbLine
 10
149.7108870845899
 20
35.2222441253646
 30
0.0
 11
149.7108870845899
 21
58.15047513179378
 31
0.0
  0
LINE
  5
216
330
1BE
100
AcDbEntity
  8
PROF_FRM1
 62
     0
100
AcDbLine
 10
167.5684524001136
 20
35.2222441253646
 30
0.0
 11
167.5684524001136
 21
58.15047513179378
 31
0.0
  0
LINE
  5
217
330
1BE
100
AcDbEntity
  8
PROF_FRM1
 62
     0
100
AcDbLine
 10
135.2874703872675
 20
54.91462709193021
 30
0.0
 11
135.2874703872675
 21
35.2222441253646
 31
0.0
  0
LINE
  5
218
330
1BE
100
AcDbEntity
  8
PROF_FRM1
 62
     0
100
AcDbLine
 10
135.2874703872675
 20
54.91462709193021
 30
0.0
 11
135.2874703872675
 21
45.06843560864739
 31
0.0
  0
LINE
  5
219
330
1BE
100
AcDbEntity
  8
PROF_FRM1
 62
     0
100
AcDbLine
 10
135.2874703872675
 20
45.06843560864739
 30
0.0
 11
135.2874703872675
 21
35.2222441253646
 31
0.0
  0
LINE
  5
21A
330
1BE
100
AcDbEntity
  8
PROF_FRM1
 62
     0
100
AcDbLine
 10
167.5684524001136
 20
54.91462709193021
 30
0.0
 11
167.5684524001136
 21
35.2222441253646
 31
0.0
  0
LINE
  5
21B
330
1BE
100
AcDbEntity
  8
PROF_FRM1
 62
     0
100
AcDbLine
 10
190.65
 20
47.92254654140768
 30
0.0
 11
135.2874703872675
 21
47.92254654140768
 31
0.0
  0
LINE
  5
21C
330
1BE
100
AcDbEntity
  8
PROF_FRM1
 62
     0
100
AcDbLine
 10
190.65
 20
41.47441768110764
 30
0.0
 11
135.2874703872675
 21
41.47441768110764
 31
0.0
  0
MTEXT
  5
21D
330
1BE
100
AcDbEntity
  8
0
 62
     0
100
AcDbMText
 10
136.7281768043212
 20
45.37168663513589
 30
0.0
 40
1.580999999999999
 41
9.338081069141315
 46
0.0
 71
     1
 72
     5
  1
{\fTimes New Roman|b0|i0|c238|p18;KRESLIL}
 73
     1
 44
1.0
  0
MTEXT
  5
21E
330
1BE
100
AcDbEntity
  8
0
 62
     0
100
AcDbMText
 10
136.8852928512991
 20
39.50096557082679
 30
0.0
 40
1.580999999999999
 41
9.338081069141315
 46
0.0
 71
     1
 72
     5
  1
{\fTimes New Roman|b0|i0|c238|p18;SCHVÁLIL}
 73
     1
 44
1.0
  0
MTEXT
  5
21F
330
1BE
100
AcDbEntity
  8
0
 62
     0
100
AcDbMText
 10
151.5334541404629
 20
45.37168663513589
 30
0.0
 40
1.580999999999999
 41
9.338081069141315
 46
0.0
 71
     1
 72
     5
  1
{\fTimes New Roman|b0|i0|c238|p18;NAVRHL}
 73
     1
 44
1.0
  0
MTEXT
  5
220
330
1BE
100
AcDbEntity
  8
0
 62
     0
100
AcDbMText
 10
151.5334541404629
 20
39.09565181786108
 30
0.0
 40
1.580999999999999
 41
9.338081069141315
 46
0.0
 71
     1
 72
     5
  1
{\fTimes New Roman|b0|i0|c238|p18;NAVRHLJAK}
 73
     1
 44
1.0
  0
MTEXT
  5
221
330
1BE
100
AcDbEntity
  8
0
 62
     0
100
AcDbMText
 10
151.5334541404629
 20
52.02018192577234
 30
0.0
 40
1.580999999999999
 41
9.338081069141315
 46
0.0
 71
     1
 72
     5
  1
{\fTimes New Roman|b0|i0|c238|p18;NAVRHL}
 73
     1
 44
1.0
  0
MTEXT
  5
222
330
1BE
100
AcDbEntity
  8
0
 62
     0
100
AcDbMText
 10
137.4586588137065
 20
57.18894294734973
 30
0.0
 40
1.395
 41
8.280938627490691
 46
0.0
 71
     1
 72
     5
  1
{\fTimes New Roman|b0|i0|c238|p18;\H1.133x;06.09.2005}
 73
     1
 44
1.0
  0
MTEXT
  5
223
330
1BE
100
AcDbEntity
  8
0
 62
     0
100
AcDbMText
 10
153.9001238961419
 20
57.58344248102972
 30
0.0
 40
1.395
 41
8.280938627490691
 46
0.0
 71
     1
 72
     5
  1
{\fTimes New Roman|b0|i0|c238|p18;\H1.133x;JMÉNO}
 73
     1
 44
1.0
  0
MTEXT
  5
224
330
1BE
100
AcDbEntity
  8
0
 62
     0
100
AcDbMText
 10
174.7486066490842
 20
57.18894294734973
 30
0.0
 40
1.395
 41
8.280938627490691
 46
0.0
 71
     1
 72
     5
  1
{\fTimes New Roman|b0|i0|c238|p18;\H1.133x;PODPIS}
 73
     1
 44
1.0
  0
ENDBLK
  5
228
330
1BE
100
AcDbEntity
  8
0
100
AcDbBlockEnd
  0
BLOCK
  5
285
330
284
100
AcDbEntity
  8
0
100
AcDbBlockBegin
  2
DVIEWBLOCK
 70
     0
 10
0.0
 20
0.0
 30
0.0
  3
DVIEWBLOCK
  1

  0
3DFACE
  5
286
330
284
100
AcDbEntity
  8
0
 62
     4
100
AcDbFace
 10
0.1
 20
0.1
 30
0.0
 11
0.9
 21
0.1
 31
0.0
 12
0.9
 22
0.9
 32
0.0
 13
0.1
 23
0.9
 33
0.0
  0
3DFACE
  5
287
330
284
100
AcDbEntity
  8
0
 62
     4
100
AcDbFace
 10
0.1
 20
0.1
 30
0.0
 11
0.1
 21
0.1
 31
0.595
 12
0.2
 22
0.1
 32
0.4
 13
0.2
 23
0.1
 33
0.0
 70
    10
  0
3DFACE
  5
288
330
284
100
AcDbEntity
  8
0
 62
     4
100
AcDbFace
 10
0.2
 20
0.1
 30
0.4
 11
0.1
 21
0.1
 31
0.595
 12
0.9
 22
0.1
 32
0.595
 13
0.4
 23
0.1
 33
0.4
 70
     5
  0
3DFACE
  5
289
330
284
100
AcDbEntity
  8
0
 62
     4
100
AcDbFace
 10
0.4
 20
0.1
 30
0.0
 11
0.4
 21
0.1
 31
0.4
 12
0.9
 22
0.1
 32
0.595
 13
0.9
 23
0.1
 33
0.0
 70
    14
  0
3DFACE
  5
28A
330
284
100
AcDbEntity
  8
0
 62
     7
100
AcDbFace
 10
0.2
 20
0.1
 30
0.005
 11
0.2
 21
0.1
 31
0.4
 12
0.34
 22
0.24
 32
0.4
 13
0.34
 23
0.24
 33
0.005
 70
     1
  0
3DFACE
  5
28B
330
284
100
AcDbEntity
  8
0
 62
     4
100
AcDbFace
 10
0.9
 20
0.1
 30
0.0
 11
0.9
 21
0.1
 31
0.595
 12
0.9
 22
0.5
 32
0.9949999999999999
 13
0.9
 23
0.3
 33
0.4
 70
    12
  0
3DFACE
  5
28C
330
284
100
AcDbEntity
  8
0
 62
     4
100
AcDbFace
 10
0.9
 20
0.3
 30
0.4
 11
0.9
 21
0.5
 31
0.9949999999999999
 12
0.9
 22
0.9
 32
0.595
 13
0.9
 23
0.7000000000000001
 33
0.4
 70
     5
  0
3DFACE
  5
28D
330
284
100
AcDbEntity
  8
0
 62
     4
100
AcDbFace
 10
0.9
 20
0.7000000000000001
 30
0.4
 11
0.9
 21
0.9
 31
0.595
 12
0.9
 22
0.9
 32
0.0
 13
0.9
 23
0.7000000000000001
 33
0.2
 70
     7
  0
3DFACE
  5
28E
330
284
100
AcDbEntity
  8
0
 62
     4
100
AcDbFace
 10
0.9
 20
0.7000000000000001
 30
0.2
 11
0.9
 21
0.9
 31
0.0
 12
0.9
 22
0.1
 32
0.0
 13
0.9
 23
0.3
 33
0.2
 70
     7
  0
3DFACE
  5
28F
330
284
100
AcDbEntity
  8
0
 62
     4
100
AcDbFace
 10
0.9
 20
0.3
 30
0.2
 11
0.9
 21
0.3
 31
0.2
 12
0.9
 22
0.1
 32
0.0
 13
0.9
 23
0.3
 33
0.4
 70
     7
  0
3DFACE
  5
290
330
284
100
AcDbEntity
  8
0
 62
     4
100
AcDbFace
 10
0.9
 20
0.9
 30
0.0
 11
0.9
 21
0.9
 31
0.595
 12
0.1
 22
0.9
 32
0.595
 13
0.1
 23
0.9
 33
0.0
 70
    12
  0
3DFACE
  5
291
330
284
100
AcDbEntity
  8
0
 62
     4
100
AcDbFace
 10
0.1
 20
0.9
 30
0.0
 11
0.1
 21
0.9
 31
0.595
 12
0.1
 22
0.5
 32
0.9949999999999999
 13
0.1
 23
0.5
 33
0.0
 70
    12
  0
3DFACE
  5
292
330
284
100
AcDbEntity
  8
0
 62
     4
100
AcDbFace
 10
0.1
 20
0.5
 30
0.0
 11
0.1
 21
0.5
 31
0.9949999999999999
 12
0.1
 22
0.1
 32
0.595
 13
0.1
 23
0.1
 33
0.0
 70
    13
  0
3DFACE
  5
293
330
284
100
AcDbEntity
  8
0
 62
     1
100
AcDbFace
 10
0.2
 20
0.6
 30
0.9
 11
0.2
 21
0.6
 31
1.0
 12
0.3
 22
0.6
 32
1.0
 13
0.3
 23
0.6
 33
0.9
 70
     4
  0
3DFACE
  5
294
330
284
100
AcDbEntity
  8
0
 62
     1
100
AcDbFace
 10
0.3
 20
0.6
 30
0.9
 11
0.3
 21
0.6
 31
1.0
 12
0.3
 22
0.7000000000000001
 32
1.0
 13
0.3
 23
0.7000000000000001
 33
0.8
 70
     4
  0
3DFACE
  5
295
330
284
100
AcDbEntity
  8
0
 62
     1
100
AcDbFace
 10
0.3
 20
0.7000000000000001
 30
0.8
 11
0.3
 21
0.7000000000000001
 31
1.0
 12
0.2
 22
0.7000000000000001
 32
1.0
 13
0.2
 23
0.7000000000000001
 33
0.8
 70
     4
  0
3DFACE
  5
296
330
284
100
AcDbEntity
  8
0
 62
     1
100
AcDbFace
 10
0.2
 20
0.7000000000000001
 30
0.8
 11
0.2
 21
0.7000000000000001
 31
1.0
 12
0.2
 22
0.6
 32
1.0
 13
0.2
 23
0.6
 33
0.9
 70
     4
  0
3DFACE
  5
297
330
284
100
AcDbEntity
  8
0
 62
     4
100
AcDbFace
 10
0.0
 20
0.0
 30
0.5
 11
1.0
 21
0.0
 31
0.5
 12
1.0
 22
0.5
 32
1.0
 13
0.0
 23
0.5
 33
1.0
  0
3DFACE
  5
298
330
284
100
AcDbEntity
  8
0
 62
     4
100
AcDbFace
 10
0.0
 20
0.5
 30
1.0
 11
1.0
 21
0.5
 31
1.0
 12
1.0
 22
1.0
 32
0.5
 13
0.0
 23
1.0
 33
0.5
 70
     1
  0
ENDBLK
  5
299
330
284
100
AcDbEntity
  8
0
100
AcDbBlockEnd
  0
BLOCK
  5
553
330
549
100
AcDbEntity
  8
0
100
AcDbBlockBegin
  2
*D12
 70
     1
 10
0.0
 20
0.0
 30
0.0
  3
*D12
  1

  0
LINE
  5
2833
330
549
100
AcDbEntity
  8
0
 62
     0
440
 16777216
370
    -2
100
AcDbLine
 10
250.7838371488961
 20
381.6718506122029
 30
0.0
 11
224.9656526294155
 21
381.6718506122029
 31
0.0
  0
LINE
  5
2834
330
549
100
AcDbEntity
  8
0
 62
     0
440
 16777216
370
    -2
100
AcDbLine
 10
246.2838371488961
 20
355.6718506122029
 30
0.0
 11
224.9656526294155
 21
355.6718506122029
 31
0.0
  0
LINE
  5
2835
330
549
100
AcDbEntity
  8
0
 62
     0
440
 16777216
370
    -2
100
AcDbLine
 10
226.2156526294155
 20
379.1718506122029
 30
0.0
 11
226.2156526294155
 21
358.1718506122029
 31
0.0
  0
SOLID
  5
2836
330
549
100
AcDbEntity
  8
0
 62
     0
440
 16777216
100
AcDbTrace
 10
225.7989859627488
 20
379.1718506122029
 30
0.0
 11
226.6323192960822
 21
379.1718506122029
 31
0.0
 12
226.2156526294155
 22
381.6718506122029
 32
0.0
 13
226.2156526294155
 23
381.6718506122029
 33
0.0
  0
SOLID
  5
2837
330
549
100
AcDbEntity
  8
0
 62
     0
440
 16777216
100
AcDbTrace
 10
225.7989859627488
 20
358.1718506122029
 30
0.0
 11
226.6323192960822
 21
358.1718506122029
 31
0.0
 12
226.2156526294155
 22
355.6718506122029
 32
0.0
 13
226.2156526294155
 23
355.6718506122029
 33
0.0
  0
MTEXT
  5
2838
330
549
100
AcDbEntity
  8
0
 62
     0
440
 16777216
100
AcDbMText
 10
224.3406526294155
 20
368.671850612203
 30
0.0
 40
2.5
 41
0.0
 46
0.0
 71
     5
 72
     1
  1
26
 11
0.0000000000000001
 21
1.0
 31
0.0
 73
     1
 44
1.0
  0
POINT
  5
2839
330
549
100
AcDbEntity
  8
Defpoints
 62
     0
440
 16777216
100
AcDbPoint
 10
251.4088371488961
 20
381.6718506122029
 30
0.0
  0
POINT
  5
283A
330
549
100
AcDbEntity
  8
Defpoints
 62
     0
440
 16777216
100
AcDbPoint
 10
246.9088371488961
 20
355.6718506122029
 30
0.0
  0
POINT
  5
283B
330
549
100
AcDbEntity
  8
Defpoints
 62
     0
440
 16777216
100
AcDbPoint
 10
226.2156526294155
 20
355.6718506122029
 30
0.0
  0
ENDBLK
  5
554
330
549
100
AcDbEntity
  8
0
100
AcDbBlockEnd
  0
BLOCK
  5
55F
330
555
100
AcDbEntity
  8
0
100
AcDbBlockBegin
  2
*D13
 70
     1
 10
0.0
 20
0.0
 30
0.0
  3
*D13
  1

  0
LINE
  5
2611
330
555
100
AcDbEntity
  8
0
 62
     0
440
 16777216
370
    -2
100
AcDbLine
 10
233.4088371488961
 20
353.2968506122028
 30
0.0
 11
233.4088371488961
 21
388.4740917505293
 31
0.0
  0
LINE
  5
2612
330
555
100
AcDbEntity
  8
0
 62
     0
440
 16777216
370
    -2
100
AcDbLine
 10
248.4088371488961
 20
379.2968506122029
 30
0.0
 11
248.4088371488961
 21
388.4740917505293
 31
0.0
  0
LINE
  5
2613
330
555
100
AcDbEntity
  8
0
 62
     0
440
 16777216
370
    -2
100
AcDbLine
 10
235.9088371488961
 20
387.2240917505294
 30
0.0
 11
245.9088371488961
 21
387.2240917505294
 31
0.0
  0
SOLID
  5
2614
330
555
100
AcDbEntity
  8
0
 62
     0
440
 16777216
100
AcDbTrace
 10
235.9088371488961
 20
387.640758417196
 30
0.0
 11
235.9088371488961
 21
386.8074250838626
 31
0.0
 12
233.4088371488961
 22
387.2240917505294
 32
0.0
 13
233.4088371488961
 23
387.2240917505294
 33
0.0
  0
SOLID
  5
2615
330
555
100
AcDbEntity
  8
0
 62
     0
440
 16777216
100
AcDbTrace
 10
245.9088371488961
 20
387.640758417196
 30
0.0
 11
245.9088371488961
 21
386.8074250838626
 31
0.0
 12
248.4088371488961
 22
387.2240917505294
 32
0.0
 13
248.4088371488961
 23
387.2240917505294
 33
0.0
  0
MTEXT
  5
2616
330
555
100
AcDbEntity
  8
0
 62
     0
440
 16777216
100
AcDbMText
 10
240.9088371488961
 20
389.0990917505293
 30
0.0
 40
2.5
 41
0.0
 46
0.0
 71
     5
 72
     1
  1
15
 73
     1
 44
1.0
  0
POINT
  5
2617
330
555
100
AcDbEntity
  8
Defpoints
 62
     0
440
 16777216
100
AcDbPoint
 10
233.4088371488961
 20
352.6718506122028
 30
0.0
  0
POINT
  5
2618
330
555
100
AcDbEntity
  8
Defpoints
 62
     0
440
 16777216
100
AcDbPoint
 10
248.4088371488961
 20
378.6718506122029
 30
0.0
  0
POINT
  5
2619
330
555
100
AcDbEntity
  8
Defpoints
 62
     0
440
 16777216
100
AcDbPoint
 10
248.4088371488961
 20
387.2240917505294
 30
0.0
  0
ENDBLK
  5
560
330
555
100
AcDbEntity
  8
0
100
AcDbBlockEnd
  0
BLOCK
  5
707
330
6FD
100
AcDbEntity
  8
0
100
AcDbBlockBegin
  2
*D14
 70
     1
 10
0.0
 20
0.0
 30
0.0
  3
*D14
  1

  0
LINE
  5
262D
330
6FD
100
AcDbEntity
  8
0
 62
     0
440
 16777216
370
    -2
100
AcDbLine
 10
362.0320014237864
 20
351.7725671162113
 30
0.0
 11
362.0320014237864
 21
387.8541375343037
 31
0.0
  0
LINE
  5
262E
330
6FD
100
AcDbEntity
  8
0
 62
     0
440
 16777216
370
    -2
100
AcDbLine
 10
377.0320014237865
 20
378.3975671162114
 30
0.0
 11
377.0320014237865
 21
387.8541375343037
 31
0.0
  0
LINE
  5
262F
330
6FD
100
AcDbEntity
  8
0
 62
     0
440
 16777216
370
    -2
100
AcDbLine
 10
364.5320014237864
 20
386.6041375343037
 30
0.0
 11
374.5320014237865
 21
386.6041375343037
 31
0.0
  0
SOLID
  5
2630
330
6FD
100
AcDbEntity
  8
0
 62
     0
440
 16777216
100
AcDbTrace
 10
364.5320014237864
 20
387.0208042009704
 30
0.0
 11
364.5320014237864
 21
386.1874708676371
 31
0.0
 12
362.0320014237864
 22
386.6041375343037
 32
0.0
 13
362.0320014237864
 23
386.6041375343037
 33
0.0
  0
SOLID
  5
2631
330
6FD
100
AcDbEntity
  8
0
 62
     0
440
 16777216
100
AcDbTrace
 10
374.5320014237865
 20
387.0208042009704
 30
0.0
 11
374.5320014237865
 21
386.1874708676371
 31
0.0
 12
377.0320014237865
 22
386.6041375343037
 32
0.0
 13
377.0320014237865
 23
386.6041375343037
 33
0.0
  0
MTEXT
  5
2632
330
6FD
100
AcDbEntity
  8
0
 62
     0
440
 16777216
100
AcDbMText
 10
369.5320014237864
 20
388.4791375343037
 30
0.0
 40
2.5
 41
0.0
 46
0.0
 71
     5
 72
     1
  1
15
 73
     1
 44
1.0
  0
POINT
  5
2633
330
6FD
100
AcDbEntity
  8
Defpoints
 62
     0
440
 16777216
100
AcDbPoint
 10
362.0320014237864
 20
351.1475671162113
 30
0.0
  0
POINT
  5
2634
330
6FD
100
AcDbEntity
  8
Defpoints
 62
     0
440
 16777216
100
AcDbPoint
 10
377.0320014237865
 20
377.7725671162114
 30
0.0
  0
POINT
  5
2635
330
6FD
100
AcDbEntity
  8
Defpoints
 62
     0
440
 16777216
100
AcDbPoint
 10
377.0320014237865
 20
386.6041375343037
 30
0.0
  0
ENDBLK
  5
708
330
6FD
100
AcDbEntity
  8
0
100
AcDbBlockEnd
  0
BLOCK
  5
713
330
709
100
AcDbEntity
  8
0
100
AcDbBlockBegin
  2
*D15
 70
     1
 10
0.0
 20
0.0
 30
0.0
  3
*D15
  1

  0
LINE
  5
2A67
330
709
100
AcDbEntity
  8
0
 62
     0
440
 16777216
370
    -2
100
AcDbLine
 10
407.6570014237865
 20
370.1475671162115
 30
0.0
 11
416.7452024333738
 21
370.1475671162115
 31
0.0
  0
LINE
  5
2A68
330
709
100
AcDbEntity
  8
0
 62
     0
440
 16777216
370
    -2
100
AcDbLine
 10
392.6570014237866
 20
295.1475671162114
 30
0.0
 11
416.7452024333738
 21
295.1475671162114
 31
0.0
  0
LINE
  5
2A69
330
709
100
AcDbEntity
  8
0
 62
     0
440
 16777216
370
    -2
100
AcDbLine
 10
415.4952024333738
 20
367.6475671162115
 30
0.0
 11
415.4952024333738
 21
297.6475671162114
 31
0.0
  0
SOLID
  5
2A6A
330
709
100
AcDbEntity
  8
0
 62
     0
440
 16777216
100
AcDbTrace
 10
415.0785357667071
 20
367.6475671162115
 30
0.0
 11
415.9118691000405
 21
367.6475671162115
 31
0.0
 12
415.4952024333738
 22
370.1475671162115
 32
0.0
 13
415.4952024333738
 23
370.1475671162115
 33
0.0
  0
SOLID
  5
2A6B
330
709
100
AcDbEntity
  8
0
 62
     0
440
 16777216
100
AcDbTrace
 10
415.0785357667071
 20
297.6475671162114
 30
0.0
 11
415.9118691000405
 21
297.6475671162114
 31
0.0
 12
415.4952024333738
 22
295.1475671162114
 32
0.0
 13
415.4952024333738
 23
295.1475671162114
 33
0.0
  0
MTEXT
  5
2A6C
330
709
100
AcDbEntity
  8
0
 62
     0
440
 16777216
100
AcDbMText
 10
413.6202024333737
 20
332.6644411357677
 30
0.0
 40
2.5
 41
0.0
 46
0.0
 71
     5
 72
     1
  1
T+1
 11
0.0000000000000001
 21
1.0
 31
0.0
 73
     1
 44
1.0
  0
POINT
  5
2A6D
330
709
100
AcDbEntity
  8
Defpoints
 62
     0
440
 16777216
100
AcDbPoint
 10
407.0320014237865
 20
370.1475671162115
 30
0.0
  0
POINT
  5
2A6E
330
709
100
AcDbEntity
  8
Defpoints
 62
     0
440
 16777216
100
AcDbPoint
 10
392.0320014237866
 20
295.1475671162114
 30
0.0
  0
POINT
  5
2A6F
330
709
100
AcDbEntity
  8
Defpoints
 62
     0
440
 16777216
100
AcDbPoint
 10
415.4952024333738
 20
295.1475671162114
 30
0.0
  0
ENDBLK
  5
714
330
709
100
AcDbEntity
  8
0
100
AcDbBlockEnd
  0
BLOCK
  5
758
330
74E
100
AcDbEntity
  8
0
100
AcDbBlockBegin
  2
*D16
 70
     1
 10
0.0
 20
0.0
 30
0.0
  3
*D16
  1

  0
LINE
  5
282A
330
74E
100
AcDbEntity
  8
0
 62
     0
440
 16777216
370
    -2
100
AcDbLine
 10
379.4070014237865
 20
380.1475671162113
 30
0.0
 11
354.1974551740955
 21
380.1475671162113
 31
0.0
  0
LINE
  5
282B
330
74E
100
AcDbEntity
  8
0
 62
     0
440
 16777216
370
    -2
100
AcDbLine
 10
364.1854886937382
 20
355.4794122244601
 30
0.0
 11
354.1974551740955
 21
355.4794122244601
 31
0.0
  0
LINE
  5
282C
330
74E
100
AcDbEntity
  8
0
 62
     0
440
 16777216
370
    -2
100
AcDbLine
 10
355.4474551740955
 20
377.6475671162113
 30
0.0
 11
355.4474551740955
 21
357.9794122244601
 31
0.0
  0
SOLID
  5
282D
330
74E
100
AcDbEntity
  8
0
 62
     0
440
 16777216
100
AcDbTrace
 10
355.0307885074289
 20
377.6475671162113
 30
0.0
 11
355.8641218407621
 21
377.6475671162113
 31
0.0
 12
355.4474551740955
 22
380.1475671162113
 32
0.0
 13
355.4474551740955
 23
380.1475671162113
 33
0.0
  0
SOLID
  5
282E
330
74E
100
AcDbEntity
  8
0
 62
     0
440
 16777216
100
AcDbTrace
 10
355.0307885074289
 20
357.9794122244601
 30
0.0
 11
355.8641218407621
 21
357.9794122244601
 31
0.0
 12
355.4474551740955
 22
355.4794122244601
 32
0.0
 13
355.4474551740955
 23
355.4794122244601
 33
0.0
  0
MTEXT
  5
282F
330
74E
100
AcDbEntity
  8
0
 62
     0
440
 16777216
100
AcDbMText
 10
353.5724551740955
 20
367.8134896703359
 30
0.0
 40
2.5
 41
0.0
 46
0.0
 71
     5
 72
     1
  1
26
 11
0.0000000000000001
 21
1.0
 31
0.0
 73
     1
 44
1.0
  0
POINT
  5
2830
330
74E
100
AcDbEntity
  8
Defpoints
 62
     0
440
 16777216
100
AcDbPoint
 10
380.0320014237865
 20
380.1475671162113
 30
0.0
  0
POINT
  5
2831
330
74E
100
AcDbEntity
  8
Defpoints
 62
     0
440
 16777216
100
AcDbPoint
 10
364.8104886937382
 20
355.4794122244601
 30
0.0
  0
POINT
  5
2832
330
74E
100
AcDbEntity
  8
Defpoints
 62
     0
440
 16777216
100
AcDbPoint
 10
355.4474551740955
 20
355.4794122244601
 30
0.0
  0
ENDBLK
  5
759
330
74E
100
AcDbEntity
  8
0
100
AcDbBlockEnd
  0
BLOCK
  5
93E
330
933
100
AcDbEntity
  8
0
100
AcDbBlockBegin
  2
*D17
 70
     1
 10
0.0
 20
0.0
 30
0.0
  3
*D17
  1

  0
LINE
  5
21A0
330
933
100
AcDbEntity
  8
0
 62
     0
370
    -2
100
AcDbLine
 10
1293.130137507787
 20
2871.693283124983
 30
0.0
 11
1273.846660895639
 21
2871.693283124983
 31
0.0
  0
LINE
  5
21A1
330
933
100
AcDbEntity
  8
0
 62
     0
370
    -2
100
AcDbLine
 10
1293.130137507787
 20
2734.281455040496
 30
0.0
 11
1273.846660895639
 21
2734.281455040496
 31
0.0
  0
LINE
  5
21A2
330
933
100
AcDbEntity
  8
0
 62
     0
370
    -2
100
AcDbLine
 10
1274.026660895639
 20
2841.693283124983
 30
0.0
 11
1274.026660895639
 21
2764.281455040496
 31
0.0
  0
SOLID
  5
21A3
330
933
100
AcDbEntity
  8
0
 62
     0
370
    35
100
AcDbTrace
 10
1269.026660895639
 20
2841.693283124983
 30
0.0
 11
1279.026660895639
 21
2841.693283124983
 31
0.0
 12
1274.026660895639
 22
2871.693283124983
 32
0.0
 13
1274.026660895639
 23
2871.693283124983
 33
0.0
  0
SOLID
  5
21A4
330
933
100
AcDbEntity
  8
0
 62
     0
370
    35
100
AcDbTrace
 10
1269.026660895639
 20
2764.281455040496
 30
0.0
 11
1279.026660895639
 21
2764.281455040496
 31
0.0
 12
1274.026660895639
 22
2734.281455040496
 32
0.0
 13
1274.026660895639
 23
2734.281455040496
 33
0.0
  0
MTEXT
  5
21A5
330
933
100
AcDbEntity
  8
0
 62
     0
100
AcDbMText
 10
1249.026660895639
 20
2802.98736908274
 30
0.0
 40
30.0
 41
0.0
 46
0.0
 71
     5
 72
     1
  1
\A1;200
 11
0.0000000000000001
 21
1.0
 31
0.0
 73
     1
 44
1.0
  0
POINT
  5
21A6
330
933
100
AcDbEntity
  8
Defpoints
 62
     0
370
    35
100
AcDbPoint
 10
1293.192637507787
 20
2871.693283124983
 30
0.0
  0
POINT
  5
21A7
330
933
100
AcDbEntity
  8
Defpoints
 62
     0
370
    35
100
AcDbPoint
 10
1293.192637507787
 20
2734.281455040496
 30
0.0
  0
POINT
  5
21A8
330
933
100
AcDbEntity
  8
Defpoints
 62
     0
370
    35
100
AcDbPoint
 10
1274.026660895639
 20
2734.281455040496
 30
0.0
  0
ENDBLK
  5
93F
330
933
100
AcDbEntity
  8
0
100
AcDbBlockEnd
  0
BLOCK
  5
958
330
94D
100
AcDbEntity
  8
0
100
AcDbBlockBegin
  2
*D18
 70
     1
 10
0.0
 20
0.0
 30
0.0
  3
*D18
  1

  0
LINE
  5
21BB
330
94D
100
AcDbEntity
  8
0
 62
     0
370
    -2
100
AcDbLine
 10
1293.067637507787
 20
2871.693283124983
 30
0.0
 11
1190.902820226722
 21
2871.693283124983
 31
0.0
  0
LINE
  5
21BC
330
94D
100
AcDbEntity
  8
0
 62
     0
370
    -2
100
AcDbLine
 10
1293.192637507787
 20
2296.498070614916
 30
0.0
 11
1190.902820226722
 21
2296.498070614916
 31
0.0
  0
LINE
  5
21BD
330
94D
100
AcDbEntity
  8
0
 62
     0
370
    -2
100
AcDbLine
 10
1191.082820226722
 20
2841.693283124983
 30
0.0
 11
1191.082820226722
 21
2326.498070614915
 31
0.0
  0
SOLID
  5
21BE
330
94D
100
AcDbEntity
  8
0
 62
     0
370
    35
100
AcDbTrace
 10
1186.082820226722
 20
2841.693283124983
 30
0.0
 11
1196.082820226722
 21
2841.693283124983
 31
0.0
 12
1191.082820226722
 22
2871.693283124983
 32
0.0
 13
1191.082820226722
 23
2871.693283124983
 33
0.0
  0
SOLID
  5
21BF
330
94D
100
AcDbEntity
  8
0
 62
     0
370
    35
100
AcDbTrace
 10
1186.082820226722
 20
2326.498070614915
 30
0.0
 11
1196.082820226722
 21
2326.498070614915
 31
0.0
 12
1191.082820226722
 22
2296.498070614916
 32
0.0
 13
1191.082820226722
 23
2296.498070614916
 33
0.0
  0
MTEXT
  5
21C0
330
94D
100
AcDbEntity
  8
0
 62
     0
100
AcDbMText
 10
1166.082820226722
 20
2584.09567686995
 30
0.0
 40
30.0
 41
0.0
 46
0.0
 71
     5
 72
     1
  1
\A1;975
 11
0.0000000000000001
 21
1.0
 31
0.0
 73
     1
 44
1.0
  0
POINT
  5
21C1
330
94D
100
AcDbEntity
  8
Defpoints
 62
     0
370
    35
100
AcDbPoint
 10
1293.130137507787
 20
2871.693283124983
 30
0.0
  0
POINT
  5
21C2
330
94D
100
AcDbEntity
  8
Defpoints
 62
     0
370
    35
100
AcDbPoint
 10
1293.255137507787
 20
2296.498070614916
 30
0.0
  0
POINT
  5
21C3
330
94D
100
AcDbEntity
  8
Defpoints
 62
     0
370
    35
100
AcDbPoint
 10
1191.082820226722
 20
2296.498070614916
 30
0.0
  0
ENDBLK
  5
959
330
94D
100
AcDbEntity
  8
0
100
AcDbBlockEnd
  0
BLOCK
  5
972
330
967
100
AcDbEntity
  8
0
100
AcDbBlockBegin
  2
*D19
 70
     1
 10
0.0
 20
0.0
 30
0.0
  3
*D19
  1

  0
LINE
  5
21CD
330
967
100
AcDbEntity
  8
0
 62
     0
370
    -2
100
AcDbLine
 10
1293.130137507787
 20
2871.693283124983
 30
0.0
 11
1106.658413982787
 21
2871.693283124983
 31
0.0
  0
LINE
  5
21CE
330
967
100
AcDbEntity
  8
0
 62
     0
370
    -2
100
AcDbLine
 10
1293.130137507787
 20
1820.90462745844
 30
0.0
 11
1106.658413982787
 21
1820.90462745844
 31
0.0
  0
LINE
  5
21CF
330
967
100
AcDbEntity
  8
0
 62
     0
370
    -2
100
AcDbLine
 10
1106.838413982787
 20
2841.693283124983
 30
0.0
 11
1106.838413982787
 21
1850.90462745844
 31
0.0
  0
SOLID
  5
21D0
330
967
100
AcDbEntity
  8
0
 62
     0
370
    35
100
AcDbTrace
 10
1101.838413982787
 20
2841.693283124983
 30
0.0
 11
1111.838413982787
 21
2841.693283124983
 31
0.0
 12
1106.838413982787
 22
2871.693283124983
 32
0.0
 13
1106.838413982787
 23
2871.693283124983
 33
0.0
  0
SOLID
  5
21D1
330
967
100
AcDbEntity
  8
0
 62
     0
370
    35
100
AcDbTrace
 10
1101.838413982787
 20
1850.90462745844
 30
0.0
 11
1111.838413982787
 21
1850.90462745844
 31
0.0
 12
1106.838413982787
 22
1820.90462745844
 32
0.0
 13
1106.838413982787
 23
1820.90462745844
 33
0.0
  0
MTEXT
  5
21D2
330
967
100
AcDbEntity
  8
0
 62
     0
100
AcDbMText
 10
1081.838413982787
 20
2346.298955291713
 30
0.0
 40
30.0
 41
0.0
 46
0.0
 71
     5
 72
     1
  1
\A1;1750
 11
0.0000000000000001
 21
1.0
 31
0.0
 73
     1
 44
1.0
  0
POINT
  5
21D3
330
967
100
AcDbEntity
  8
Defpoints
 62
     0
370
    35
100
AcDbPoint
 10
1293.192637507787
 20
2871.693283124983
 30
0.0
  0
POINT
  5
21D4
330
967
100
AcDbEntity
  8
Defpoints
 62
     0
370
    35
100
AcDbPoint
 10
1293.192637507787
 20
1820.90462745844
 30
0.0
  0
POINT
  5
21D5
330
967
100
AcDbEntity
  8
Defpoints
 62
     0
370
    35
100
AcDbPoint
 10
1106.838413982787
 20
1820.90462745844
 30
0.0
  0
ENDBLK
  5
973
330
967
100
AcDbEntity
  8
0
100
AcDbBlockEnd
  0
BLOCK
  5
9BE
330
9B3
100
AcDbEntity
  8
0
100
AcDbBlockBegin
  2
*D20
 70
     1
 10
0.0
 20
0.0
 30
0.0
  3
*D20
  1

  0
LINE
  5
21E8
330
9B3
100
AcDbEntity
  8
0
 62
     0
370
    -2
100
AcDbLine
 10
2167.661617691794
 20
2856.693283124983
 30
0.0
 11
2111.151641375704
 21
2856.693283124983
 31
0.0
  0
LINE
  5
21E9
330
9B3
100
AcDbEntity
  8
0
 62
     0
370
    -2
100
AcDbLine
 10
2167.661617691795
 20
1596.876564249466
 30
0.0
 11
2111.151641375704
 21
1596.876564249466
 31
0.0
  0
LINE
  5
21EA
330
9B3
100
AcDbEntity
  8
0
 62
     0
370
    -2
100
AcDbLine
 10
2111.331641375704
 20
2826.693283124983
 30
0.0
 11
2111.331641375704
 21
1626.876564249467
 31
0.0
  0
SOLID
  5
21EB
330
9B3
100
AcDbEntity
  8
0
 62
     0
370
    35
100
AcDbTrace
 10
2106.331641375704
 20
2826.693283124983
 30
0.0
 11
2116.331641375705
 21
2826.693283124983
 31
0.0
 12
2111.331641375704
 22
2856.693283124983
 32
0.0
 13
2111.331641375704
 23
2856.693283124983
 33
0.0
  0
SOLID
  5
21EC
330
9B3
100
AcDbEntity
  8
0
 62
     0
370
    35
100
AcDbTrace
 10
2106.331641375704
 20
1626.876564249467
 30
0.0
 11
2116.331641375705
 21
1626.876564249467
 31
0.0
 12
2111.331641375704
 22
1596.876564249466
 32
0.0
 13
2111.331641375704
 23
1596.876564249466
 33
0.0
  0
MTEXT
  5
21ED
330
9B3
100
AcDbEntity
  8
0
 62
     0
100
AcDbMText
 10
2086.331641375704
 20
2179.043886751721
 30
0.0
 40
30.0
 41
0.0
 46
0.0
 71
     5
 72
     1
  1
\A1;1970
 11
0.0000000000000001
 21
1.0
 31
0.0
 73
     1
 44
1.0
  0
POINT
  5
21EE
330
9B3
100
AcDbEntity
  8
Defpoints
 62
     0
370
    35
100
AcDbPoint
 10
2167.724117691794
 20
2856.693283124983
 30
0.0
  0
POINT
  5
21EF
330
9B3
100
AcDbEntity
  8
Defpoints
 62
     0
370
    35
100
AcDbPoint
 10
2167.724117691795
 20
1596.876564249466
 30
0.0
  0
POINT
  5
21F0
330
9B3
100
AcDbEntity
  8
Defpoints
 62
     0
370
    35
100
AcDbPoint
 10
2111.331641375704
 20
1596.876564249466
 30
0.0
  0
ENDBLK
  5
9BF
330
9B3
100
AcDbEntity
  8
0
100
AcDbBlockEnd
  0
BLOCK
  5
9D8
330
9CD
100
AcDbEntity
  8
0
100
AcDbBlockBegin
  2
*D21
 70
     1
 10
0.0
 20
0.0
 30
0.0
  3
*D21
  1

  0
LINE
  5
21D6
330
9CD
100
AcDbEntity
  8
0
 62
     0
370
    -2
100
AcDbLine
 10
2291.523184680482
 20
2871.693283124983
 30
0.0
 11
2345.909297222423
 21
2871.693283124983
 31
0.0
  0
LINE
  5
21D7
330
9CD
100
AcDbEntity
  8
0
 62
     0
370
    -2
100
AcDbLine
 10
2291.523184680482
 20
2291.31974092631
 30
0.0
 11
2345.909297222423
 21
2291.31974092631
 31
0.0
  0
LINE
  5
21D8
330
9CD
100
AcDbEntity
  8
0
 62
     0
370
    -2
100
AcDbLine
 10
2345.729297222423
 20
2841.693283124983
 30
0.0
 11
2345.729297222423
 21
2321.31974092631
 31
0.0
  0
SOLID
  5
21D9
330
9CD
100
AcDbEntity
  8
0
 62
     0
370
    35
100
AcDbTrace
 10
2340.729297222424
 20
2841.693283124983
 30
0.0
 11
2350.729297222423
 21
2841.693283124983
 31
0.0
 12
2345.729297222423
 22
2871.693283124983
 32
0.0
 13
2345.729297222423
 23
2871.693283124983
 33
0.0
  0
SOLID
  5
21DA
330
9CD
100
AcDbEntity
  8
0
 62
     0
370
    35
100
AcDbTrace
 10
2340.729297222424
 20
2321.31974092631
 30
0.0
 11
2350.729297222423
 21
2321.31974092631
 31
0.0
 12
2345.729297222423
 22
2291.31974092631
 32
0.0
 13
2345.729297222423
 23
2291.31974092631
 33
0.0
  0
MTEXT
  5
21DB
330
9CD
100
AcDbEntity
  8
0
 62
     0
100
AcDbMText
 10
2320.729297222422
 20
2600.312510279259
 30
0.0
 40
30.0
 41
0.0
 46
0.0
 71
     5
 72
     1
  1
\A1;900
 11
0.0000000000000001
 21
1.0
 31
0.0
 73
     1
 44
1.0
  0
POINT
  5
21DC
330
9CD
100
AcDbEntity
  8
Defpoints
 62
     0
370
    35
100
AcDbPoint
 10
2291.460684680482
 20
2871.693283124983
 30
0.0
  0
POINT
  5
21DD
330
9CD
100
AcDbEntity
  8
Defpoints
 62
     0
370
    35
100
AcDbPoint
 10
2291.460684680482
 20
2291.31974092631
 30
0.0
  0
POINT
  5
21DE
330
9CD
100
AcDbEntity
  8
Defpoints
 62
     0
370
    35
100
AcDbPoint
 10
2345.729297222423
 20
2291.31974092631
 30
0.0
  0
ENDBLK
  5
9D9
330
9CD
100
AcDbEntity
  8
0
100
AcDbBlockEnd
  0
BLOCK
  5
2058
330
204E
100
AcDbEntity
  8
0
 62
     0
370
    35
100
AcDbBlockBegin
  2
*D22
 70
     1
 10
0.0
 20
0.0
 30
0.0
  3
*D22
  1

  0
LINE
  5
21A9
330
204E
100
AcDbEntity
  8
0
 62
     0
370
    -2
100
AcDbLine
 10
2765.816659062539
 20
2871.693283124983
 30
0.0
 11
2746.533182450391
 21
2871.693283124983
 31
0.0
  0
LINE
  5
21AA
330
204E
100
AcDbEntity
  8
0
 62
     0
370
    -2
100
AcDbLine
 10
2765.816659062539
 20
2734.281455040496
 30
0.0
 11
2746.533182450391
 21
2734.281455040496
 31
0.0
  0
LINE
  5
21AB
330
204E
100
AcDbEntity
  8
0
 62
     0
370
    -2
100
AcDbLine
 10
2746.713182450391
 20
2841.693283124983
 30
0.0
 11
2746.713182450391
 21
2764.281455040496
 31
0.0
  0
SOLID
  5
21AC
330
204E
100
AcDbEntity
  8
0
 62
     0
370
    35
100
AcDbTrace
 10
2741.713182450391
 20
2841.693283124983
 30
0.0
 11
2751.713182450391
 21
2841.693283124983
 31
0.0
 12
2746.713182450391
 22
2871.693283124983
 32
0.0
 13
2746.713182450391
 23
2871.693283124983
 33
0.0
  0
SOLID
  5
21AD
330
204E
100
AcDbEntity
  8
0
 62
     0
370
    35
100
AcDbTrace
 10
2741.713182450391
 20
2764.281455040496
 30
0.0
 11
2751.713182450391
 21
2764.281455040496
 31
0.0
 12
2746.713182450391
 22
2734.281455040496
 32
0.0
 13
2746.713182450391
 23
2734.281455040496
 33
0.0
  0
MTEXT
  5
21AE
330
204E
100
AcDbEntity
  8
0
 62
     0
100
AcDbMText
 10
2721.713182450391
 20
2802.98736908274
 30
0.0
 40
30.0
 41
0.0
 46
0.0
 71
     5
 72
     1
  1
\A1;200
 11
0.0000000000000001
 21
1.0
 31
0.0
 73
     1
 44
1.0
  0
POINT
  5
21AF
330
204E
100
AcDbEntity
  8
Defpoints
 62
     0
370
    35
100
AcDbPoint
 10
2765.879159062539
 20
2871.693283124983
 30
0.0
  0
POINT
  5
21B0
330
204E
100
AcDbEntity
  8
Defpoints
 62
     0
370
    35
100
AcDbPoint
 10
2765.879159062539
 20
2734.281455040496
 30
0.0
  0
POINT
  5
21B1
330
204E
100
AcDbEntity
  8
Defpoints
 62
     0
370
    35
100
AcDbPoint
 10
2746.713182450391
 20
2734.281455040496
 30
0.0
  0
ENDBLK
  5
2059
330
204E
100
AcDbEntity
  8
0
 62
     0
370
    35
100
AcDbBlockEnd
  0
BLOCK
  5
2064
330
205A
100
AcDbEntity
  8
0
 62
     0
370
    35
100
AcDbBlockBegin
  2
*D23
 70
     1
 10
0.0
 20
0.0
 30
0.0
  3
*D23
  1

  0
LINE
  5
21B2
330
205A
100
AcDbEntity
  8
0
 62
     0
370
    -2
100
AcDbLine
 10
2765.754159062539
 20
2871.693283124983
 30
0.0
 11
2663.589341781474
 21
2871.693283124983
 31
0.0
  0
LINE
  5
21B3
330
205A
100
AcDbEntity
  8
0
 62
     0
370
    -2
100
AcDbLine
 10
2765.879159062539
 20
2296.498070614916
 30
0.0
 11
2663.589341781474
 21
2296.498070614916
 31
0.0
  0
LINE
  5
21B4
330
205A
100
AcDbEntity
  8
0
 62
     0
370
    -2
100
AcDbLine
 10
2663.769341781474
 20
2841.693283124983
 30
0.0
 11
2663.769341781474
 21
2326.498070614915
 31
0.0
  0
SOLID
  5
21B5
330
205A
100
AcDbEntity
  8
0
 62
     0
370
    35
100
AcDbTrace
 10
2658.769341781474
 20
2841.693283124983
 30
0.0
 11
2668.769341781474
 21
2841.693283124983
 31
0.0
 12
2663.769341781474
 22
2871.693283124983
 32
0.0
 13
2663.769341781474
 23
2871.693283124983
 33
0.0
  0
SOLID
  5
21B6
330
205A
100
AcDbEntity
  8
0
 62
     0
370
    35
100
AcDbTrace
 10
2658.769341781474
 20
2326.498070614915
 30
0.0
 11
2668.769341781474
 21
2326.498070614915
 31
0.0
 12
2663.769341781474
 22
2296.498070614916
 32
0.0
 13
2663.769341781474
 23
2296.498070614916
 33
0.0
  0
MTEXT
  5
21B7
330
205A
100
AcDbEntity
  8
0
 62
     0
100
AcDbMText
 10
2638.769341781474
 20
2584.09567686995
 30
0.0
 40
30.0
 41
0.0
 46
0.0
 71
     5
 72
     1
  1
\A1;975
 11
0.0000000000000001
 21
1.0
 31
0.0
 73
     1
 44
1.0
  0
POINT
  5
21B8
330
205A
100
AcDbEntity
  8
Defpoints
 62
     0
370
    35
100
AcDbPoint
 10
2765.816659062539
 20
2871.693283124983
 30
0.0
  0
POINT
  5
21B9
330
205A
100
AcDbEntity
  8
Defpoints
 62
     0
370
    35
100
AcDbPoint
 10
2765.941659062539
 20
2296.498070614916
 30
0.0
  0
POINT
  5
21BA
330
205A
100
AcDbEntity
  8
Defpoints
 62
     0
370
    35
100
AcDbPoint
 10
2663.769341781474
 20
2296.498070614916
 30
0.0
  0
ENDBLK
  5
2065
330
205A
100
AcDbEntity
  8
0
 62
     0
370
    35
100
AcDbBlockEnd
  0
BLOCK
  5
2070
330
2066
100
AcDbEntity
  8
0
 62
     0
370
    35
100
AcDbBlockBegin
  2
*D24
 70
     1
 10
0.0
 20
0.0
 30
0.0
  3
*D24
  1

  0
LINE
  5
21C4
330
2066
100
AcDbEntity
  8
0
 62
     0
370
    -2
100
AcDbLine
 10
2765.816659062539
 20
2871.693283124983
 30
0.0
 11
2579.34493553754
 21
2871.693283124983
 31
0.0
  0
LINE
  5
21C5
330
2066
100
AcDbEntity
  8
0
 62
     0
370
    -2
100
AcDbLine
 10
2765.816659062539
 20
1820.90462745844
 30
0.0
 11
2579.34493553754
 21
1820.90462745844
 31
0.0
  0
LINE
  5
21C6
330
2066
100
AcDbEntity
  8
0
 62
     0
370
    -2
100
AcDbLine
 10
2579.524935537539
 20
2841.693283124983
 30
0.0
 11
2579.524935537539
 21
1850.90462745844
 31
0.0
  0
SOLID
  5
21C7
330
2066
100
AcDbEntity
  8
0
 62
     0
370
    35
100
AcDbTrace
 10
2574.524935537539
 20
2841.693283124983
 30
0.0
 11
2584.524935537539
 21
2841.693283124983
 31
0.0
 12
2579.524935537539
 22
2871.693283124983
 32
0.0
 13
2579.524935537539
 23
2871.693283124983
 33
0.0
  0
SOLID
  5
21C8
330
2066
100
AcDbEntity
  8
0
 62
     0
370
    35
100
AcDbTrace
 10
2574.524935537539
 20
1850.90462745844
 30
0.0
 11
2584.524935537539
 21
1850.90462745844
 31
0.0
 12
2579.524935537539
 22
1820.90462745844
 32
0.0
 13
2579.524935537539
 23
1820.90462745844
 33
0.0
  0
MTEXT
  5
21C9
330
2066
100
AcDbEntity
  8
0
 62
     0
100
AcDbMText
 10
2554.524935537538
 20
2346.298955291713
 30
0.0
 40
30.0
 41
0.0
 46
0.0
 71
     5
 72
     1
  1
\A1;1750
 11
0.0000000000000001
 21
1.0
 31
0.0
 73
     1
 44
1.0
  0
POINT
  5
21CA
330
2066
100
AcDbEntity
  8
Defpoints
 62
     0
370
    35
100
AcDbPoint
 10
2765.879159062539
 20
2871.693283124983
 30
0.0
  0
POINT
  5
21CB
330
2066
100
AcDbEntity
  8
Defpoints
 62
     0
370
    35
100
AcDbPoint
 10
2765.879159062539
 20
1820.90462745844
 30
0.0
  0
POINT
  5
21CC
330
2066
100
AcDbEntity
  8
Defpoints
 62
     0
370
    35
100
AcDbPoint
 10
2579.524935537539
 20
1820.90462745844
 30
0.0
  0
ENDBLK
  5
2071
330
2066
100
AcDbEntity
  8
0
 62
     0
370
    35
100
AcDbBlockEnd
  0
BLOCK
  5
21F9
330
21F7
100
AcDbEntity
  8
0
 62
     0
370
    35
100
AcDbBlockBegin
  2
A$C6ACD3F3C
 70
     0
 10
0.0
 20
0.0
 30
0.0
  3
A$C6ACD3F3C
  1

  0
INSERT
  5
21F8
330
21F7
100
AcDbEntity
  8
0
100
AcDbBlockReference
  2
2
 10
-576.3944873989983
 20
-488.3850236960856
 30
0.0
  0
ENDBLK
  5
21FA
330
21F7
100
AcDbEntity
  8
0
 62
     0
370
    35
100
AcDbBlockEnd
  0
BLOCK
  5
2279
330
226F
100
AcDbEntity
  8
0
 62
     0
370
    35
100
AcDbBlockBegin
  2
*D26
 70
     1
 10
0.0
 20
0.0
 30
0.0
  3
*D26
  1

  0
LINE
  5
2298
330
226F
100
AcDbEntity
  8
0
 62
     0
370
    -2
100
AcDbLine
 10
2286.523184680482
 20
2901.693283124983
 30
0.0
 11
2429.287446225613
 21
2901.693283124983
 31
0.0
  0
LINE
  5
2299
330
226F
100
AcDbEntity
  8
0
 62
     0
370
    -2
100
AcDbLine
 10
2286.523184680482
 20
1596.876564249466
 30
0.0
 11
2429.287446225613
 21
1596.876564249466
 31
0.0
  0
LINE
  5
229A
330
226F
100
AcDbEntity
  8
0
 62
     0
370
    -2
100
AcDbLine
 10
2429.107446225613
 20
2871.693283124983
 30
0.0
 11
2429.107446225613
 21
1626.876564249467
 31
0.0
  0
SOLID
  5
229B
330
226F
100
AcDbEntity
  8
0
 62
     0
370
    35
100
AcDbTrace
 10
2424.107446225613
 20
2871.693283124983
 30
0.0
 11
2434.107446225613
 21
2871.693283124983
 31
0.0
 12
2429.107446225613
 22
2901.693283124983
 32
0.0
 13
2429.107446225613
 23
2901.693283124983
 33
0.0
  0
SOLID
  5
229C
330
226F
100
AcDbEntity
  8
0
 62
     0
370
    35
100
AcDbTrace
 10
2424.107446225613
 20
1626.876564249467
 30
0.0
 11
2434.107446225613
 21
1626.876564249467
 31
0.0
 12
2429.107446225613
 22
1596.876564249466
 32
0.0
 13
2429.107446225613
 23
1596.876564249466
 33
0.0
  0
MTEXT
  5
229D
330
226F
100
AcDbEntity
  8
0
 62
     0
100
AcDbMText
 10
2404.107446225613
 20
2249.284923687225
 30
0.0
 40
30.0
 41
0.0
 46
0.0
 71
     5
 72
     1
  1
\A1;2015
 11
0.0000000000000001
 21
1.0
 31
0.0
 73
     1
 44
1.0
  0
POINT
  5
229E
330
226F
100
AcDbEntity
  8
Defpoints
 62
     0
370
    35
100
AcDbPoint
 10
2286.460684680482
 20
2901.693283124983
 30
0.0
  0
POINT
  5
229F
330
226F
100
AcDbEntity
  8
Defpoints
 62
     0
370
    35
100
AcDbPoint
 10
2286.460684680482
 20
1596.876564249466
 30
0.0
  0
POINT
  5
22A0
330
226F
100
AcDbEntity
  8
Defpoints
 62
     0
370
    35
100
AcDbPoint
 10
2429.107446225613
 20
1596.876564249466
 30
0.0
  0
ENDBLK
  5
227A
330
226F
100
AcDbEntity
  8
0
 62
     0
370
    35
100
AcDbBlockEnd
  0
BLOCK
  5
238E
330
2384
100
AcDbEntity
  8
0
 62
     0
370
    35
100
AcDbBlockBegin
  2
*D27
 70
     1
 10
0.0
 20
0.0
 30
0.0
  3
*D27
  1

  0
LINE
  5
2648
330
2384
100
AcDbEntity
  8
0
 62
     0
370
    -2
100
AcDbLine
 10
631.7010535759647
 20
389.4823215893887
 30
0.0
 11
606.9784065826856
 21
389.4823215893887
 31
0.0
  0
LINE
  5
2649
330
2384
100
AcDbEntity
  8
0
 62
     0
370
    -2
100
AcDbLine
 10
616.7010535759646
 20
363.4823215893887
 30
0.0
 11
606.9784065826856
 21
363.4823215893887
 31
0.0
  0
LINE
  5
264A
330
2384
100
AcDbEntity
  8
0
 62
     0
370
    -2
100
AcDbLine
 10
608.2284065826852
 20
386.9823215893887
 30
0.0
 11
608.2284065826852
 21
365.9823215893887
 31
0.0
  0
SOLID
  5
264B
330
2384
100
AcDbEntity
  8
0
 62
     0
100
AcDbTrace
 10
607.811739916019
 20
386.9823215893887
 30
0.0
 11
608.6450732493521
 21
386.9823215893887
 31
0.0
 12
608.2284065826852
 22
389.4823215893887
 32
0.0
 13
608.2284065826852
 23
389.4823215893887
 33
0.0
  0
SOLID
  5
264C
330
2384
100
AcDbEntity
  8
0
 62
     0
100
AcDbTrace
 10
607.811739916019
 20
365.9823215893887
 30
0.0
 11
608.6450732493521
 21
365.9823215893887
 31
0.0
 12
608.2284065826852
 22
363.4823215893887
 32
0.0
 13
608.2284065826852
 23
363.4823215893887
 33
0.0
  0
MTEXT
  5
264D
330
2384
100
AcDbEntity
  8
0
 62
     0
100
AcDbMText
 10
606.3534065826852
 20
376.4823215893887
 30
0.0
 40
2.5
 41
0.0
 46
0.0
 71
     5
 72
     1
  1
26
 11
0.0000000000000001
 21
1.0
 31
0.0
 73
     1
 44
1.0
  0
POINT
  5
264E
330
2384
100
AcDbEntity
  8
Defpoints
 62
     0
100
AcDbPoint
 10
632.3260535759646
 20
389.4823215893887
 30
0.0
  0
POINT
  5
264F
330
2384
100
AcDbEntity
  8
Defpoints
 62
     0
100
AcDbPoint
 10
617.3260535759647
 20
363.4823215893887
 30
0.0
  0
POINT
  5
2650
330
2384
100
AcDbEntity
  8
Defpoints
 62
     0
100
AcDbPoint
 10
608.2284065826852
 20
363.4823215893887
 30
0.0
  0
ENDBLK
  5
238F
330
2384
100
AcDbEntity
  8
0
 62
     0
370
    35
100
AcDbBlockEnd
  0
BLOCK
  5
23E1
330
23D7
100
AcDbEntity
  8
0
 62
     0
370
    35
100
AcDbBlockBegin
  2
*D28
 70
     1
 10
0.0
 20
0.0
 30
0.0
  3
*D28
  1

  0
LINE
  5
2651
330
23D7
100
AcDbEntity
  8
0
 62
     0
370
    -2
100
AcDbLine
 10
656.9510535759647
 20
389.4823215893887
 30
0.0
 11
689.7202889420797
 21
389.4823215893887
 31
0.0
  0
LINE
  5
2652
330
23D7
100
AcDbEntity
  8
0
 62
     0
370
    -2
100
AcDbLine
 10
651.9510535759646
 20
279.4823215893887
 30
0.0
 11
689.7202889420797
 21
279.4823215893887
 31
0.0
  0
LINE
  5
2653
330
23D7
100
AcDbEntity
  8
0
 62
     0
370
    -2
100
AcDbLine
 10
688.4702889420797
 20
386.9823215893887
 30
0.0
 11
688.4702889420797
 21
281.9823215893887
 31
0.0
  0
SOLID
  5
2654
330
23D7
100
AcDbEntity
  8
0
 62
     0
100
AcDbTrace
 10
688.053622275413
 20
386.9823215893887
 30
0.0
 11
688.8869556087462
 21
386.9823215893887
 31
0.0
 12
688.4702889420797
 22
389.4823215893887
 32
0.0
 13
688.4702889420797
 23
389.4823215893887
 33
0.0
  0
SOLID
  5
2655
330
23D7
100
AcDbEntity
  8
0
 62
     0
100
AcDbTrace
 10
688.053622275413
 20
281.9823215893887
 30
0.0
 11
688.8869556087462
 21
281.9823215893887
 31
0.0
 12
688.4702889420797
 22
279.4823215893887
 32
0.0
 13
688.4702889420797
 23
279.4823215893887
 33
0.0
  0
MTEXT
  5
2656
330
23D7
100
AcDbEntity
  8
0
 62
     0
100
AcDbMText
 10
686.5952889420796
 20
340.9665160934609
 30
0.0
 40
2.5
 41
0.0
 46
0.0
 71
     5
 72
     1
  1
C=110
 11
0.0000000000000001
 21
1.0
 31
0.0
 73
     1
 44
1.0
  0
POINT
  5
2657
330
23D7
100
AcDbEntity
  8
Defpoints
 62
     0
100
AcDbPoint
 10
656.3260535759646
 20
389.4823215893887
 30
0.0
  0
POINT
  5
2658
330
23D7
100
AcDbEntity
  8
Defpoints
 62
     0
100
AcDbPoint
 10
651.3260535759647
 20
279.4823215893887
 30
0.0
  0
POINT
  5
2659
330
23D7
100
AcDbEntity
  8
Defpoints
 62
     0
100
AcDbPoint
 10
688.4702889420797
 20
279.4823215893887
 30
0.0
  0
ENDBLK
  5
23E2
330
23D7
100
AcDbEntity
  8
0
 62
     0
370
    35
100
AcDbBlockEnd
  0
BLOCK
  5
2447
330
243D
100
AcDbEntity
  8
0
 62
     0
370
    35
100
AcDbBlockBegin
  2
*D29
 70
     1
 10
0.0
 20
0.0
 30
0.0
  3
*D29
  1

  0
LINE
  5
265A
330
243D
100
AcDbEntity
  8
0
 62
     0
370
    -2
100
AcDbLine
 10
614.3309657977019
 20
361.3544919336997
 30
0.0
 11
614.3309657977019
 21
397.4360623517922
 31
0.0
  0
LINE
  5
265B
330
243D
100
AcDbEntity
  8
0
 62
     0
370
    -2
100
AcDbLine
 10
629.330965797702
 20
387.9794919336997
 30
0.0
 11
629.330965797702
 21
397.4360623517922
 31
0.0
  0
LINE
  5
265C
330
243D
100
AcDbEntity
  8
0
 62
     0
370
    -2
100
AcDbLine
 10
616.830965797702
 20
396.1860623517921
 30
0.0
 11
626.8309657977019
 21
396.1860623517921
 31
0.0
  0
SOLID
  5
265D
330
243D
100
AcDbEntity
  8
0
 62
     0
100
AcDbTrace
 10
616.830965797702
 20
396.6027290184588
 30
0.0
 11
616.830965797702
 21
395.7693956851254
 31
0.0
 12
614.3309657977019
 22
396.1860623517921
 32
0.0
 13
614.3309657977019
 23
396.1860623517921
 33
0.0
  0
SOLID
  5
265E
330
243D
100
AcDbEntity
  8
0
 62
     0
100
AcDbTrace
 10
626.8309657977019
 20
396.6027290184588
 30
0.0
 11
626.8309657977019
 21
395.7693956851254
 31
0.0
 12
629.330965797702
 22
396.1860623517921
 32
0.0
 13
629.330965797702
 23
396.1860623517921
 33
0.0
  0
MTEXT
  5
265F
330
243D
100
AcDbEntity
  8
0
 62
     0
100
AcDbMText
 10
621.830965797702
 20
398.0610623517922
 30
0.0
 40
2.5
 41
0.0
 46
0.0
 71
     5
 72
     1
  1
15
 73
     1
 44
1.0
  0
POINT
  5
2660
330
243D
100
AcDbEntity
  8
Defpoints
 62
     0
100
AcDbPoint
 10
614.3309657977019
 20
360.7294919336997
 30
0.0
  0
POINT
  5
2661
330
243D
100
AcDbEntity
  8
Defpoints
 62
     0
100
AcDbPoint
 10
629.330965797702
 20
387.3544919336997
 30
0.0
  0
POINT
  5
2662
330
243D
100
AcDbEntity
  8
Defpoints
 62
     0
100
AcDbPoint
 10
629.330965797702
 20
396.1860623517921
 30
0.0
  0
ENDBLK
  5
2448
330
243D
100
AcDbEntity
  8
0
 62
     0
370
    35
100
AcDbBlockEnd
  0
BLOCK
  5
268B
330
2681
100
AcDbEntity
  8
0
 62
     0
100
AcDbBlockBegin
  2
*D30
 70
     1
 10
0.0
 20
0.0
 30
0.0
  3
*D30
  1

  0
LINE
  5
2816
330
2681
100
AcDbEntity
  8
0
 62
     0
440
 16777216
370
    -2
100
AcDbLine
 10
279.0338371488961
 20
373.6718506122029
 30
0.0
 11
327.966584987702
 21
373.6718506122029
 31
0.0
  0
LINE
  5
2817
330
2681
100
AcDbEntity
  8
0
 62
     0
440
 16777216
370
    -2
100
AcDbLine
 10
264.0338371488961
 20
294.6718506122029
 30
0.0
 11
327.966584987702
 21
294.6718506122029
 31
0.0
  0
LINE
  5
2818
330
2681
100
AcDbEntity
  8
0
 62
     0
440
 16777216
370
    -2
100
AcDbLine
 10
326.716584987702
 20
371.1718506122029
 30
0.0
 11
326.716584987702
 21
297.1718506122029
 31
0.0
  0
SOLID
  5
2819
330
2681
100
AcDbEntity
  8
0
 62
     0
440
 16777216
100
AcDbTrace
 10
326.2999183210353
 20
371.1718506122029
 30
0.0
 11
327.1332516543687
 21
371.1718506122029
 31
0.0
 12
326.716584987702
 22
373.6718506122029
 32
0.0
 13
326.716584987702
 23
373.6718506122029
 33
0.0
  0
SOLID
  5
281A
330
2681
100
AcDbEntity
  8
0
 62
     0
440
 16777216
100
AcDbTrace
 10
326.2999183210353
 20
297.1718506122029
 30
0.0
 11
327.1332516543687
 21
297.1718506122029
 31
0.0
 12
326.716584987702
 22
294.6718506122029
 32
0.0
 13
326.716584987702
 23
294.6718506122029
 33
0.0
  0
MTEXT
  5
281B
330
2681
100
AcDbEntity
  8
0
 62
     0
440
 16777216
100
AcDbMText
 10
324.8415849877019
 20
334.171850612203
 30
0.0
 40
2.5
 41
0.0
 46
0.0
 71
     5
 72
     1
  1
T+1
 11
0.0000000000000001
 21
1.0
 31
0.0
 73
     1
 44
1.0
  0
POINT
  5
281C
330
2681
100
AcDbEntity
  8
Defpoints
 62
     0
440
 16777216
100
AcDbPoint
 10
278.4088371488961
 20
373.6718506122029
 30
0.0
  0
POINT
  5
281D
330
2681
100
AcDbEntity
  8
Defpoints
 62
     0
440
 16777216
100
AcDbPoint
 10
263.4088371488961
 20
294.6718506122029
 30
0.0
  0
POINT
  5
281E
330
2681
100
AcDbEntity
  8
Defpoints
 62
     0
440
 16777216
100
AcDbPoint
 10
326.716584987702
 20
294.6718506122029
 30
0.0
  0
ENDBLK
  5
268C
330
2681
100
AcDbEntity
  8
0
 62
     0
100
AcDbBlockEnd
  0
BLOCK
  5
26E0
330
26D5
100
AcDbEntity
  8
0
 62
     0
100
AcDbBlockBegin
  2
*D31
 70
     1
 10
0.0
 20
0.0
 30
0.0
  3
*D31
  1

  0
LINE
  5
26E3
330
26D5
100
AcDbEntity
  8
0
 62
     0
370
    -2
100
AcDbLine
 10
248.3463371488961
 20
387.2240917505294
 30
0.0
 11
248.2288371488961
 21
387.2240917505294
 31
0.0
  0
LINE
  5
26E4
330
26D5
100
AcDbEntity
  8
0
 62
     0
370
    -2
100
AcDbLine
 10
278.3463371488961
 20
378.6718506122029
 30
0.0
 11
248.2288371488961
 21
378.6718506122029
 31
0.0
  0
LINE
  5
26E5
330
26D5
100
AcDbEntity
  8
0
 62
     0
370
    -2
100
AcDbLine
 10
248.4088371488961
 20
417.2240917505289
 30
0.0
 11
248.4088371488961
 21
447.2240917505293
 31
0.0
  0
LINE
  5
26E6
330
26D5
100
AcDbEntity
  8
0
 62
     0
370
    -2
100
AcDbLine
 10
248.4088371488961
 20
348.6718506122029
 30
0.0
 11
248.4088371488961
 21
280.1004220407743
 31
0.0
  0
SOLID
  5
26E7
330
26D5
100
AcDbEntity
  8
0
 62
     0
100
AcDbTrace
 10
243.4088371488961
 20
417.2240917505289
 30
0.0
 11
253.4088371488961
 21
417.2240917505289
 31
0.0
 12
248.4088371488961
 22
387.2240917505294
 32
0.0
 13
248.4088371488961
 23
387.2240917505294
 33
0.0
  0
SOLID
  5
26E8
330
26D5
100
AcDbEntity
  8
0
 62
     0
100
AcDbTrace
 10
243.4088371488961
 20
348.6718506122029
 30
0.0
 11
253.4088371488961
 21
348.6718506122029
 31
0.0
 12
248.4088371488961
 22
378.6718506122029
 32
0.0
 13
248.4088371488961
 23
378.6718506122029
 33
0.0
  0
MTEXT
  5
26E9
330
26D5
100
AcDbEntity
  8
0
 62
     0
100
AcDbMText
 10
223.4088371488961
 20
299.3861363264887
 30
0.0
 40
30.0
 41
0.0
 46
0.0
 71
     5
 72
     1
  1
\A1;9
 11
0.0000000000000001
 21
1.0
 31
0.0
 73
     1
 44
1.0
  0
POINT
  5
26EA
330
26D5
100
AcDbEntity
  8
Defpoints
 62
     0
100
AcDbPoint
 10
248.4088371488961
 20
387.2240917505294
 30
0.0
  0
POINT
  5
26EB
330
26D5
100
AcDbEntity
  8
Defpoints
 62
     0
100
AcDbPoint
 10
278.4088371488961
 20
378.6718506122029
 30
0.0
  0
POINT
  5
26EC
330
26D5
100
AcDbEntity
  8
Defpoints
 62
     0
100
AcDbPoint
 10
248.4088371488961
 20
378.6718506122029
 30
0.0
  0
ENDBLK
  5
26E1
330
26D5
100
AcDbEntity
  8
0
 62
     0
100
AcDbBlockEnd
  0
BLOCK
  5
26FA
330
26EF
100
AcDbEntity
  8
0
 62
     0
100
AcDbBlockBegin
  2
*D32
 70
     1
 10
0.0
 20
0.0
 30
0.0
  3
*D32
  1

  0
LINE
  5
29C4
330
26EF
100
AcDbEntity
  8
0
 62
     0
440
 16777216
370
    -2
100
AcDbLine
 10
248.4088371488961
 20
381.7343506122029
 30
0.0
 11
248.4088371488961
 21
387.363890838589
 31
0.0
  0
LINE
  5
29C5
330
26EF
100
AcDbEntity
  8
0
 62
     0
440
 16777216
370
    -2
100
AcDbLine
 10
278.4088371488961
 20
376.2343506122029
 30
0.0
 11
278.4088371488961
 21
387.363890838589
 31
0.0
  0
LINE
  5
29C6
330
26EF
100
AcDbEntity
  8
0
 62
     0
440
 16777216
370
    -2
100
AcDbLine
 10
250.9088371488961
 20
387.183890838589
 30
0.0
 11
275.9088371488961
 21
387.183890838589
 31
0.0
  0
SOLID
  5
29C7
330
26EF
100
AcDbEntity
  8
0
 62
     0
440
 16777216
100
AcDbTrace
 10
250.9088371488961
 20
387.6005575052557
 30
0.0
 11
250.9088371488961
 21
386.7672241719223
 31
0.0
 12
248.4088371488961
 22
387.183890838589
 32
0.0
 13
248.4088371488961
 23
387.183890838589
 33
0.0
  0
SOLID
  5
29C8
330
26EF
100
AcDbEntity
  8
0
 62
     0
440
 16777216
100
AcDbTrace
 10
275.9088371488961
 20
387.6005575052557
 30
0.0
 11
275.9088371488961
 21
386.7672241719223
 31
0.0
 12
278.4088371488961
 22
387.183890838589
 32
0.0
 13
278.4088371488961
 23
387.183890838589
 33
0.0
  0
MTEXT
  5
29C9
330
26EF
100
AcDbEntity
  8
0
 62
     0
440
 16777216
100
AcDbMText
 10
263.4088371488961
 20
389.0338908385891
 30
0.0
 40
2.5
 41
0.0
 46
0.0
 71
     5
 72
     1
  1
\A1;30
 73
     1
 44
1.0
  0
POINT
  5
29CA
330
26EF
100
AcDbEntity
  8
Defpoints
 62
     0
440
 16777216
100
AcDbPoint
 10
248.4088371488961
 20
381.6718506122029
 30
0.0
  0
POINT
  5
29CB
330
26EF
100
AcDbEntity
  8
Defpoints
 62
     0
440
 16777216
100
AcDbPoint
 10
278.4088371488961
 20
376.1718506122029
 30
0.0
  0
POINT
  5
29CC
330
26EF
100
AcDbEntity
  8
Defpoints
 62
     0
440
 16777216
100
AcDbPoint
 10
278.4088371488961
 20
387.183890838589
 30
0.0
  0
ENDBLK
  5
26FB
330
26EF
100
AcDbEntity
  8
0
 62
     0
100
AcDbBlockEnd
  0
BLOCK
  5
2743
330
2738
100
AcDbEntity
  8
0
 62
     0
100
AcDbBlockBegin
  2
*D33
 70
     1
 10
0.0
 20
0.0
 30
0.0
  3
*D33
  1

  0
LINE
  5
29CD
330
2738
100
AcDbEntity
  8
0
 62
     0
440
 16777216
370
    -2
100
AcDbLine
 10
233.408837148896
 20
289.6093506122028
 30
0.0
 11
233.408837148896
 21
282.3162272006333
 31
0.0
  0
LINE
  5
29CE
330
2738
100
AcDbEntity
  8
0
 62
     0
440
 16777216
370
    -2
100
AcDbLine
 10
263.4088371488961
 20
289.6093506122028
 30
0.0
 11
263.4088371488961
 21
282.3162272006333
 31
0.0
  0
LINE
  5
29CF
330
2738
100
AcDbEntity
  8
0
 62
     0
440
 16777216
370
    -2
100
AcDbLine
 10
235.908837148896
 20
282.4962272006333
 30
0.0
 11
260.9088371488961
 21
282.4962272006333
 31
0.0
  0
SOLID
  5
29D0
330
2738
100
AcDbEntity
  8
0
 62
     0
440
 16777216
100
AcDbTrace
 10
235.908837148896
 20
282.9128938673
 30
0.0
 11
235.908837148896
 21
282.0795605339666
 31
0.0
 12
233.408837148896
 22
282.4962272006333
 32
0.0
 13
233.408837148896
 23
282.4962272006333
 33
0.0
  0
SOLID
  5
29D1
330
2738
100
AcDbEntity
  8
0
 62
     0
440
 16777216
100
AcDbTrace
 10
260.9088371488961
 20
282.9128938673
 30
0.0
 11
260.9088371488961
 21
282.0795605339666
 31
0.0
 12
263.4088371488961
 22
282.4962272006333
 32
0.0
 13
263.4088371488961
 23
282.4962272006333
 33
0.0
  0
MTEXT
  5
29D2
330
2738
100
AcDbEntity
  8
0
 62
     0
440
 16777216
100
AcDbMText
 10
248.4088371488961
 20
284.3762272006333
 30
0.0
 40
2.5
 41
0.0
 46
0.0
 71
     5
 72
     1
  1
\A1;30
 73
     1
 44
1.0
  0
POINT
  5
29D3
330
2738
100
AcDbEntity
  8
Defpoints
 62
     0
440
 16777216
100
AcDbPoint
 10
233.408837148896
 20
289.6718506122028
 30
0.0
  0
POINT
  5
29D4
330
2738
100
AcDbEntity
  8
Defpoints
 62
     0
440
 16777216
100
AcDbPoint
 10
263.4088371488961
 20
289.6718506122028
 30
0.0
  0
POINT
  5
29D5
330
2738
100
AcDbEntity
  8
Defpoints
 62
     0
440
 16777216
100
AcDbPoint
 10
263.4088371488961
 20
282.4962272006333
 30
0.0
  0
ENDBLK
  5
2744
330
2738
100
AcDbEntity
  8
0
 62
     0
100
AcDbBlockEnd
  0
BLOCK
  5
275F
330
2755
100
AcDbEntity
  8
0
 62
     0
100
AcDbBlockBegin
  2
*D34
 70
     1
 10
0.0
 20
0.0
 30
0.0
  3
*D34
  1

  0
LINE
  5
29D6
330
2755
100
AcDbEntity
  8
0
 62
     0
440
 16777216
370
    -2
100
AcDbLine
 10
377.0320014237865
 20
381.2064093288904
 30
0.0
 11
377.0320014237865
 21
386.8359495552764
 31
0.0
  0
LINE
  5
29D7
330
2755
100
AcDbEntity
  8
0
 62
     0
440
 16777216
370
    -2
100
AcDbLine
 10
407.0320014237863
 20
375.7064093288904
 30
0.0
 11
407.0320014237863
 21
386.8359495552764
 31
0.0
  0
LINE
  5
29D8
330
2755
100
AcDbEntity
  8
0
 62
     0
440
 16777216
370
    -2
100
AcDbLine
 10
379.5320014237865
 20
386.6559495552764
 30
0.0
 11
404.5320014237863
 21
386.6559495552764
 31
0.0
  0
SOLID
  5
29D9
330
2755
100
AcDbEntity
  8
0
 62
     0
440
 16777216
100
AcDbTrace
 10
379.5320014237865
 20
387.0726162219431
 30
0.0
 11
379.5320014237865
 21
386.2392828886098
 31
0.0
 12
377.0320014237865
 22
386.6559495552764
 32
0.0
 13
377.0320014237865
 23
386.6559495552764
 33
0.0
  0
SOLID
  5
29DA
330
2755
100
AcDbEntity
  8
0
 62
     0
440
 16777216
100
AcDbTrace
 10
404.5320014237863
 20
387.0726162219431
 30
0.0
 11
404.5320014237863
 21
386.2392828886098
 31
0.0
 12
407.0320014237863
 22
386.6559495552764
 32
0.0
 13
407.0320014237863
 23
386.6559495552764
 33
0.0
  0
MTEXT
  5
29DB
330
2755
100
AcDbEntity
  8
0
 62
     0
440
 16777216
100
AcDbMText
 10
392.0320014237864
 20
388.5059495552765
 30
0.0
 40
2.5
 41
0.0
 46
0.0
 71
     5
 72
     1
  1
\A1;30
 73
     1
 44
1.0
  0
POINT
  5
29DC
330
2755
100
AcDbEntity
  8
Defpoints
 62
     0
440
 16777216
100
AcDbPoint
 10
377.0320014237865
 20
381.1439093288904
 30
0.0
  0
POINT
  5
29DD
330
2755
100
AcDbEntity
  8
Defpoints
 62
     0
440
 16777216
100
AcDbPoint
 10
407.0320014237863
 20
375.6439093288904
 30
0.0
  0
POINT
  5
29DE
330
2755
100
AcDbEntity
  8
Defpoints
 62
     0
440
 16777216
100
AcDbPoint
 10
407.0320014237863
 20
386.6559495552764
 30
0.0
  0
ENDBLK
  5
2760
330
2755
100
AcDbEntity
  8
0
 62
     0
100
AcDbBlockEnd
  0
BLOCK
  5
2778
330
276D
100
AcDbEntity
  8
0
 62
     0
100
AcDbBlockBegin
  2
*D35
 70
     1
 10
0.0
 20
0.0
 30
0.0
  3
*D35
  1

  0
LINE
  5
29DF
330
276D
100
AcDbEntity
  8
0
 62
     0
440
 16777216
370
    -2
100
AcDbLine
 10
362.0320014237863
 20
289.6093506122028
 30
0.0
 11
362.0320014237863
 21
280.5607275608366
 31
0.0
  0
LINE
  5
29E0
330
276D
100
AcDbEntity
  8
0
 62
     0
440
 16777216
370
    -2
100
AcDbLine
 10
392.0320014237864
 20
289.6093506122028
 30
0.0
 11
392.0320014237864
 21
280.5607275608366
 31
0.0
  0
LINE
  5
29E1
330
276D
100
AcDbEntity
  8
0
 62
     0
440
 16777216
370
    -2
100
AcDbLine
 10
364.5320014237863
 20
280.7407275608366
 30
0.0
 11
389.5320014237864
 21
280.7407275608366
 31
0.0
  0
SOLID
  5
29E2
330
276D
100
AcDbEntity
  8
0
 62
     0
440
 16777216
100
AcDbTrace
 10
364.5320014237863
 20
281.1573942275033
 30
0.0
 11
364.5320014237863
 21
280.3240608941699
 31
0.0
 12
362.0320014237863
 22
280.7407275608366
 32
0.0
 13
362.0320014237863
 23
280.7407275608366
 33
0.0
  0
SOLID
  5
29E3
330
276D
100
AcDbEntity
  8
0
 62
     0
440
 16777216
100
AcDbTrace
 10
389.5320014237864
 20
281.1573942275033
 30
0.0
 11
389.5320014237864
 21
280.3240608941699
 31
0.0
 12
392.0320014237864
 22
280.7407275608366
 32
0.0
 13
392.0320014237864
 23
280.7407275608366
 33
0.0
  0
MTEXT
  5
29E4
330
276D
100
AcDbEntity
  8
0
 62
     0
440
 16777216
100
AcDbMText
 10
377.0320014237864
 20
282.6207275608366
 30
0.0
 40
2.5
 41
0.0
 46
0.0
 71
     5
 72
     1
  1
\A1;30
 73
     1
 44
1.0
  0
POINT
  5
29E5
330
276D
100
AcDbEntity
  8
Defpoints
 62
     0
440
 16777216
100
AcDbPoint
 10
362.0320014237863
 20
289.6718506122028
 30
0.0
  0
POINT
  5
29E6
330
276D
100
AcDbEntity
  8
Defpoints
 62
     0
440
 16777216
100
AcDbPoint
 10
392.0320014237864
 20
289.6718506122028
 30
0.0
  0
POINT
  5
29E7
330
276D
100
AcDbEntity
  8
Defpoints
 62
     0
440
 16777216
100
AcDbPoint
 10
392.0320014237864
 20
280.7407275608366
 30
0.0
  0
ENDBLK
  5
2779
330
276D
100
AcDbEntity
  8
0
 62
     0
100
AcDbBlockEnd
  0
BLOCK
  5
2854
330
284A
100
AcDbEntity
  8
0
 62
     0
100
AcDbBlockBegin
  2
*D36
 70
     1
 10
0.0
 20
0.0
 30
0.0
  3
*D36
  1

  0
LINE
  5
292E
330
284A
100
AcDbEntity
  8
0
 62
     0
440
 16777216
370
    -2
100
AcDbLine
 10
276.0338371488961
 20
381.6718506122029
 30
0.0
 11
284.1965829916845
 21
381.6718506122029
 31
0.0
  0
LINE
  5
292F
330
284A
100
AcDbEntity
  8
0
 62
     0
440
 16777216
370
    -2
100
AcDbLine
 10
277.533837148896
 20
373.6718506122029
 30
0.0
 11
284.1965829916845
 21
373.6718506122029
 31
0.0
  0
LINE
  5
2930
330
284A
100
AcDbEntity
  8
0
 62
     0
440
 16777216
370
    -2
100
AcDbLine
 10
282.9465829916845
 20
379.1718506122029
 30
0.0
 11
282.9465829916845
 21
376.1718506122029
 31
0.0
  0
SOLID
  5
2931
330
284A
100
AcDbEntity
  8
0
 62
     0
440
 16777216
100
AcDbTrace
 10
282.5299163250178
 20
379.1718506122029
 30
0.0
 11
283.3632496583511
 21
379.1718506122029
 31
0.0
 12
282.9465829916845
 22
381.6718506122029
 32
0.0
 13
282.9465829916845
 23
381.6718506122029
 33
0.0
  0
SOLID
  5
2932
330
284A
100
AcDbEntity
  8
0
 62
     0
440
 16777216
100
AcDbTrace
 10
282.5299163250178
 20
376.1718506122029
 30
0.0
 11
283.3632496583511
 21
376.1718506122029
 31
0.0
 12
282.9465829916845
 22
373.6718506122029
 32
0.0
 13
282.9465829916845
 23
373.6718506122029
 33
0.0
  0
MTEXT
  5
2933
330
284A
100
AcDbEntity
  8
0
 62
     0
440
 16777216
100
AcDbMText
 10
281.0715829916844
 20
377.8831697273707
 30
0.0
 40
2.5
 41
0.0
 46
0.0
 71
     5
 72
     1
  1
8
 11
0.0000000000000001
 21
1.0
 31
0.0
 73
     1
 44
1.0
  0
POINT
  5
2934
330
284A
100
AcDbEntity
  8
Defpoints
 62
     0
440
 16777216
100
AcDbPoint
 10
275.4088371488961
 20
381.6718506122029
 30
0.0
  0
POINT
  5
2935
330
284A
100
AcDbEntity
  8
Defpoints
 62
     0
440
 16777216
100
AcDbPoint
 10
276.908837148896
 20
373.6718506122029
 30
0.0
  0
POINT
  5
2936
330
284A
100
AcDbEntity
  8
Defpoints
 62
     0
440
 16777216
100
AcDbPoint
 10
282.9465829916845
 20
373.6718506122029
 30
0.0
  0
ENDBLK
  5
2855
330
284A
100
AcDbEntity
  8
0
 62
     0
100
AcDbBlockEnd
  0
BLOCK
  5
2863
330
2859
100
AcDbEntity
  8
0
 62
     0
100
AcDbBlockBegin
  2
*D37
 70
     1
 10
0.0
 20
0.0
 30
0.0
  3
*D37
  1

  0
LINE
  5
2925
330
2859
100
AcDbEntity
  8
0
 62
     0
440
 16777216
370
    -2
100
AcDbLine
 10
263.2838371488961
 20
294.6718506122029
 30
0.0
 11
270.4075445930345
 21
294.6718506122029
 31
0.0
  0
LINE
  5
2926
330
2859
100
AcDbEntity
  8
0
 62
     0
440
 16777216
370
    -2
100
AcDbLine
 10
261.033837148896
 20
286.6718506122028
 30
0.0
 11
270.4075445930345
 21
286.6718506122028
 31
0.0
  0
LINE
  5
2927
330
2859
100
AcDbEntity
  8
0
 62
     0
440
 16777216
370
    -2
100
AcDbLine
 10
269.1575445930345
 20
292.1718506122029
 30
0.0
 11
269.1575445930345
 21
289.1718506122028
 31
0.0
  0
SOLID
  5
2928
330
2859
100
AcDbEntity
  8
0
 62
     0
440
 16777216
100
AcDbTrace
 10
268.7408779263678
 20
292.1718506122029
 30
0.0
 11
269.5742112597012
 21
292.1718506122029
 31
0.0
 12
269.1575445930345
 22
294.6718506122029
 32
0.0
 13
269.1575445930345
 23
294.6718506122029
 33
0.0
  0
SOLID
  5
2929
330
2859
100
AcDbEntity
  8
0
 62
     0
440
 16777216
100
AcDbTrace
 10
268.7408779263678
 20
289.1718506122028
 30
0.0
 11
269.5742112597012
 21
289.1718506122028
 31
0.0
 12
269.1575445930345
 22
286.6718506122028
 32
0.0
 13
269.1575445930345
 23
286.6718506122028
 33
0.0
  0
MTEXT
  5
292A
330
2859
100
AcDbEntity
  8
0
 62
     0
440
 16777216
100
AcDbMText
 10
267.2825445930345
 20
290.6718506122029
 30
0.0
 40
2.5
 41
0.0
 46
0.0
 71
     5
 72
     1
  1
8
 11
0.0000000000000001
 21
1.0
 31
0.0
 73
     1
 44
1.0
  0
POINT
  5
292B
330
2859
100
AcDbEntity
  8
Defpoints
 62
     0
440
 16777216
100
AcDbPoint
 10
262.6588371488961
 20
294.6718506122029
 30
0.0
  0
POINT
  5
292C
330
2859
100
AcDbEntity
  8
Defpoints
 62
     0
440
 16777216
100
AcDbPoint
 10
260.408837148896
 20
286.6718506122028
 30
0.0
  0
POINT
  5
292D
330
2859
100
AcDbEntity
  8
Defpoints
 62
     0
440
 16777216
100
AcDbPoint
 10
269.1575445930345
 20
286.6718506122028
 30
0.0
  0
ENDBLK
  5
2864
330
2859
100
AcDbEntity
  8
0
 62
     0
100
AcDbBlockEnd
  0
BLOCK
  5
2872
330
2868
100
AcDbEntity
  8
0
 62
     0
100
AcDbBlockBegin
  2
*D38
 70
     1
 10
0.0
 20
0.0
 30
0.0
  3
*D38
  1

  0
LINE
  5
2A4C
330
2868
100
AcDbEntity
  8
0
 62
     0
440
 16777216
370
    -2
100
AcDbLine
 10
391.9070014237866
 20
295.1475671162114
 30
0.0
 11
398.1007545897928
 21
295.1475671162114
 31
0.0
  0
LINE
  5
2A4D
330
2868
100
AcDbEntity
  8
0
 62
     0
440
 16777216
370
    -2
100
AcDbLine
 10
389.6570014237866
 20
285.1475671162114
 30
0.0
 11
398.1007545897928
 21
285.1475671162114
 31
0.0
  0
LINE
  5
2A4E
330
2868
100
AcDbEntity
  8
0
 62
     0
440
 16777216
370
    -2
100
AcDbLine
 10
396.8507545897928
 20
292.6475671162115
 30
0.0
 11
396.8507545897928
 21
287.6475671162115
 31
0.0
  0
SOLID
  5
2A4F
330
2868
100
AcDbEntity
  8
0
 62
     0
440
 16777216
100
AcDbTrace
 10
396.4340879231261
 20
292.6475671162115
 30
0.0
 11
397.2674212564595
 21
292.6475671162115
 31
0.0
 12
396.8507545897928
 22
295.1475671162114
 32
0.0
 13
396.8507545897928
 23
295.1475671162114
 33
0.0
  0
SOLID
  5
2A50
330
2868
100
AcDbEntity
  8
0
 62
     0
440
 16777216
100
AcDbTrace
 10
396.4340879231261
 20
287.6475671162115
 30
0.0
 11
397.2674212564595
 21
287.6475671162115
 31
0.0
 12
396.8507545897928
 22
285.1475671162114
 32
0.0
 13
396.8507545897928
 23
285.1475671162114
 33
0.0
  0
MTEXT
  5
2A51
330
2868
100
AcDbEntity
  8
0
 62
     0
440
 16777216
100
AcDbMText
 10
394.9757545897928
 20
290.1475671162115
 30
0.0
 40
2.5
 41
0.0
 46
0.0
 71
     5
 72
     1
  1
10
 11
0.0000000000000001
 21
1.0
 31
0.0
 73
     1
 44
1.0
  0
POINT
  5
2A52
330
2868
100
AcDbEntity
  8
Defpoints
 62
     0
440
 16777216
100
AcDbPoint
 10
391.2820014237866
 20
295.1475671162114
 30
0.0
  0
POINT
  5
2A53
330
2868
100
AcDbEntity
  8
Defpoints
 62
     0
440
 16777216
100
AcDbPoint
 10
389.0320014237866
 20
285.1475671162114
 30
0.0
  0
POINT
  5
2A54
330
2868
100
AcDbEntity
  8
Defpoints
 62
     0
440
 16777216
100
AcDbPoint
 10
396.8507545897928
 20
285.1475671162114
 30
0.0
  0
ENDBLK
  5
2873
330
2868
100
AcDbEntity
  8
0
 62
     0
100
AcDbBlockEnd
  0
BLOCK
  5
2881
330
2877
100
AcDbEntity
  8
0
 62
     0
100
AcDbBlockBegin
  2
*D39
 70
     1
 10
0.0
 20
0.0
 30
0.0
  3
*D39
  1

  0
LINE
  5
2A70
330
2877
100
AcDbEntity
  8
0
 62
     0
440
 16777216
370
    -2
100
AcDbLine
 10
402.8156399661908
 20
380.1475671162114
 30
0.0
 11
416.7452024333738
 21
380.1475671162114
 31
0.0
  0
LINE
  5
2A71
330
2877
100
AcDbEntity
  8
0
 62
     0
440
 16777216
370
    -2
100
AcDbLine
 10
407.6570014237865
 20
370.1475671162115
 30
0.0
 11
416.7452024333738
 21
370.1475671162115
 31
0.0
  0
LINE
  5
2A72
330
2877
100
AcDbEntity
  8
0
 62
     0
440
 16777216
370
    -2
100
AcDbLine
 10
415.4952024333738
 20
377.6475671162114
 30
0.0
 11
415.4952024333738
 21
372.6475671162115
 31
0.0
  0
SOLID
  5
2A73
330
2877
100
AcDbEntity
  8
0
 62
     0
440
 16777216
100
AcDbTrace
 10
415.0785357667071
 20
377.6475671162114
 30
0.0
 11
415.9118691000405
 21
377.6475671162114
 31
0.0
 12
415.4952024333738
 22
380.1475671162114
 32
0.0
 13
415.4952024333738
 23
380.1475671162114
 33
0.0
  0
SOLID
  5
2A74
330
2877
100
AcDbEntity
  8
0
 62
     0
440
 16777216
100
AcDbTrace
 10
415.0785357667071
 20
372.6475671162115
 30
0.0
 11
415.9118691000405
 21
372.6475671162115
 31
0.0
 12
415.4952024333738
 22
370.1475671162115
 32
0.0
 13
415.4952024333738
 23
370.1475671162115
 33
0.0
  0
MTEXT
  5
2A75
330
2877
100
AcDbEntity
  8
0
 62
     0
440
 16777216
100
AcDbMText
 10
413.6202024333737
 20
375.1475671162115
 30
0.0
 40
2.5
 41
0.6923680305866738
 46
0.0
 71
     5
 72
     1
  1
10
 11
0.0000000000000001
 21
1.0
 31
0.0
 73
     1
 44
1.0
  0
POINT
  5
2A76
330
2877
100
AcDbEntity
  8
Defpoints
 62
     0
440
 16777216
100
AcDbPoint
 10
402.1906399661908
 20
380.1475671162114
 30
0.0
  0
POINT
  5
2A77
330
2877
100
AcDbEntity
  8
Defpoints
 62
     0
440
 16777216
100
AcDbPoint
 10
407.0320014237865
 20
370.1475671162115
 30
0.0
  0
POINT
  5
2A78
330
2877
100
AcDbEntity
  8
Defpoints
 62
     0
440
 16777216
100
AcDbPoint
 10
415.4952024333738
 20
370.1475671162115
 30
0.0
  0
ENDBLK
  5
2882
330
2877
100
AcDbEntity
  8
0
 62
     0
100
AcDbBlockEnd
  0
ENDSEC
  0
SECTION
  2
ENTITIES
  0
ARC
  5
69C
330
1F
100
AcDbEntity
  8
0
100
AcDbCircle
 10
389.0320014237865
 20
288.1475671162113
 30
0.0
 40
1.5
100
AcDbArc
 50
270.0
 51
0.0
  0
ARC
  5
69D
330
1F
100
AcDbEntity
  8
0
100
AcDbCircle
 10
365.0320014237864
 20
288.1475671162115
 30
0.0
 40
1.5
100
AcDbArc
 50
180.0
 51
270.0
  0
ARC
  5
69E
330
1F
100
AcDbEntity
  8
0
100
AcDbCircle
 10
380.0320014237863
 20
377.1475671162114
 30
0.0
 40
1.5
100
AcDbArc
 50
90.0
 51
180.0
  0
ARC
  5
69F
330
1F
100
AcDbEntity
  8
0
100
AcDbCircle
 10
389.0320014237864
 20
288.1475671162113
 30
0.0
 40
3.0
100
AcDbArc
 50
270.0
 51
0.0
  0
LINE
  5
6A0
330
1F
100
AcDbEntity
  8
0
100
AcDbLine
 10
365.0320014237864
 20
285.1475671162114
 30
0.0
 11
389.0320014237864
 21
285.1475671162114
 31
0.0
  0
ARC
  5
6A1
330
1F
100
AcDbEntity
  8
0
100
AcDbCircle
 10
365.0320014237864
 20
288.1475671162113
 30
0.0
 40
3.0
100
AcDbArc
 50
180.0
 51
270.0
  0
ARC
  5
6A2
330
1F
100
AcDbEntity
  8
0
100
AcDbCircle
 10
380.0320014237865
 20
377.1475671162114
 30
0.0
 40
3.0
100
AcDbArc
 50
90.0
 51
180.0
  0
ARC
  5
6A3
330
1F
100
AcDbEntity
  8
0
100
AcDbCircle
 10
404.0320014237861
 20
377.1475671162114
 30
0.0
 40
3.0
100
AcDbArc
 50
0.0
 51
90.0
  0
ARC
  5
6A4
330
1F
100
AcDbEntity
  8
0
100
AcDbCircle
 10
404.0320014237861
 20
377.1475671162114
 30
0.0
 40
1.5
100
AcDbArc
 50
0.0
 51
90.0
  0
LINE
  5
6A5
330
1F
100
AcDbEntity
  8
0
100
AcDbLine
 10
390.5320014237864
 20
295.1475671162114
 30
0.0
 11
392.0320014237864
 21
295.1475671162114
 31
0.0
  0
LINE
  5
6A6
330
1F
100
AcDbEntity
  8
0
100
AcDbLine
 10
390.5320014237865
 20
288.1475671162113
 30
0.0
 11
390.5320014237864
 21
295.1475671162114
 31
0.0
  0
LINE
  5
6A7
330
1F
100
AcDbEntity
  8
0
100
AcDbLine
 10
365.0320014237864
 20
286.6475671162115
 30
0.0
 11
389.0320014237865
 21
286.6475671162113
 31
0.0
  0
LINE
  5
6A8
330
1F
100
AcDbEntity
  8
0
100
AcDbLine
 10
378.5320014237862
 20
377.1475671162114
 30
0.0
 11
378.5320014237865
 21
342.5358006527123
 31
0.0
  0
LINE
  5
6A9
330
1F
100
AcDbEntity
  8
0
100
AcDbLine
 10
404.0320014237861
 20
378.6475671162114
 30
0.0
 11
380.0320014237863
 21
378.6475671162114
 31
0.0
  0
LINE
  5
6AA
330
1F
100
AcDbEntity
  8
0
100
AcDbLine
 10
405.5320014237863
 20
370.1475671162114
 30
0.0
 11
405.5320014237865
 21
377.1475671162114
 31
0.0
  0
LINE
  5
6AB
330
1F
100
AcDbEntity
  8
0
100
AcDbLine
 10
407.0320014237863
 20
370.1475671162114
 30
0.0
 11
405.5320014237863
 21
370.1475671162114
 31
0.0
  0
LINE
  5
6AC
330
1F
100
AcDbEntity
  8
0
100
AcDbLine
 10
392.0320014237864
 20
288.1475671162113
 30
0.0
 11
392.0320014237864
 21
295.1475671162114
 31
0.0
  0
LINE
  5
6AE
102
{ACAD_REACTORS
330
6BF
102
}
330
1F
100
AcDbEntity
  8
0
100
AcDbLine
 10
404.0320014237861
 20
380.1475671162113
 30
0.0
 11
380.0320014237865
 21
380.1475671162113
 31
0.0
  0
LINE
  5
6AF
330
1F
100
AcDbEntity
  8
0
100
AcDbLine
 10
407.0320014237863
 20
370.1475671162114
 30
0.0
 11
407.0320014237863
 21
377.1475671162114
 31
0.0
  0
DIMENSION
  5
6B9
330
1F
100
AcDbEntity
  8
0
100
AcDbDimension
280
     0
  2
*D14
 10
377.0320014237865
 20
386.6041375343037
 30
0.0
 11
369.5320014237864
 21
388.4791375343037
 31
0.0
 70
    32
 71
     5
 42
15.00000000000011
 73
     0
 74
     0
 75
     0
  3
ISO-25
100
AcDbAlignedDimension
 13
362.0320014237864
 23
351.1475671162113
 33
0.0
 14
377.0320014237865
 24
377.7725671162114
 34
0.0
100
AcDbRotatedDimension
  0
DIMENSION
  5
6BD
102
{ACAD_XDICTIONARY
360
6BE
102
}
102
{ACAD_REACTORS
330
6BF
102
}
330
1F
100
AcDbEntity
  8
0
100
AcDbDimension
280
     0
  2
*D16
 10
355.4474551740955
 20
355.4794122244601
 30
0.0
 11
353.5724551740955
 21
367.8134896703359
 31
0.0
 70
    32
  1
26
 71
     5
 42
24.66815489175116
 73
     0
 74
     0
 75
     0
  3
ISO-25
100
AcDbAlignedDimension
 13
380.0320014237865
 23
380.1475671162113
 33
0.0
 14
364.8104886937382
 24
355.4794122244601
 34
0.0
 50
90.0
100
AcDbRotatedDimension
  0
DIMENSION
  5
6C0
330
1F
100
AcDbEntity
  8
0
100
AcDbDimension
280
     0
  2
*D15
 10
415.4952024333738
 20
295.1475671162114
 30
0.0
 11
415.4952024333737
 21
332.6644411357677
 31
0.0
 70
   160
  1
T+1
 71
     5
 42
75.00000000000006
 73
     0
 74
     0
 75
     0
  3
ISO-25
100
AcDbAlignedDimension
 13
407.0320014237863
 23
370.1475671162114
 33
0.0
 14
392.0320014237864
 24
295.1475671162114
 34
0.0
 50
90.0
100
AcDbRotatedDimension
  0
LINE
  5
6C1
330
1F
100
AcDbEntity
  8
0
100
AcDbLine
 10
362.0270892020492
 20
350.9003967719003
 30
0.0
 11
362.0320014237864
 21
288.1475671162113
 31
0.0
  0
LINE
  5
6C2
330
1F
100
AcDbEntity
  8
0
100
AcDbLine
 10
363.5270892020492
 20
350.8971673392797
 30
0.0
 11
363.5320014237864
 21
288.1475671162115
 31
0.0
  0
LINE
  5
6C3
330
1F
100
AcDbEntity
  8
0
100
AcDbLine
 10
367.2320014237864
 20
339.0003967719005
 30
0.0
 11
375.5320014237865
 21
339.0003967719004
 31
0.0
  0
LINE
  5
6C4
330
1F
100
AcDbEntity
  8
0
100
AcDbLine
 10
378.5320014237864
 20
342.0003967719003
 30
0.0
 11
378.5320014237865
 21
353.3975671162115
 31
0.0
  0
LINE
  5
6C5
330
1F
100
AcDbEntity
  8
0
100
AcDbLine
 10
377.0320014237865
 20
377.1475671162114
 30
0.0
 11
377.0320014237865
 21
342.0003967719003
 31
0.0
  0
ARC
  5
6C6
330
1F
100
AcDbEntity
  8
0
100
AcDbCircle
 10
375.5320014237865
 20
342.0003967719003
 30
0.0
 40
3.0
100
AcDbArc
 50
270.0
 51
0.0
  0
ARC
  5
6C7
330
1F
100
AcDbEntity
  8
0
100
AcDbCircle
 10
375.5320014237865
 20
342.0003967719003
 30
0.0
 40
1.5
100
AcDbArc
 50
270.0
 51
0.0
  0
ARC
  5
6C8
330
1F
100
AcDbEntity
  8
0
100
AcDbCircle
 10
367.2320014237864
 20
342.0003967719005
 30
0.0
 40
3.0
100
AcDbArc
 50
180.0
 51
270.0
  0
ARC
  5
6C9
330
1F
100
AcDbEntity
  8
0
100
AcDbCircle
 10
367.2320014237864
 20
342.0003967719005
 30
0.0
 40
1.5
100
AcDbArc
 50
180.0
 51
270.0
  0
ARC
  5
6CA
330
1F
100
AcDbEntity
  8
0
100
AcDbCircle
 10
364.5270892020492
 20
350.9003967719003
 30
0.0
 40
2.500000000000028
100
AcDbArc
 50
354.5473780121889
 51
180.0
  0
ARC
  5
6CB
330
1F
100
AcDbEntity
  8
0
100
AcDbCircle
 10
364.5270892020492
 20
350.9003967719003
 30
0.0
 40
1.000005214603969
100
AcDbArc
 50
354.5411109718325
 51
180.1850322161362
  0
LINE
  5
6CC
330
1F
100
AcDbEntity
  8
0
100
AcDbLine
 10
365.5225591065496
 20
350.8052647664073
 30
0.0
 11
364.2320014237864
 21
342.0003967719005
 31
0.0
  0
LINE
  5
6CD
330
1F
100
AcDbEntity
  8
0
100
AcDbLine
 10
365.7320014237864
 20
342.0003967719005
 30
0.0
 11
367.0157769848547
 21
350.6628402108145
 31
0.0
  0
LINE
  5
6CE
330
1F
100
AcDbEntity
  8
0
100
AcDbLine
 10
375.5320014237865
 20
340.5003967719003
 30
0.0
 11
367.2320014237864
 21
340.5003967719005
 31
0.0
  0
LINE
  5
6CF
330
1F
100
AcDbEntity
  8
0
100
AcDbLine
 10
377.0320014237865
 20
375.6687966523058
 30
0.0
 11
378.5321538273091
 21
377.1689490558284
 31
0.0
  0
LINE
  5
6D0
330
1F
100
AcDbEntity
  8
0
100
AcDbLine
 10
380.0106194841692
 20
378.6474147126885
 30
0.0
 11
381.510771887692
 21
380.1475671162113
 31
0.0
  0
LINE
  5
6D1
330
1F
100
AcDbEntity
  8
0
100
AcDbLine
 10
377.0320014237865
 20
371.1786685917713
 30
0.0
 11
378.5320014237862
 21
372.678668591771
 31
0.0
  0
LINE
  5
6D2
330
1F
100
AcDbEntity
  8
0
100
AcDbLine
 10
384.5008999482267
 20
378.6475671162114
 30
0.0
 11
386.0008999482267
 21
380.1475671162113
 31
0.0
  0
LINE
  5
6D3
330
1F
100
AcDbEntity
  8
0
100
AcDbLine
 10
362.2296551141789
 20
351.886194221629
 30
0.0
 11
363.5412917523207
 21
353.1978308597707
 31
0.0
  0
LINE
  5
6D4
330
1F
100
AcDbEntity
  8
0
100
AcDbLine
 10
388.9910280087613
 20
378.6475671162115
 30
0.0
 11
390.4910280087612
 21
380.1475671162113
 31
0.0
  0
LINE
  5
6D5
330
1F
100
AcDbEntity
  8
0
100
AcDbLine
 10
377.0320014237865
 20
366.6885405312366
 30
0.0
 11
378.5320014237864
 21
368.1885405312365
 31
0.0
  0
LINE
  5
6D6
330
1F
100
AcDbEntity
  8
0
100
AcDbLine
 10
362.0273793510751
 20
347.1937903979907
 30
0.0
 11
363.5272616980333
 21
348.6936727449489
 31
0.0
  0
LINE
  5
6D7
330
1F
100
AcDbEntity
  8
0
100
AcDbLine
 10
393.4811560692958
 20
378.6475671162114
 30
0.0
 11
394.9811560692957
 21
380.1475671162113
 31
0.0
  0
LINE
  5
6D8
330
1F
100
AcDbEntity
  8
0
100
AcDbLine
 10
365.5060921550125
 20
350.6725032019282
 30
0.0
 11
366.7921180952443
 21
351.9585291421599
 31
0.0
  0
LINE
  5
6D9
330
1F
100
AcDbEntity
  8
0
100
AcDbLine
 10
377.0320014237865
 20
362.1984124707021
 30
0.0
 11
378.5320014237864
 21
363.6984124707019
 31
0.0
  0
LINE
  5
6DA
330
1F
100
AcDbEntity
  8
0
100
AcDbLine
 10
362.0277308057962
 20
342.7040137921772
 30
0.0
 11
363.5276131708406
 21
344.2038961572216
 31
0.0
  0
LINE
  5
6DB
330
1F
100
AcDbEntity
  8
0
100
AcDbLine
 10
397.9712841298304
 20
378.6475671162114
 30
0.0
 11
399.4712841298302
 21
380.1475671162113
 31
0.0
  0
LINE
  5
6DC
330
1F
100
AcDbEntity
  8
0
100
AcDbLine
 10
364.8703041395829
 20
345.5465871259639
 30
0.0
 11
366.5910129640931
 21
347.2672959504742
 31
0.0
  0
LINE
  5
6DD
330
1F
100
AcDbEntity
  8
0
100
AcDbLine
 10
377.0320014237865
 20
357.7082844101675
 30
0.0
 11
378.5320014237864
 21
359.2082844101674
 31
0.0
  0
LINE
  5
6DE
330
1F
100
AcDbEntity
  8
0
100
AcDbLine
 10
362.0280822605171
 20
338.2142371863636
 30
0.0
 11
363.5279646436479
 21
339.7141195694944
 31
0.0
  0
LINE
  5
6DF
330
1F
100
AcDbEntity
  8
0
100
AcDbLine
 10
402.4614121903648
 20
378.6475671162114
 30
0.0
 11
403.961412190365
 21
380.1475671162113
 31
0.0
  0
LINE
  5
6E0
330
1F
100
AcDbEntity
  8
0
100
AcDbLine
 10
364.5237493721995
 20
340.7099042980459
 30
0.0
 11
365.7341416320449
 21
341.9202965578914
 31
0.0
  0
LINE
  5
6E1
330
1F
100
AcDbEntity
  8
0
100
AcDbLine
 10
377.0320014237866
 20
353.218156349633
 30
0.0
 11
378.5320014237864
 21
354.7181563496327
 31
0.0
  0
LINE
  5
6E2
330
1F
100
AcDbEntity
  8
0
100
AcDbLine
 10
362.0284337152382
 20
333.7244605805499
 30
0.0
 11
363.5283161164553
 21
335.2243429817671
 31
0.0
  0
LINE
  5
6E3
330
1F
100
AcDbEntity
  8
0
100
AcDbLine
 10
405.5299506262107
 20
377.2259774915225
 30
0.0
 11
406.7408274597474
 21
378.4368543250594
 31
0.0
  0
LINE
  5
6E4
330
1F
100
AcDbEntity
  8
0
100
AcDbLine
 10
365.9787051393433
 20
339.2747320046553
 30
0.0
 11
367.2046198443752
 21
340.5006467096872
 31
0.0
  0
LINE
  5
6E5
330
1F
100
AcDbEntity
  8
0
100
AcDbLine
 10
362.0287851699591
 20
329.2346839747363
 30
0.0
 11
363.5286675892626
 21
330.7345663940399
 31
0.0
  0
LINE
  5
6E6
330
1F
100
AcDbEntity
  8
0
100
AcDbLine
 10
405.5320014237863
 20
372.7379002285636
 30
0.0
 11
407.0320014237863
 21
374.2379002285636
 31
0.0
  0
LINE
  5
6E7
330
1F
100
AcDbEntity
  8
0
100
AcDbLine
 10
370.1944979671231
 20
339.0003967719004
 30
0.0
 11
371.694497967123
 21
340.5003967719003
 31
0.0
  0
LINE
  5
6E8
330
1F
100
AcDbEntity
  8
0
100
AcDbLine
 10
362.0291366246801
 20
324.7449073689228
 30
0.0
 11
363.52901906207
 21
326.2447898063127
 31
0.0
  0
LINE
  5
6E9
330
1F
100
AcDbEntity
  8
0
100
AcDbLine
 10
374.6846260276577
 20
339.0003967719004
 30
0.0
 11
378.5320014237865
 21
342.8477721680291
 31
0.0
  0
LINE
  5
6EA
330
1F
100
AcDbEntity
  8
0
100
AcDbLine
 10
362.029488079401
 20
320.2551307631093
 30
0.0
 11
363.5293705348772
 21
321.7550132185853
 31
0.0
  0
LINE
  5
6EB
330
1F
100
AcDbEntity
  8
0
100
AcDbLine
 10
362.0298395341218
 20
315.7653541572955
 30
0.0
 11
363.5297220076846
 21
317.2652366308582
 31
0.0
  0
LINE
  5
6EC
330
1F
100
AcDbEntity
  8
0
100
AcDbLine
 10
362.0301909888432
 20
311.275577551482
 30
0.0
 11
363.530073480492
 21
312.7754600431309
 31
0.0
  0
LINE
  5
6ED
330
1F
100
AcDbEntity
  8
0
100
AcDbLine
 10
362.030542443564
 20
306.7858009456684
 30
0.0
 11
363.5304249532992
 21
308.2856834554036
 31
0.0
  0
LINE
  5
6EE
330
1F
100
AcDbEntity
  8
0
100
AcDbLine
 10
362.0308938982851
 20
302.2960243398549
 30
0.0
 11
363.5307764261065
 21
303.7959068676764
 31
0.0
  0
LINE
  5
6EF
330
1F
100
AcDbEntity
  8
0
100
AcDbLine
 10
362.0312453530061
 20
297.8062477340413
 30
0.0
 11
363.5311278989139
 21
299.3061302799493
 31
0.0
  0
LINE
  5
6F0
330
1F
100
AcDbEntity
  8
0
100
AcDbLine
 10
362.031596807727
 20
293.3164711282276
 30
0.0
 11
363.5314793717213
 21
294.8163536922218
 31
0.0
  0
LINE
  5
6F1
330
1F
100
AcDbEntity
  8
0
100
AcDbLine
 10
362.0319482624479
 20
288.8266945224141
 30
0.0
 11
363.5318308445286
 21
290.3265771044947
 31
0.0
  0
LINE
  5
6F2
330
1F
100
AcDbEntity
  8
0
100
AcDbLine
 10
363.3552669576151
 20
285.6598851570467
 30
0.0
 11
364.4573777052818
 21
286.7619959047133
 31
0.0
  0
LINE
  5
6F3
330
1F
100
AcDbEntity
  8
0
100
AcDbLine
 10
367.3330769773144
 20
285.1475671162114
 30
0.0
 11
368.8330769773145
 21
286.6475671162115
 31
0.0
  0
LINE
  5
6F4
330
1F
100
AcDbEntity
  8
0
100
AcDbLine
 10
371.823205037849
 20
285.1475671162114
 30
0.0
 11
373.3232050378491
 21
286.6475671162115
 31
0.0
  0
LINE
  5
6F5
330
1F
100
AcDbEntity
  8
0
100
AcDbLine
 10
376.3133330983835
 20
285.1475671162114
 30
0.0
 11
377.8133330983836
 21
286.6475671162115
 31
0.0
  0
LINE
  5
6F6
330
1F
100
AcDbEntity
  8
0
100
AcDbLine
 10
380.803461158918
 20
285.1475671162112
 30
0.0
 11
382.3034611589181
 21
286.6475671162113
 31
0.0
  0
LINE
  5
6F7
330
1F
100
AcDbEntity
  8
0
100
AcDbLine
 10
385.2935892194528
 20
285.1475671162114
 30
0.0
 11
386.7935892194528
 21
286.6475671162113
 31
0.0
  0
LINE
  5
6F8
330
1F
100
AcDbEntity
  8
0
100
AcDbLine
 10
390.5320014237865
 20
290.3859793205451
 30
0.0
 11
392.0320014237865
 21
291.885979320545
 31
0.0
  0
LINE
  5
6F9
330
1F
100
AcDbEntity
  8
0
100
AcDbLine
 10
389.9173256404047
 20
285.2811754766287
 30
0.0
 11
391.898393063369
 21
287.2622428995929
 31
0.0
  0
LINE
  5
6FB
330
1F
100
AcDbEntity
  8
0
100
AcDbLine
 10
377.0320014237866
 20
345.525928713247
 30
0.0
 11
378.5320014237865
 21
347.0259287132468
 31
0.0
  0
LINE
  5
6FC
330
1F
100
AcDbEntity
  8
0
100
AcDbLine
 10
377.0320014237866
 20
350.0160567737816
 30
0.0
 11
378.5320014237865
 21
351.5160567737814
 31
0.0
  0
SPLINE
  5
222C
330
1F
100
AcDbEntity
  8
Hladina1
100
AcDbSpline
210
0.0
220
0.0
230
1.0
 70
  1064
 71
     3
 72
    10
 73
     6
 74
     4
 42
0.000000001
 43
0.0000000001
 44
0.0000000001
 40
0.0
 40
0.0
 40
0.0
 40
0.0
 40
3.225450419445191
 40
6.527090493113448
 40
7.920027442241929
 40
7.920027442241929
 40
7.920027442241929
 40
7.920027442241929
 10
366.8087733417171
 20
353.6895344350191
 30
0.0
 10
367.865191893717
 20
353.3197032006117
 30
0.0
 10
370.0029830827978
 20
352.5713048003126
 30
0.0
 10
372.5873455245373
 20
354.1469608805692
 30
0.0
 10
374.0978383149791
 20
353.5994338482061
 30
0.0
 10
374.5460195268287
 20
353.4369760526855
 30
0.0
 11
366.8087733417171
 21
353.6895344350191
 31
0.0
 11
369.9760866046002
 21
353.0798975733841
 31
0.0
 11
373.1995934840419
 21
353.7939217846292
 31
0.0
 11
374.5460195268287
 21
353.4369760526855
 31
0.0
  0
SPLINE
  5
222D
330
1F
100
AcDbEntity
  8
Hladina1
100
AcDbSpline
210
0.0
220
0.0
230
1.0
 70
  1064
 71
     3
 72
    10
 73
     6
 74
     4
 42
0.000000001
 43
0.0000000001
 44
0.0000000001
 40
0.0
 40
0.0
 40
0.0
 40
0.0
 40
4.119626230339908
 40
7.183793575730579
 40
8.991701210957639
 40
8.991701210957639
 40
8.991701210957639
 40
8.991701210957639
 10
366.2132614059714
 20
354.8141584106833
 30
0.0
 10
367.5445562829689
 20
354.2429143631181
 30
0.0
 10
369.8660648495332
 20
353.246780469016
 30
0.0
 10
372.8217196039874
 20
354.8812422703611
 30
0.0
 10
374.3744971606944
 20
354.2363063230945
 30
0.0
 10
374.9506948612118
 20
353.9969863972036
 30
0.0
 11
366.2132614059714
 21
354.8141584106833
 31
0.0
 11
370.2202577053407
 21
353.8574447991226
 31
0.0
 11
373.2153934047925
 21
354.5041933301821
 31
0.0
 11
374.9506948612118
 21
353.9969863972036
 31
0.0
  0
SPLINE
  5
222E
330
1F
100
AcDbEntity
  8
Hladina1
100
AcDbSpline
210
0.0
220
0.0
230
1.0
 70
  1064
 71
     3
 72
    10
 73
     6
 74
     4
 42
0.000000001
 43
0.0000000001
 44
0.0000000001
 40
0.0
 40
0.0
 40
0.0
 40
0.0
 40
1.120719595214294
 40
2.660177466131726
 40
4.2580683105369
 40
4.2580683105369
 40
4.2580683105369
 40
4.2580683105369
 10
370.3974667710359
 20
354.972350713968
 30
0.0
 10
370.0346850222097
 20
355.0631763272233
 30
0.0
 10
369.1735741453478
 20
355.2787630366566
 30
0.0
 10
367.7271898457505
 20
355.2823223260283
 30
0.0
 10
366.7241315240498
 20
354.9721387672365
 30
0.0
 10
366.2132614059714
 20
354.8141584106833
 30
0.0
 11
370.3974667710359
 21
354.972350713968
 31
0.0
 11
369.3015781332823
 21
355.2069578424615
 31
0.0
 11
367.7621202623649
 21
355.2069578424615
 31
0.0
 11
366.2132614059714
 21
354.8141584106833
 31
0.0
  0
SPLINE
  5
222F
330
1F
100
AcDbEntity
  8
Hladina1
100
AcDbSpline
210
0.0
220
0.0
230
1.0
 70
  1064
 71
     3
 72
    10
 73
     6
 74
     4
 42
0.000000001
 43
0.0000000001
 44
0.0000000001
 40
0.0
 40
0.0
 40
0.0
 40
0.0
 40
2.065613498496919
 40
4.420060440849947
 40
5.721999227125142
 40
5.721999227125142
 40
5.721999227125142
 40
5.721999227125142
 10
373.7830483536336
 20
344.9889040963743
 30
0.0
 10
373.132982664519
 20
345.5308090791245
 30
0.0
 10
371.7419530074701
 20
346.6903932795071
 30
0.0
 10
370.4635510704263
 20
343.854910228013
 30
0.0
 10
369.3000927802047
 20
344.6381634869805
 30
0.0
 10
368.8858171575883
 20
344.9170585142042
 30
0.0
 11
373.7830483536336
 21
344.9889040963743
 31
0.0
 11
371.9209746186948
 21
345.8830184798978
 31
0.0
 11
370.0847053493262
 21
344.4094053777819
 31
0.0
 11
368.8858171575883
 21
344.9170585142042
 31
0.0
  0
SPLINE
  5
2230
330
1F
100
AcDbEntity
  8
Hladina1
100
AcDbSpline
210
0.0
220
0.0
230
1.0
 70
  1064
 71
     3
 72
    10
 73
     6
 74
     4
 42
0.000000001
 43
0.0000000001
 44
0.0000000001
 40
0.0
 40
0.0
 40
0.0
 40
0.0
 40
2.065613498496845
 40
4.42006044084982
 40
5.721999227125215
 40
5.721999227125215
 40
5.721999227125215
 40
5.721999227125215
 10
373.7830483536335
 20
346.2040017407347
 30
0.0
 10
373.1329826645188
 20
346.7459067234849
 30
0.0
 10
371.7419530074701
 20
347.9054909238674
 30
0.0
 10
370.4635510704261
 20
345.0700078723731
 30
0.0
 10
369.3000927802045
 20
345.8532611313408
 30
0.0
 10
368.8858171575881
 20
346.1321561585645
 30
0.0
 11
373.7830483536335
 21
346.2040017407347
 31
0.0
 11
371.9209746186947
 21
347.0981161242581
 31
0.0
 11
370.0847053493261
 21
345.6245030221422
 31
0.0
 11
368.8858171575881
 21
346.1321561585645
 31
0.0
  0
ARC
  5
2231
330
1F
100
AcDbEntity
  8
Hladina1
100
AcDbCircle
 10
376.5759534542743
 20
354.3147375059057
 30
0.0
 40
0.4131931418174576
100
AcDbArc
 50
284.7677215457394
 51
66.42641504028059
  0
LINE
  5
2232
330
1F
100
AcDbEntity
  8
Hladina1
100
AcDbLine
 10
364.5270892020492
 20
353.4003967719003
 30
0.0
 11
364.5261779209669
 21
353.6657538052606
 31
0.0
  0
ARC
  5
2233
330
1F
100
AcDbEntity
  8
Hladina1
100
AcDbCircle
 10
371.1562763671799
 20
348.4893447615018
 30
0.0
 40
3.190805834280606
100
AcDbArc
 50
34.59039642798787
 51
153.6928126297244
  0
ARC
  5
2234
330
1F
100
AcDbEntity
  8
Hladina1
100
AcDbCircle
 10
370.9491840041168
 20
348.7588462650577
 30
0.0
 40
3.804399409392086
100
AcDbArc
 50
51.2737814261168
 51
135.0754906527615
  0
ARC
  5
2235
330
1F
100
AcDbEntity
  8
Hladina1
100
AcDbCircle
 10
380.6697186628089
 20
347.7918816951354
 30
0.0
 40
8.328672247942597
100
AcDbArc
 50
137.3287800702322
 51
151.8060547099692
  0
ARC
  5
2236
330
1F
100
AcDbEntity
  8
Hladina1
100
AcDbCircle
 10
364.7545734838204
 20
350.7768105962974
 30
0.0
 40
3.564224630525078
100
AcDbArc
 50
10.81205261772924
 51
98.80110383358513
  0
SPLINE
  5
2237
330
1F
100
AcDbEntity
  8
Hladina1
100
AcDbSpline
210
0.0
220
0.0
230
1.0
 70
  1064
 71
     3
 72
    12
 73
     8
 74
     6
 42
0.000000001
 43
0.0000000001
 44
0.0000000001
 40
0.0
 40
0.0
 40
0.0
 40
0.0
 40
0.54870240450631
 40
0.9598156116509121
 40
1.240717391112147
 40
1.514184820930682
 40
1.563476079408018
 40
1.563476079408018
 40
1.563476079408018
 40
1.563476079408018
 10
376.240206360713
 20
346.9145247057476
 30
0.0
 10
376.2578532107959
 20
347.1216815612784
 30
0.0
 10
376.2887218967483
 20
347.4840499095232
 30
0.0
 10
376.8408161703547
 20
347.5411750469664
 30
0.0
 10
377.0109689644511
 20
347.2204580721181
 30
0.0
 10
376.9930888559823
 20
347.0166122539779
 30
0.0
 10
376.9696180100208
 20
346.9116675522108
 30
0.0
 10
376.9660335750328
 20
346.8956405431535
 30
0.0
 11
376.240206360713
 21
346.9145247057476
 31
0.0
 11
376.4226396463838
 21
347.432011348078
 31
0.0
 11
376.8331210653392
 21
347.4547945388355
 31
0.0
 11
376.9829788431963
 21
347.2172057004609
 31
0.0
 11
376.9764624363943
 21
346.9438159208166
 31
0.0
 11
376.9660335750328
 21
346.8956405431535
 31
0.0
  0
SPLINE
  5
2238
330
1F
100
AcDbEntity
  8
Hladina1
100
AcDbSpline
210
0.0
220
0.0
230
1.0
 70
     8
 71
     3
 72
    13
 73
     9
 74
     0
 42
0.000000001
 43
0.0000000001
 40
0.6661205545958559
 40
0.6661205545958559
 40
0.6661205545958559
 40
0.6661205545958559
 40
0.9878869891143956
 40
1.419794567472439
 40
1.9102422773456
 40
2.418829439147268
 40
3.096989347819317
 40
3.875274942031108
 40
3.875274942031108
 40
3.875274942031108
 40
3.875274942031108
 10
374.7830483536347
 20
345.0359570311714
 30
0.0
 10
374.8868158378335
 20
345.0631504709437
 30
0.0
 10
375.143762803257
 20
345.0981251008578
 30
0.0
 10
375.5420433322533
 20
345.1877418547756
 30
0.0
 10
376.0291801830395
 20
345.2554840048098
 30
0.0
 10
376.4643556187315
 20
345.6250710634229
 30
0.0
 10
376.9255700757846
 20
346.1259418829014
 30
0.0
 10
376.9519414282877
 20
346.6275790390481
 30
0.0
 10
376.9660335750328
 20
346.8956405431535
 30
0.0
  0
SPLINE
  5
2239
330
1F
100
AcDbEntity
  8
Hladina1
100
AcDbSpline
210
0.0
220
0.0
230
1.0
 70
  1064
 71
     3
 72
    10
 73
     6
 74
     4
 42
0.000000001
 43
0.0000000001
 44
0.0000000001
 40
0.0
 40
0.0
 40
0.0
 40
0.0
 40
0.8755136827640027
 40
1.521916528778659
 40
1.994752976798467
 40
1.994752976798467
 40
1.994752976798467
 40
1.994752976798467
 10
376.240206360713
 20
346.9145247057476
 30
0.0
 10
376.1537829909263
 20
346.6102422592485
 30
0.0
 10
376.0035521521164
 20
346.0813042267986
 30
0.0
 10
375.304747719953
 20
345.8910820163511
 30
0.0
 10
374.9422858632285
 20
345.8282107988749
 30
0.0
 10
374.7891593800986
 20
345.8016500773986
 30
0.0
 11
376.240206360713
 21
346.9145247057476
 31
0.0
 11
375.8542112295097
 21
346.1286926833699
 31
0.0
 11
375.2538272934513
 21
345.8891602875255
 31
0.0
 11
374.7891593800986
 21
345.8016500773986
 31
0.0
  0
SPLINE
  5
223A
330
1F
100
AcDbEntity
  8
Hladina1
100
AcDbSpline
210
0.0
220
0.0
230
1.0
 70
  1064
 71
     3
 72
    10
 73
     6
 74
     4
 42
0.000000001
 43
0.0000000001
 44
0.0000000001
 40
0.0
 40
0.0
 40
0.0
 40
0.0
 40
0.8755136827640027
 40
1.521916528778659
 40
1.994752976798509
 40
1.994752976798509
 40
1.994752976798509
 40
1.994752976798509
 10
376.240206360713
 20
350.3933768478066
 30
0.0
 10
376.1537829909263
 20
350.0890944013075
 30
0.0
 10
376.0035521521164
 20
349.5601563688575
 30
0.0
 10
375.304747719953
 20
349.3699341584103
 30
0.0
 10
374.9422858632285
 20
349.3070629409337
 30
0.0
 10
374.7891593800986
 20
349.2805022194574
 30
0.0
 11
376.240206360713
 21
350.3933768478066
 31
0.0
 11
375.8542112295097
 21
349.6075448254289
 31
0.0
 11
375.2538272934513
 21
349.3680124295845
 31
0.0
 11
374.7891593800986
 21
349.2805022194574
 31
0.0
  0
SPLINE
  5
223B
330
1F
100
AcDbEntity
  8
Hladina1
100
AcDbSpline
210
0.0
220
0.0
230
1.0
 70
     8
 71
     3
 72
    13
 73
     9
 74
     0
 42
0.000000001
 43
0.0000000001
 40
0.666120554595736
 40
0.666120554595736
 40
0.666120554595736
 40
0.666120554595736
 40
0.9878869891143956
 40
1.419794567472439
 40
1.9102422773456
 40
2.418829439147268
 40
3.096989347819317
 40
3.875274942031108
 40
3.875274942031108
 40
3.875274942031108
 40
3.875274942031108
 10
374.7830483536346
 20
348.5148091732301
 30
0.0
 10
374.8868158378334
 20
348.5420026130026
 30
0.0
 10
375.1437628032568
 20
348.5769772429168
 30
0.0
 10
375.5420433322533
 20
348.6665939968345
 30
0.0
 10
376.0291801830395
 20
348.7343361468688
 30
0.0
 10
376.4643556187315
 20
349.1039232054819
 30
0.0
 10
376.9255700757846
 20
349.6047940249602
 30
0.0
 10
376.9519414282877
 20
350.1064311811072
 30
0.0
 10
376.9660335750328
 20
350.3744926852125
 30
0.0
  0
SPLINE
  5
223C
330
1F
100
AcDbEntity
  8
Hladina1
100
AcDbSpline
210
0.0
220
0.0
230
1.0
 70
  1064
 71
     3
 72
    12
 73
     8
 74
     6
 42
0.000000001
 43
0.0000000001
 44
0.0000000001
 40
0.0
 40
0.0
 40
0.0
 40
0.0
 40
0.5487024045063637
 40
0.9598156116509596
 40
1.240717391112146
 40
1.514184820930795
 40
1.563476079408075
 40
1.563476079408075
 40
1.563476079408075
 40
1.563476079408075
 10
376.240206360713
 20
350.3933768478066
 30
0.0
 10
376.2578532107959
 20
350.6005337033374
 30
0.0
 10
376.2887218967482
 20
350.9629020515822
 30
0.0
 10
376.840816170355
 20
351.0200271890254
 30
0.0
 10
377.010968964451
 20
350.6993102141771
 30
0.0
 10
376.9930888559825
 20
350.4954643960366
 30
0.0
 10
376.9696180100207
 20
350.3905196942698
 30
0.0
 10
376.9660335750328
 20
350.3744926852125
 30
0.0
 11
376.240206360713
 21
350.3933768478066
 31
0.0
 11
376.4226396463838
 21
350.910863490137
 31
0.0
 11
376.8331210653392
 21
350.9336466808945
 31
0.0
 11
376.9829788431963
 21
350.6960578425199
 31
0.0
 11
376.9764624363943
 21
350.4226680628755
 31
0.0
 11
376.9660335750328
 21
350.3744926852125
 31
0.0
  0
SPLINE
  5
223D
330
1F
100
AcDbEntity
  8
Hladina1
100
AcDbSpline
210
0.0
220
0.0
230
1.0
 70
  1064
 71
     3
 72
    12
 73
     8
 74
     6
 42
0.000000001
 43
0.0000000001
 44
0.0000000001
 40
0.0
 40
0.0
 40
0.0
 40
0.0
 40
0.5487024045063448
 40
0.9598156116510068
 40
1.240717391112277
 40
1.514184820930809
 40
1.56347607940801
 40
1.56347607940801
 40
1.56347607940801
 40
1.56347607940801
 10
376.2340953342479
 20
343.9532291141432
 30
0.0
 10
376.2517421843308
 20
344.1603859696739
 30
0.0
 10
376.2826108702831
 20
344.5227543179188
 30
0.0
 10
376.8347051438899
 20
344.5798794553623
 30
0.0
 10
377.0048579379857
 20
344.2591624805136
 30
0.0
 10
376.9869778295175
 20
344.0553166623738
 30
0.0
 10
376.9635069835556
 20
343.9503719606065
 30
0.0
 10
376.9599225485678
 20
343.9343449515492
 30
0.0
 11
376.2340953342479
 21
343.9532291141432
 31
0.0
 11
376.4165286199187
 21
344.4707157564736
 31
0.0
 11
376.8270100388741
 21
344.4934989472312
 31
0.0
 11
376.9768678167312
 21
344.2559101088565
 31
0.0
 11
376.9703514099293
 21
343.9825203292122
 31
0.0
 11
376.9599225485678
 21
343.9343449515492
 31
0.0
  0
SPLINE
  5
223E
330
1F
100
AcDbEntity
  8
Hladina1
100
AcDbSpline
210
0.0
220
0.0
230
1.0
 70
  1064
 71
     3
 72
    14
 73
    10
 74
     8
 42
0.000000001
 43
0.0000000001
 44
0.0000000001
 40
0.0
 40
0.0
 40
0.0
 40
0.0
 40
0.4803130657248529
 40
0.9878869891144404
 40
1.419794567472376
 40
1.910242277345645
 40
2.418829439147312
 40
3.096989347819405
 40
3.875274942031206
 40
3.875274942031206
 40
3.875274942031206
 40
3.875274942031206
 10
374.2329497720825
 20
341.7082241537063
 30
0.0
 10
374.3487246373947
 20
341.8254415513294
 30
0.0
 10
374.5868453367259
 20
342.066529188275
 30
0.0
 10
375.0781692489925
 20
342.1234453976333
 30
0.0
 10
375.5359323057884
 20
342.2264462631713
 30
0.0
 10
376.0230691565744
 20
342.2941884132054
 30
0.0
 10
376.4582445922663
 20
342.6637754718186
 30
0.0
 10
376.9194590493194
 20
343.164646291297
 30
0.0
 10
376.9458304018226
 20
343.6662834474439
 30
0.0
 10
376.9599225485678
 20
343.9343449515492
 30
0.0
 11
374.2329497720825
 21
341.7082241537063
 31
0.0
 11
374.6047978478714
 21
342.0122466029401
 31
0.0
 11
375.097245026696
 21
342.135238731846
 31
0.0
 11
375.5212976704334
 21
342.2172357536357
 31
0.0
 11
375.9973999911355
 21
342.3349877656864
 31
0.0
 11
376.4088505502115
 21
342.6339348154887
 31
0.0
 11
376.8275615024442
 21
343.1673970917656
 31
0.0
 11
376.9599225485678
 21
343.9343449515492
 31
0.0
  0
SPLINE
  5
223F
330
1F
100
AcDbEntity
  8
Hladina1
100
AcDbSpline
210
0.0
220
0.0
230
1.0
 70
  1064
 71
     3
 72
    10
 73
     6
 74
     4
 42
0.000000001
 43
0.0000000001
 44
0.0000000001
 40
0.0
 40
0.0
 40
0.0
 40
0.0
 40
0.8755136827638747
 40
1.521916528778552
 40
1.994752976798381
 40
1.994752976798381
 40
1.994752976798381
 40
1.994752976798381
 10
376.2340953342479
 20
343.9532291141432
 30
0.0
 10
376.1476719644611
 20
343.6489466676442
 30
0.0
 10
375.9974411256513
 20
343.1200086351944
 30
0.0
 10
375.2986366934877
 20
342.9297864247467
 30
0.0
 10
374.9361748367634
 20
342.8669152072705
 30
0.0
 10
374.7830483536335
 20
342.8403544857942
 30
0.0
 11
376.2340953342479
 21
343.9532291141432
 31
0.0
 11
375.8481002030445
 21
343.1673970917656
 31
0.0
 11
375.2477162669862
 21
342.9278646959212
 31
0.0
 11
374.7830483536335
 21
342.8403544857942
 31
0.0
  0
SPLINE
  5
2240
330
1F
100
AcDbEntity
  8
Hladina1
100
AcDbSpline
210
0.0
220
0.0
230
1.0
 70
  1064
 71
     3
 72
    13
 73
     9
 74
     7
 42
0.000000001
 43
0.0000000001
 44
0.0000000001
 40
0.0
 40
0.0
 40
0.0
 40
0.0
 40
0.6429075011033003
 40
1.230188037594171
 40
1.649993712014276
 40
2.166399721602727
 40
2.616274431678549
 40
3.151093383854159
 40
3.151093383854159
 40
3.151093383854159
 40
3.151093383854159
 10
368.512708000577
 20
341.7564543576523
 30
0.0
 10
368.3059629375786
 20
341.8134699172652
 30
0.0
 10
367.9103612329852
 20
341.9225678190197
 30
0.0
 10
367.358936165909
 20
341.9794931174833
 30
0.0
 10
366.8773836542571
 20
342.1295925539207
 30
0.0
 10
366.4419455082505
 20
342.3524810051139
 30
0.0
 10
366.24621059589
 20
342.8360225807584
 30
0.0
 10
366.1636664201437
 20
343.151036769421
 30
0.0
 10
366.1188340105597
 20
343.3221311561927
 30
0.0
 11
368.512708000577
 21
341.7564543576523
 31
0.0
 11
367.8882326116296
 21
341.9092959212858
 31
0.0
 11
367.3091697582169
 21
342.0071970976754
 31
0.0
 11
366.9082818475227
 21
342.1317992137673
 31
0.0
 11
366.4717576430458
 21
342.4077009818749
 31
0.0
 11
366.2668579273137
 21
342.8082048660741
 31
0.0
 11
366.1188340105597
 21
343.3221311561927
 31
0.0
  0
SPLINE
  5
2241
330
1F
100
AcDbEntity
  8
Hladina1
100
AcDbSpline
210
0.0
220
0.0
230
1.0
 70
  1064
 71
     3
 72
    13
 73
     9
 74
     7
 42
0.000000001
 43
0.0000000001
 44
0.0000000001
 40
0.0
 40
0.0
 40
0.0
 40
0.0
 40
0.2246032353050658
 40
0.4343617040304629
 40
1.142630725824583
 40
2.029735772770147
 40
2.370946938459498
 40
2.889170422928213
 40
2.889170422928213
 40
2.889170422928213
 40
2.889170422928213
 10
367.8130688556757
 20
342.8138611765747
 30
0.0
 10
367.7887901491764
 20
342.7311134669579
 30
0.0
 10
367.7418373957473
 20
342.5710871160243
 30
0.0
 10
367.3026358007475
 20
342.6386377266849
 30
0.0
 10
366.764522303759
 20
342.9753066085003
 30
0.0
 10
366.8617103385632
 20
343.9050669599491
 30
0.0
 10
366.0969309258061
 20
343.8763015736071
 30
0.0
 10
366.1105948889544
 20
343.5305893487469
 30
0.0
 10
366.1188340105597
 20
343.3221311561927
 30
0.0
 11
367.8130688556757
 21
342.8138611765747
 31
0.0
 11
367.7081454934552
 21
342.6152718984909
 31
0.0
 11
367.4983870247298
 21
342.6152718984909
 31
0.0
 11
366.9273481294177
 21
343.0342702126568
 31
0.0
 11
366.5764117236428
 21
343.8490088231437
 31
0.0
 11
366.2359139685242
 21
343.8269557428542
 31
0.0
 11
366.1188340105597
 21
343.3221311561927
 31
0.0
  0
SPLINE
  5
2242
330
1F
100
AcDbEntity
  8
Hladina1
100
AcDbSpline
210
0.0
220
0.0
230
1.0
 70
  1064
 71
     3
 72
    12
 73
     8
 74
     6
 42
0.000000001
 43
0.0000000001
 44
0.0000000001
 40
0.0
 40
0.0
 40
0.0
 40
0.0
 40
0.8682590907203451
 40
1.42802025869263
 40
2.490326501641785
 40
2.711762396106046
 40
4.075528948717782
 40
4.075528948717782
 40
4.075528948717782
 40
4.075528948717782
 10
367.8867348496257
 20
346.4091726640999
 30
0.0
 10
367.9430876916043
 20
346.0246361700157
 30
0.0
 10
368.0357708559274
 20
345.3921914197932
 30
0.0
 10
366.8401546027799
 20
345.6737777867088
 30
0.0
 10
367.3605497721813
 20
346.6627778633608
 30
0.0
 10
366.3748894799852
 20
346.9596051150485
 30
0.0
 10
366.442220769986
 20
346.1670483924631
 30
0.0
 10
366.5001465960637
 20
345.4852034008007
 30
0.0
 11
367.8867348496257
 21
346.4091726640999
 31
0.0
 11
367.7680755522056
 21
345.5490599855778
 31
0.0
 11
367.228698497254
 21
345.6987428428509
 31
0.0
 11
367.0224935423032
 21
346.7408436394932
 31
0.0
 11
366.8130059107153
 21
346.8125986920603
 31
0.0
 11
366.5001465960637
 21
345.4852034008007
 31
0.0
  0
ARC
  5
2243
330
1F
100
AcDbEntity
  8
Hladina1
100
AcDbCircle
 10
367.7136780407983
 20
345.8163903958198
 30
0.0
 40
1.257912315318324
100
AcDbArc
 50
195.2649564671848
 51
274.5318072975164
  0
LINE
  5
2244
330
1F
100
AcDbEntity
  8
Hladina1
100
AcDbLine
 10
368.8578524073161
 20
342.4781932326538
 30
0.0
 11
368.8827694240109
 21
344.9175331515482
 31
0.0
  0
LINE
  5
2245
330
1F
100
AcDbEntity
  8
Hladina1
100
AcDbLine
 10
373.7830483536336
 20
342.3284487770504
 30
0.0
 11
373.7830483536336
 21
344.9889040963743
 31
0.0
  0
ARC
  5
2246
330
1F
100
AcDbEntity
  8
Hladina1
100
AcDbCircle
 10
371.4311024118901
 20
346.0427408042842
 30
0.0
 40
4.396318343393376
100
AcDbArc
 50
234.1744492346094
 51
302.3426099020337
  0
LINE
  5
2247
330
1F
100
AcDbEntity
  8
Hladina1
100
AcDbLine
 10
373.7830483536335
 20
346.2040017407347
 30
0.0
 11
373.7830483536336
 21
350.3007836379922
 31
0.0
  0
LINE
  5
2248
330
1F
100
AcDbEntity
  8
Hladina1
100
AcDbLine
 10
368.8858171575881
 20
346.1321561585645
 30
0.0
 11
368.2959396032156
 21
349.9034577233242
 31
0.0
  0
ARC
  5
2249
330
1F
100
AcDbEntity
  8
Hladina1
100
AcDbCircle
 10
370.5372105636278
 20
355.3433289880322
 30
0.0
 40
0.3964255382737756
100
AcDbArc
 50
249.3591118662989
 51
39.96645795093868
  0
ARC
  5
224A
330
1F
100
AcDbEntity
  8
Hladina1
100
AcDbCircle
 10
362.0512416573563
 20
352.5954341374906
 30
0.0
 40
0.3
100
AcDbArc
 50
167.0343484915337
 51
273.7016850882232
  0
ARC
  5
224B
330
1F
100
AcDbEntity
  8
Hladina1
100
AcDbCircle
 10
361.977264750022
 20
352.5906480806991
 30
0.0
 40
0.3
100
AcDbArc
 50
273.7016850882428
 51
326.5151123542959
  0
ARC
  5
224C
330
1F
100
AcDbEntity
  8
Hladina1
100
AcDbCircle
 10
376.58525131702
 20
352.4445723288226
 30
0.0
 40
2.254276878941726
100
AcDbArc
 50
86.03315642973774
 51
136.476439868953
  0
LINE
  5
224D
330
1F
100
AcDbEntity
  8
Hladina1
100
AcDbLine
 10
362.0706101545345
 20
352.2960600215134
 30
0.0
 11
361.9966332472002
 21
352.2912739647221
 31
0.0
  0
ARC
  5
224E
330
1F
100
AcDbEntity
  8
Hladina1
100
AcDbCircle
 10
367.9540694190763
 20
349.0122382744602
 30
0.0
 40
7.190718926246167
100
AcDbArc
 50
66.3289188026542
 51
149.4913048510325
  0
ARC
  5
224F
330
1F
100
AcDbEntity
  8
Hladina1
100
AcDbCircle
 10
376.9790305304075
 20
351.7348461327635
 30
0.0
 40
2.200584263834125
100
AcDbArc
 50
97.77635309361986
 51
183.7061394775357
  0
ARC
  5
2250
330
1F
100
AcDbEntity
  8
Hladina1
100
AcDbCircle
 10
364.5356820368274
 20
350.8982388874622
 30
0.0
 40
2.767531237123765
100
AcDbArc
 50
4.154926517944048
 51
146.5151123542908
  0
LINE
  5
2251
330
1F
100
AcDbEntity
  8
Hladina1
100
AcDbLine
 10
374.7891593800986
 20
349.2805022194574
 30
0.0
 11
374.7830483536335
 21
351.592602041409
 31
0.0
  0
LINE
  5
2252
330
1F
100
AcDbEntity
  8
Hladina1
100
AcDbLine
 10
374.7891593800986
 20
345.8016500773986
 30
0.0
 11
374.7830483536337
 21
348.5148091732344
 31
0.0
  0
LINE
  5
2253
330
1F
100
AcDbEntity
  8
Hladina1
100
AcDbLine
 10
367.8867348496257
 20
346.4091726640999
 30
0.0
 11
367.2959396032154
 21
351.0987565067702
 31
0.0
  0
LINE
  5
2254
330
1F
100
AcDbEntity
  8
Hladina1
100
AcDbLine
 10
367.8130688556757
 20
342.8138611765747
 30
0.0
 11
367.8130688556757
 21
344.562410787155
 31
0.0
  0
LINE
  5
2255
330
1F
100
AcDbEntity
  8
Hladina1
100
AcDbLine
 10
374.7830483536335
 20
342.8403544857942
 30
0.0
 11
374.7830483536337
 21
345.0359570311754
 31
0.0
  0
ARC
  5
2256
330
1F
100
AcDbEntity
  8
Hladina1
100
AcDbCircle
 10
371.409417121811
 20
346.0718098741299
 30
0.0
 40
5.19742407030961
100
AcDbArc
 50
236.1282682705492
 51
302.9055761852846
  0
DIMENSION
  5
2752
330
1F
100
AcDbEntity
  8
0
 62
     0
100
AcDbDimension
280
     0
  2
*D34
 10
407.0320014237863
 20
386.6559495552764
 30
0.0
 11
392.0320014237864
 21
388.5059495552765
 31
0.0
 70
    32
 71
     5
 42
29.99999999999983
 73
     0
 74
     0
 75
     0
  3
Standard
100
AcDbAlignedDimension
 13
377.0320014237865
 23
381.1439093288904
 33
0.0
 14
407.0320014237863
 24
375.6439093288904
 34
0.0
100
AcDbRotatedDimension
1001
ACAD
1000
DSTYLE
1002
{
1070
   147
1040
0.6
1070
   140
1040
2.5
1070
    41
1040
2.5
1002
}
  0
DIMENSION
  5
276A
330
1F
100
AcDbEntity
  8
0
 62
     0
100
AcDbDimension
280
     0
  2
*D35
 10
392.0320014237864
 20
280.7407275608366
 30
0.0
 11
377.0320014237864
 21
280.7407275608366
 31
0.0
 70
   160
 71
     5
 42
30.00000000000006
 73
     0
 74
     0
 75
     0
  3
Standard
100
AcDbAlignedDimension
 13
362.0320014237863
 23
289.6718506122028
 33
0.0
 14
392.0320014237864
 24
289.6718506122028
 34
0.0
100
AcDbRotatedDimension
1001
ACAD
1000
DSTYLE
1002
{
1070
   147
1040
0.63
1070
   140
1040
2.5
1070
    41
1040
2.5
1002
}
  0
ARC
  5
27D9
330
1F
100
AcDbEntity
  8
0
100
AcDbCircle
 10
382.3053150783382
 20
356.7538908499252
 30
0.0
 40
1.5
100
AcDbArc
 50
180.0
 51
270.0
  0
ARC
  5
27DA
330
1F
100
AcDbEntity
  8
0
100
AcDbCircle
 10
404.0672980661021
 20
352.356442739342
 30
0.0
 40
1.5
100
AcDbArc
 50
0.0
 51
90.0
  0
ARC
  5
27DB
330
1F
100
AcDbEntity
  8
0
100
AcDbCircle
 10
404.0672980661021
 20
313.5711670489309
 30
0.0
 40
1.5
100
AcDbArc
 50
270.0
 51
0.0
  0
ARC
  5
27DC
330
1F
100
AcDbEntity
  8
0
100
AcDbCircle
 10
367.0847505187313
 20
309.4056512532142
 30
0.0
 40
1.5
100
AcDbArc
 50
90.0
 51
180.0
  0
ARC
  5
27DD
330
1F
100
AcDbEntity
  8
0
100
AcDbCircle
 10
367.3872643275819
 20
309.071167048931
 30
0.0
 40
3.0
100
AcDbArc
 50
90.0
 51
180.0
  0
ARC
  5
27DE
330
1F
100
AcDbEntity
  8
0
100
AcDbCircle
 10
403.9282050305962
 20
313.9056512532142
 30
0.0
 40
3.0
100
AcDbArc
 50
270.0
 51
0.0
  0
ARC
  5
27DF
330
1F
100
AcDbEntity
  8
0
100
AcDbCircle
 10
403.9282050305962
 20
352.2538908499251
 30
0.0
 40
3.0
100
AcDbArc
 50
0.0
 51
90.0
  0
ARC
  5
27E0
330
1F
100
AcDbEntity
  8
0
100
AcDbCircle
 10
382.3053150783382
 20
356.8564427393421
 30
0.0
 40
3.0
100
AcDbArc
 50
180.0
 51
270.0
  0
LINE
  5
27E2
330
1F
100
AcDbEntity
  8
0
100
AcDbLine
 10
406.9282050305965
 20
337.0685637220105
 30
0.0
 11
406.9282050305965
 21
337.0685637220105
 31
0.0
  0
LINE
  5
27E3
330
1F
100
AcDbEntity
  8
0
100
AcDbLine
 10
367.3872643275819
 20
312.071167048931
 30
0.0
 11
404.0672980661021
 21
312.0711670489309
 31
0.0
  0
LINE
  5
27E4
330
1F
100
AcDbEntity
  8
0
100
AcDbLine
 10
364.3872643275819
 20
307.4990740697359
 30
0.0
 11
364.3872643275819
 21
309.071167048931
 31
0.0
  0
LINE
  5
27E5
330
1F
100
AcDbEntity
  8
0
100
AcDbLine
 10
367.0847505187313
 20
310.9056512532142
 30
0.0
 11
403.9282050305962
 21
310.9056512532142
 31
0.0
  0
LINE
  5
27E6
330
1F
100
AcDbEntity
  8
0
100
AcDbLine
 10
365.5847505187313
 20
306.1486190454431
 30
0.0
 11
365.5847505187313
 21
309.4056512532142
 31
0.0
  0
LINE
  5
27E7
330
1F
100
AcDbEntity
  8
0
100
AcDbLine
 10
364.3872643275819
 20
297.7177657347699
 30
0.0
 11
365.5847505187313
 21
297.7177657347699
 31
0.0
  0
LINE
  5
27E8
330
1F
100
AcDbEntity
  8
0
100
AcDbLine
 10
365.5847505187313
 20
306.1486190454431
 30
0.0
 11
365.5847505187313
 21
297.7177657347699
 31
0.0
  0
LINE
  5
27E9
330
1F
100
AcDbEntity
  8
0
100
AcDbLine
 10
406.9282050305965
 20
352.2538908499251
 30
0.0
 11
406.9282050305962
 21
313.9056512532142
 31
0.0
  0
LINE
  5
27EA
330
1F
100
AcDbEntity
  8
0
100
AcDbLine
 10
382.3053150783382
 20
355.2538908499252
 30
0.0
 11
403.9282050305962
 21
355.2538908499252
 31
0.0
  0
LINE
  5
27EB
330
1F
100
AcDbEntity
  8
0
100
AcDbLine
 10
380.8053150783381
 20
365.6561167531432
 30
0.0
 11
380.8053150783381
 21
356.7538908499252
 31
0.0
  0
LINE
  5
27EC
330
1F
100
AcDbEntity
  8
0
100
AcDbLine
 10
379.3053150783381
 20
365.6561167531432
 30
0.0
 11
380.8053150783381
 21
365.6561167531432
 31
0.0
  0
LINE
  5
27ED
330
1F
100
AcDbEntity
  8
0
100
AcDbLine
 10
364.3872643275819
 20
307.4990740697359
 30
0.0
 11
364.3872643275819
 21
297.7177657347699
 31
0.0
  0
LINE
  5
27EE
330
1F
100
AcDbEntity
  8
0
100
AcDbLine
 10
405.5672980661021
 20
352.356442739342
 30
0.0
 11
405.5672980661021
 21
313.5711670489309
 31
0.0
  0
LINE
  5
27F0
330
1F
100
AcDbEntity
  8
0
100
AcDbLine
 10
382.3053150783382
 20
353.8564427393421
 30
0.0
 11
404.0672980661021
 21
353.856442739342
 31
0.0
  0
LINE
  5
27F1
330
1F
100
AcDbEntity
  8
0
100
AcDbLine
 10
379.3053150783381
 20
365.6561167531432
 30
0.0
 11
379.3053150783381
 21
356.8564427393421
 31
0.0
  0
DIMENSION
  5
2865
330
1F
100
AcDbEntity
  8
0
100
AcDbDimension
280
     0
  2
*D38
 10
396.8507545897928
 20
285.1475671162114
 30
0.0
 11
396.8507545897928
 21
290.1475671162115
 31
0.0
 70
   160
  1
10
 71
     5
 42
10.0
 73
     0
 74
     0
 75
     0
  3
ISO-25
100
AcDbAlignedDimension
 13
391.2820014237864
 23
295.1475671162114
 33
0.0
 14
389.0320014237864
 24
285.1475671162114
 34
0.0
 50
90.0
100
AcDbRotatedDimension
  0
DIMENSION
  5
2874
330
1F
100
AcDbEntity
  8
0
100
AcDbDimension
280
     0
  2
*D39
 10
415.4952024333738
 20
370.1475671162115
 30
0.0
 11
415.4952024333737
 21
375.1475671162115
 31
0.0
 70
   160
  1
10
 71
     5
 42
9.999999999999886
 73
     0
 74
     0
 75
     0
  3
ISO-25
100
AcDbAlignedDimension
 13
402.1906399661906
 23
380.1475671162113
 33
0.0
 14
407.0320014237863
 24
370.1475671162114
 34
0.0
 50
90.0
100
AcDbRotatedDimension
  0
VIEWPORT
  5
A4
330
9B
100
AcDbEntity
 67
     1
  8
0
100
AcDbViewport
 10
121.3601527811441
 20
132.5275660245406
 30
0.0
 40
266.6325706552413
 41
161.4472446169351
 68
     1
 69
     1
 12
121.3601527811441
 22
132.5275660245406
 13
0.0
 23
0.0
 14
0.5
 24
0.5
 15
0.5
 25
0.5
 16
0.0
 26
0.0
 36
1.0
 17
0.0
 27
0.0
 37
0.0
 42
50.0
 43
0.0
 44
0.0
 45
161.4472446169351
 50
0.0
 51
0.0
 72
  1000
 90
    32800
  1

281
     0
 71
     1
 74
     0
110
0.0
120
0.0
130
0.0
111
1.0
121
0.0
131
0.0
112
0.0
122
1.0
132
0.0
 79
     0
146
0.0
170
     0
 61
     5
348
2975
292
     1
282
     1
141
0.0
142
0.0
 63
   250
421
  3355443
  0
VIEWPORT
  5
A6
330
9B
100
AcDbEntity
 67
     1
  8
VAREZ
100
AcDbViewport
 10
99.93201060419131
 20
168.1688848222089
 30
0.0
 40
190.3466868651262
 41
222.4548365377497
 68
     2
 69
     2
 12
340.3864615727022
 22
419.6545875525816
 13
0.0
 23
0.0
 14
0.5
 24
0.5
 15
0.5
 25
0.5
 16
0.0
 26
0.0
 36
1.0
 17
0.0
 27
0.0
 37
0.0
 42
50.0
 43
0.0
 44
0.0
 45
350.2530035660546
 50
0.0
 51
0.0
 72
  1000
 90
    32864
  1

281
     0
 71
     1
 74
     0
110
0.0
120
0.0
130
0.0
111
1.0
121
0.0
131
0.0
112
0.0
122
1.0
132
0.0
 79
     0
146
0.0
170
     0
 61
     5
348
2975
292
     1
282
     1
141
0.0
142
0.0
 63
   250
421
  3355443
  0
MTEXT
  5
848
330
9B
100
AcDbEntity
 67
     1
  8
0
 62
     0
100
AcDbMText
 10
116.2671903111327
 20
21.06399648926481
 30
0.0
 40
2.379333585814076
 41
47.60121731311629
 46
0.0
 71
     1
 72
     5
  1
{\fTimes New Roman|b0|i0|c238|p18;\H1.4x;MONTKOV spol. s r.o. \H1.143x;\P\H0.6252x;Malé Výkleky 26, 53316 Vápno }
 73
     1
 44
1.0
  0
LINE
  5
849
330
9B
100
AcDbEntity
 67
     1
  8
PROF_FRM1
 62
     0
100
AcDbLine
 10
195.1053540367542
 20
24.8687690036047
 30
0.0
 11
4.758667171628153
 21
24.8687690036047
 31
0.0
  0
LINE
  5
84A
330
9B
100
AcDbEntity
 67
     1
  8
PROF_FRM1
 62
     0
370
    35
100
AcDbLine
 10
195.1053540367542
 20
56.94146655333407
 30
0.0
 11
4.758667171628153
 21
56.94146655333402
 31
0.0
  0
LINE
  5
84B
330
9B
100
AcDbEntity
 67
     1
  8
PROF_FRM1
 62
     0
100
AcDbLine
 10
138.4490417343022
 20
37.53550302723493
 30
0.0
 11
138.4490417343022
 21
24.8687690036047
 31
0.0
  0
LINE
  5
84C
330
9B
100
AcDbEntity
 67
     1
  8
PROF_FRM1
 62
     0
100
AcDbLine
 10
153.2095233558639
 20
37.53550302723493
 30
0.0
 11
153.2095233558639
 21
24.8687690036047
 31
0.0
  0
LINE
  5
84D
330
9B
100
AcDbEntity
 67
     1
  8
PROF_FRM1
 62
     0
100
AcDbLine
 10
171.4844071907431
 20
37.53550302723493
 30
0.0
 11
171.484407190743
 21
24.8687690036047
 31
0.0
  0
LINE
  5
84E
330
9B
100
AcDbEntity
 67
     1
  8
PROF_FRM1
 62
     0
100
AcDbLine
 10
138.4490417343022
 20
37.53550302723493
 30
0.0
 11
4.758667171628153
 21
37.53550302723493
 31
0.0
  0
LINE
  5
84F
330
9B
100
AcDbEntity
 67
     1
  8
PROF_FRM1
 62
     0
100
AcDbLine
 10
52.43069609006818
 20
37.53550302723494
 30
0.0
 11
52.43069609006819
 21
24.8687690036047
 31
0.0
  0
LINE
  5
850
330
9B
100
AcDbEntity
 67
     1
  8
PROF_FRM1
 62
     0
100
AcDbLine
 10
111.1278115528275
 20
6.248807439627592
 30
0.0
 11
111.1278115528275
 21
24.86876900360473
 31
0.0
  0
LINE
  5
851
330
9B
100
AcDbEntity
 67
     1
  8
PROF_FRM1
 62
     0
100
AcDbLine
 10
195.1053540367542
 20
37.53550302723493
 30
0.0
 11
138.4490417343022
 21
37.53550302723493
 31
0.0
  0
MTEXT
  5
852
330
9B
100
AcDbEntity
 67
     1
  8
0
 62
     0
100
AcDbMText
 10
139.9234164290952
 20
54.72599661042888
 30
0.0
 40
1.61794683835357
 41
9.556305339725826
 46
0.0
 71
     1
 72
     5
  1
{\fTimes New Roman|b0|i0|c238|p18;NAVRHL}
 73
     1
 44
1.0
  0
MTEXT
  5
853
330
9B
100
AcDbEntity
 67
     1
  8
0
 62
     0
100
AcDbMText
 10
126.4117195190971
 20
60.01554787739049
 30
0.0
 40
1.427600151488445
 41
8.474458235894076
 46
0.0
 71
     1
 72
     5
  1
{\fTimes New Roman|b0|i0|c238|p18;\H1.133x;DATUM}
 73
     1
 44
1.0
  0
MTEXT
  5
854
330
9B
100
AcDbEntity
 67
     1
  8
0
 62
     0
100
AcDbMText
 10
7.353999900020625
 20
32.48436732804063
 30
0.0
 40
3.806933737302521
 41
26.50522334638865
 46
0.0
 71
     1
 72
     5
  1
{\fTimes New Roman|b0|i0|c238|p18;0004-03-03}
 73
     1
 44
1.0
  0
MTEXT
  5
855
330
9B
100
AcDbEntity
 67
     1
  8
0
 62
     0
100
AcDbMText
 10
7.152789123821673
 20
36.7079205031339
 30
0.0
 40
1.427600151488445
 41
16.94891954153725
 46
0.0
 71
     1
 72
     5
  1
{\fTimes New Roman|b0|i0|c238|p18;ČÍSLO VÝKRESU}
 73
     1
 44
1.0
  0
MTEXT
  5
856
330
9B
100
AcDbEntity
 67
     1
  8
0
 62
     0
100
AcDbMText
 10
140.4910296009156
 20
36.31212599468879
 30
0.0
 40
1.427600151488445
 41
9.916921041003002
 46
0.0
 71
     1
 72
     5
  1
{\fTimes New Roman|b0|i0|c238|p18;MĚŘÍTKO}
 73
     1
 44
1.0
  0
MTEXT
  5
857
330
9B
100
AcDbEntity
 67
     1
  8
0
 62
     0
100
AcDbMText
 10
142.3293012454196
 20
32.00675008259374
 30
0.0
 40
3.806933737302521
 41
26.50522334638865
 46
0.0
 71
     1
 72
     5
  1
{\fTimes New Roman|b0|i0|c238|p18;/}
 73
     1
 44
1.0
1001
ACAD
1000
ACAD_MTEXT_DEFINED_HEIGHT_BEGIN
1070
    46
1040
0.0
1000
ACAD_MTEXT_DEFINED_HEIGHT_END
  0
LINE
  5
85A
330
9B
100
AcDbEntity
 67
     1
  8
PROF_FRM1
 62
     0
100
AcDbLine
 10
4.758667171628153
 20
15.55878822161609
 30
0.0
 11
111.1278115528275
 21
15.55878822161615
 31
0.0
  0
INSERT
  5
85B
330
9B
100
AcDbEntity
 67
     1
  8
0
 62
     0
100
AcDbBlockReference
  2
3
 10
-415.5528230679085
 20
-456.2823292281595
 30
0.0
 41
0.9517334343256303
 42
0.9517334343256303
 43
0.9517334343256303
  0
MTEXT
  5
85C
330
9B
100
AcDbEntity
 67
     1
  8
0
 62
     0
100
AcDbMText
 10
157.3829454372511
 20
36.31212599468879
 30
0.0
 40
1.427600151488445
 41
9.916921041003002
 46
0.0
 71
     1
 72
     5
  1
{\fTimes New Roman|b0|i0|c238|p18;LIST/LISŮ}
 73
     1
 44
1.0
  0
MTEXT
  5
85D
330
9B
100
AcDbEntity
 67
     1
  8
0
 62
     0
100
AcDbMText
 10
159.2212170817552
 20
32.00675008259374
 30
0.0
 40
3.806933737302521
 41
26.50522334638865
 46
0.0
 71
     1
 72
     5
  1
{\fTimes New Roman|b0|i0|c238|p18;1/1}
 73
     1
 44
1.0
  0
MTEXT
  5
85E
330
9B
100
AcDbEntity
 67
     1
  8
0
 62
     0
100
AcDbMText
 10
7.199738877896947
 20
56.25926171737257
 30
0.0
 40
1.427600151488445
 41
17.85045572498132
 46
0.0
 71
     1
 72
     5
  1
{\fTimes New Roman|b0|i0|c238|p18;NÁZEV VÝKRESU}
 73
     1
 44
1.0
  0
MTEXT
  5
85F
330
9B
100
AcDbEntity
 67
     1
  8
0
 62
     0
100
AcDbMText
 10
7.852400004211034
 20
51.44356479506543
 30
0.0
 40
2.855200302976891
 41
84.03888081688922
 46
0.0
 71
     1
 72
     5
  1
{\fTimes New Roman|b0|i0|c238|p18;OCELOVÁ ZÁRUBEŇ JEDNORÁMOVÁ\PSh(t)}
 73
     1
 44
1.0
1001
ACAD
1000
ACAD_MTEXT_DEFINED_HEIGHT_BEGIN
1070
    46
1040
0.0
1000
ACAD_MTEXT_DEFINED_HEIGHT_END
  0
MTEXT
  5
860
330
9B
100
AcDbEntity
 67
     1
  8
0
 62
     0
100
AcDbMText
 10
55.78974902942205
 20
36.56920453564512
 30
0.0
 40
1.427600151488445
 41
35.00048795806895
 46
0.0
 71
     1
 72
     5
  1
{\fTimes New Roman|b0|i0|c238|p18;ČÍSLO ŘÍZENÉ KOPIE}
 73
     1
 44
1.0
  0
MTEXT
  5
861
330
9B
100
AcDbEntity
 67
     1
  8
0
 62
     0
100
AcDbMText
 10
98.45926845432932
 20
33.91358986530898
 30
0.0
 40
2.379333585814076
 41
46.4665996880389
 46
0.0
 71
     1
 72
     5
  1
{\fTimes New Roman|b0|i0|c238|p18;LEHKÉ MONTOVANÉ PŘÍČKY (SDK)}
 73
     1
 44
1.0
1001
ACAD
1000
ACAD_MTEXT_DEFINED_HEIGHT_BEGIN
1070
    46
1040
0.0
1000
ACAD_MTEXT_DEFINED_HEIGHT_END
  0
ELLIPSE
  5
862
102
{ACAD_REACTORS
330
868
102
}
330
9B
100
AcDbEntity
 67
     1
  8
0
 62
     0
100
AcDbEllipse
 10
177.752402882859
 20
15.66965862527139
 30
0.0
 11
-14.15002794343719
 21
0.0
 31
0.0
210
0.0
220
0.0
230
1.0
 40
0.4427098778200561
 41
0.0
 42
6.283185307179584
  0
ELLIPSE
  5
863
102
{ACAD_REACTORS
330
868
102
}
330
9B
100
AcDbEntity
 67
     1
  8
0
 62
     0
100
AcDbEllipse
 10
177.6836621323738
 20
15.66965862527139
 30
0.0
 11
-13.6601175511055
 21
0.0
 31
0.0
210
0.0
220
0.0
230
1.0
 40
0.4224340543967271
 41
0.0
 42
6.283185307179584
  0
MTEXT
  5
864
330
9B
100
AcDbEntity
 67
     1
  8
0
 62
     0
100
AcDbMText
 10
165.8426477715373
 20
17.31497750750532
 30
0.0
 40
2.750400099879627
 41
25.67043040190787
 46
0.0
 71
     1
 72
     5
  1
{\fUnivers|b1|i0|c238|p34;\H1.2x;MONTKOV}
 73
     1
 44
1.0
  0
CIRCLE
  5
865
102
{ACAD_REACTORS
330
869
102
}
330
9B
100
AcDbEntity
 67
     1
  8
0
 62
     0
100
AcDbCircle
 10
191.5639057004509
 20
20.2844416176631
 30
0.0
 40
1.53043210858635
  0
CIRCLE
  5
866
102
{ACAD_REACTORS
330
869
102
}
330
9B
100
AcDbEntity
 67
     1
  8
0
 62
     0
100
AcDbCircle
 10
191.5639057004509
 20
20.2844416176631
 30
0.0
 40
1.253375377807975
  0
MTEXT
  5
867
330
9B
100
AcDbEntity
 67
     1
  8
0
 62
     0
100
AcDbMText
 10
191.0538726234087
 20
20.99937293024924
 30
0.0
 40
1.375200049939812
 41
1.397726138870879
 46
0.0
 71
     1
 72
     5
  1
{\fArial|b1|i0|c0|p34;R}
 73
     1
 44
1.0
  0
HATCH
  5
868
330
9B
100
AcDbEntity
 67
     1
  8
0
 62
     0
100
AcDbHatch
 10
0.0
 20
0.0
 30
0.0
210
0.0
220
0.0
230
1.0
  2
SOLID
 70
     1
 71
     1
 91
        2
 92
        1
 93
        1
 72
     3
 10
177.752402882859
 20
15.66965862527139
 11
-14.15002794343719
 21
0.0
 40
0.4427098778200561
 50
0.0
 51
360.0
 73
     1
 97
        1
330
862
 92
       16
 93
        1
 72
     3
 10
177.6836621323738
 20
15.66965862527139
 11
-13.6601175511055
 21
0.0
 40
0.4224340543967271
 50
0.0
 51
360.0
 73
     1
 97
        1
330
863
 75
     0
 76
     1
 98
        1
 10
-760.4525255889082
 20
-590.9468003230116
450
        0
451
        0
460
0.0
461
0.0
452
        1
462
1.0
453
        2
463
0.0
 63
     5
421
      255
463
1.0
 63
    51
421
 16777113
470
LINEAR
  0
HATCH
  5
869
330
9B
100
AcDbEntity
 67
     1
  8
0
 62
     0
100
AcDbHatch
 10
0.0
 20
0.0
 30
0.0
210
0.0
220
0.0
230
1.0
  2
SOLID
 70
     1
 71
     1
 91
        2
 92
       16
 93
        1
 72
     2
 10
191.5639057004509
 20
20.2844416176631
 40
1.253375377807975
 50
0.0
 51
360.0
 73
     1
 97
        1
330
866
 92
        1
 93
        1
 72
     2
 10
191.5639057004509
 20
20.2844416176631
 40
1.53043210858635
 50
0.0
 51
360.0
 73
     1
 97
        1
330
865
 75
     0
 76
     1
 98
        1
 10
-760.4525255889082
 20
-590.9468003230116
450
        0
451
        0
460
0.0
461
0.0
452
        1
462
1.0
453
        2
463
0.0
 63
     5
421
      255
463
1.0
 63
    51
421
 16777113
470
LINEAR
  0
LINE
  5
86A
330
9B
100
AcDbEntity
 67
     1
  8
PROF_FRM1
 62
     0
100
AcDbLine
 10
0.0
 20
1.490140267999436
 30
0.0
 11
0.0
 21
284.1549702627116
 31
0.0
  0
LINE
  5
86B
330
9B
100
AcDbEntity
 67
     1
  8
PROF_FRM1
 62
     0
100
AcDbLine
 10
0.0
 20
284.1549702627116
 30
0.0
 11
199.8640212083824
 21
284.1549702627116
 31
0.0
  0
LINE
  5
86C
330
9B
100
AcDbEntity
 67
     1
  8
PROF_FRM1
 62
     0
100
AcDbLine
 10
199.8640212083824
 20
284.1549702627116
 30
0.0
 11
199.8640212083824
 21
1.490140267999436
 31
0.0
  0
LINE
  5
86D
330
9B
100
AcDbEntity
 67
     1
  8
PROF_FRM1
 62
     0
100
AcDbLine
 10
199.8640212083824
 20
1.490140267999436
 30
0.0
 11
0.0
 21
1.490140267999436
 31
0.0
  0
LINE
  5
86E
330
9B
100
AcDbEntity
 67
     1
  8
PROF_FRM1
 62
     0
100
AcDbLine
 10
4.75866717162815
 20
6.248807439627592
 30
0.0
 11
4.75866717162815
 21
279.3963030910835
 31
0.0
  0
LINE
  5
86F
330
9B
100
AcDbEntity
 67
     1
  8
PROF_FRM1
 62
     0
100
AcDbLine
 10
4.75866717162815
 20
279.3963030910835
 30
0.0
 11
195.1053540367542
 21
279.3963030910835
 31
0.0
  0
LINE
  5
870
330
9B
100
AcDbEntity
 67
     1
  8
PROF_FRM1
 62
     0
100
AcDbLine
 10
195.1053540367542
 20
279.3963030910835
 30
0.0
 11
195.1053540367542
 21
6.248807439627592
 31
0.0
  0
LINE
  5
871
330
9B
100
AcDbEntity
 67
     1
  8
PROF_FRM1
 62
     0
370
    35
100
AcDbLine
 10
195.1053540367542
 20
6.248807439627592
 30
0.0
 11
4.75866717162815
 21
6.248807439627592
 31
0.0
  0
TEXT
  5
872
330
9B
100
AcDbEntity
 67
     1
  8
PROF_FRM2
 62
     0
100
AcDbText
 10
28.29707443128883
 20
280.3480365254092
 30
0.0
 40
2.855200302976891
  1
1
 41
0.75
  7
SIMPLEX
 72
     1
 11
28.55200302976891
 21
280.3480365254092
 31
0.0
100
AcDbText
  0
LINE
  5
873
330
9B
100
AcDbEntity
 67
     1
  8
PROF_FRM1
 62
     0
100
AcDbLine
 10
52.34533888790966
 20
284.1549702627116
 30
0.0
 11
52.34533888790966
 21
279.3963030910835
 31
0.0
  0
TEXT
  5
874
330
9B
100
AcDbEntity
 67
     1
  8
PROF_FRM2
 62
     0
100
AcDbText
 10
75.42487467030619
 20
280.3480365254092
 30
0.0
 40
2.855200302976891
  1
2
 41
0.75
  7
SIMPLEX
 72
     1
 11
76.13867474605041
 21
280.3480365254092
 31
0.0
100
AcDbText
  0
LINE
  5
875
330
9B
100
AcDbEntity
 67
     1
  8
PROF_FRM1
 62
     0
100
AcDbLine
 10
99.93201060419121
 20
284.1549702627116
 30
0.0
 11
99.93201060419121
 21
279.3963030910835
 31
0.0
  0
TEXT
  5
876
330
9B
100
AcDbEntity
 67
     1
  8
PROF_FRM2
 62
     0
100
AcDbText
 10
123.0115463865877
 20
280.3480365254092
 30
0.0
 40
2.855200302976891
  1
3
 41
0.75
  7
SIMPLEX
 72
     1
 11
123.7253464623319
 21
280.3480365254092
 31
0.0
100
AcDbText
  0
LINE
  5
877
330
9B
100
AcDbEntity
 67
     1
  8
PROF_FRM1
 62
     0
100
AcDbLine
 10
147.5186823204727
 20
284.1549702627116
 30
0.0
 11
147.5186823204727
 21
279.3963030910835
 31
0.0
  0
TEXT
  5
878
330
9B
100
AcDbEntity
 67
     1
  8
PROF_FRM2
 62
     0
100
AcDbText
 10
170.5472323831731
 20
280.3480365254092
 30
0.0
 40
2.855200302976891
  1
4
 41
0.75
  7
SIMPLEX
 72
     1
 11
171.3120181786133
 21
280.3480365254092
 31
0.0
100
AcDbText
  0
TEXT
  5
879
330
9B
100
AcDbEntity
 67
     1
  8
PROF_FRM2
 62
     0
100
AcDbText
 10
28.29707443128883
 20
2.441873702325073
 30
0.0
 40
2.855200302976891
  1
1
 41
0.75
  7
SIMPLEX
 72
     1
 11
28.55200302976891
 21
2.441873702325073
 31
0.0
100
AcDbText
  0
LINE
  5
87A
330
9B
100
AcDbEntity
 67
     1
  8
PROF_FRM1
 62
     0
100
AcDbLine
 10
52.34533888790966
 20
1.490140267999436
 30
0.0
 11
52.34533888790966
 21
6.248807439627592
 31
0.0
  0
TEXT
  5
87B
330
9B
100
AcDbEntity
 67
     1
  8
PROF_FRM2
 62
     0
100
AcDbText
 10
75.42487467030619
 20
2.441873702325073
 30
0.0
 40
2.855200302976891
  1
2
 41
0.75
  7
SIMPLEX
 72
     1
 11
76.13867474605041
 21
2.441873702325073
 31
0.0
100
AcDbText
  0
LINE
  5
87C
330
9B
100
AcDbEntity
 67
     1
  8
PROF_FRM1
 62
     0
100
AcDbLine
 10
99.93201060419121
 20
1.490140267999436
 30
0.0
 11
99.93201060419121
 21
6.248807439627592
 31
0.0
  0
TEXT
  5
87D
330
9B
100
AcDbEntity
 67
     1
  8
PROF_FRM2
 62
     0
100
AcDbText
 10
123.0115463865877
 20
2.441873702325073
 30
0.0
 40
2.855200302976891
  1
3
 41
0.75
  7
SIMPLEX
 72
     1
 11
123.7253464623319
 21
2.441873702325073
 31
0.0
100
AcDbText
  0
LINE
  5
87E
330
9B
100
AcDbEntity
 67
     1
  8
PROF_FRM1
 62
     0
100
AcDbLine
 10
147.5186823204727
 20
1.490140267999436
 30
0.0
 11
147.5186823204727
 21
6.248807439627592
 31
0.0
  0
TEXT
  5
87F
330
9B
100
AcDbEntity
 67
     1
  8
PROF_FRM2
 62
     0
100
AcDbText
 10
170.5472323831731
 20
2.441873702325073
 30
0.0
 40
2.855200302976891
  1
4
 41
0.75
  7
SIMPLEX
 72
     1
 11
171.3120181786133
 21
2.441873702325073
 31
0.0
100
AcDbText
  0
TEXT
  5
880
330
9B
100
AcDbEntity
 67
     1
  8
PROF_FRM2
 62
     0
100
AcDbText
 10
1.563562070677813
 20
255.2064113180626
 30
0.0
 40
2.855200302976891
  1
A
 41
0.75
  7
SIMPLEX
 72
     1
 11
2.379333585814068
 21
255.2064113180626
 31
0.0
100
AcDbText
  0
LINE
  5
881
330
9B
100
AcDbEntity
 67
     1
  8
PROF_FRM1
 62
     0
100
AcDbLine
 10
0.0
 20
233.871720799752
 30
0.0
 11
4.75866717162815
 21
233.871720799752
 31
0.0
  0
TEXT
  5
882
330
9B
100
AcDbEntity
 67
     1
  8
PROF_FRM2
 62
     0
100
AcDbText
 10
1.665533510069845
 20
209.6818290267312
 30
0.0
 40
2.855200302976891
  1
B
 41
0.75
  7
SIMPLEX
 72
     1
 11
2.379333585814068
 21
209.6818290267312
 31
0.0
100
AcDbText
  0
LINE
  5
883
330
9B
100
AcDbEntity
 67
     1
  8
PROF_FRM1
 62
     0
100
AcDbLine
 10
0.0
 20
188.3471375566871
 30
0.0
 11
4.75866717162815
 21
188.3471375566871
 31
0.0
  0
TEXT
  5
884
330
9B
100
AcDbEntity
 67
     1
  8
PROF_FRM2
 62
     0
100
AcDbText
 10
1.614547790373829
 20
164.1572467353995
 30
0.0
 40
2.855200302976891
  1
C
 41
0.75
  7
SIMPLEX
 72
     1
 11
2.379333585814068
 21
164.1572467353995
 31
0.0
100
AcDbText
  0
LINE
  5
885
330
9B
100
AcDbEntity
 67
     1
  8
PROF_FRM1
 62
     0
100
AcDbLine
 10
0.0
 20
142.8225552653555
 30
0.0
 11
4.75866717162815
 21
142.8225552653555
 31
0.0
  0
TEXT
  5
886
330
9B
100
AcDbEntity
 67
     1
  8
PROF_FRM2
 62
     0
100
AcDbText
 10
1.665533510069845
 20
118.6326634923346
 30
0.0
 40
2.855200302976891
  1
D
 41
0.75
  7
SIMPLEX
 72
     1
 11
2.379333585814068
 21
118.6326634923346
 31
0.0
100
AcDbText
  0
LINE
  5
887
330
9B
100
AcDbEntity
 67
     1
  8
PROF_FRM1
 62
     0
100
AcDbLine
 10
0.0
 20
97.29797297402409
 30
0.0
 11
4.75866717162815
 21
97.29797297402409
 31
0.0
  0
TEXT
  5
888
330
9B
100
AcDbEntity
 67
     1
  8
PROF_FRM2
 62
     0
100
AcDbText
 10
1.716519229765861
 20
73.10808120100316
 30
0.0
 40
2.855200302976891
  1
E
 41
0.75
  7
SIMPLEX
 72
     1
 11
2.379333585814068
 21
73.10808120100316
 31
0.0
100
AcDbText
  0
LINE
  5
889
330
9B
100
AcDbEntity
 67
     1
  8
PROF_FRM1
 62
     0
100
AcDbLine
 10
0.0
 20
51.7733897309591
 30
0.0
 11
4.75866717162815
 21
51.7733897309591
 31
0.0
  0
TEXT
  5
88A
330
9B
100
AcDbEntity
 67
     1
  8
PROF_FRM2
 62
     0
100
AcDbText
 10
1.716519229765861
 20
27.58349890967164
 30
0.0
 40
2.855200302976891
  1
F
 41
0.75
  7
SIMPLEX
 72
     1
 11
2.379333585814068
 21
27.58349890967164
 31
0.0
100
AcDbText
  0
TEXT
  5
88B
330
9B
100
AcDbEntity
 67
     1
  8
PROF_FRM2
 62
     0
100
AcDbText
 10
196.668916107432
 20
255.2064113180626
 30
0.0
 40
2.855200302976891
  1
A
 41
0.75
  7
SIMPLEX
 72
     1
 11
197.4846876225683
 21
255.2064113180626
 31
0.0
100
AcDbText
  0
LINE
  5
88C
330
9B
100
AcDbEntity
 67
     1
  8
PROF_FRM1
 62
     0
100
AcDbLine
 10
199.8640212083824
 20
233.871720799752
 30
0.0
 11
195.1053540367542
 21
233.871720799752
 31
0.0
  0
TEXT
  5
88D
330
9B
100
AcDbEntity
 67
     1
  8
PROF_FRM2
 62
     0
100
AcDbText
 10
196.7708875468241
 20
209.6818290267312
 30
0.0
 40
2.855200302976891
  1
B
 41
0.75
  7
SIMPLEX
 72
     1
 11
197.4846876225683
 21
209.6818290267312
 31
0.0
100
AcDbText
  0
LINE
  5
88E
330
9B
100
AcDbEntity
 67
     1
  8
PROF_FRM1
 62
     0
100
AcDbLine
 10
199.8640212083824
 20
188.3471375566871
 30
0.0
 11
195.1053540367542
 21
188.3471375566871
 31
0.0
  0
TEXT
  5
88F
330
9B
100
AcDbEntity
 67
     1
  8
PROF_FRM2
 62
     0
100
AcDbText
 10
196.719901827128
 20
164.1572467353995
 30
0.0
 40
2.855200302976891
  1
C
 41
0.75
  7
SIMPLEX
 72
     1
 11
197.4846876225683
 21
164.1572467353995
 31
0.0
100
AcDbText
  0
LINE
  5
890
330
9B
100
AcDbEntity
 67
     1
  8
PROF_FRM1
 62
     0
100
AcDbLine
 10
199.8640212083824
 20
142.8225552653555
 30
0.0
 11
195.1053540367542
 21
142.8225552653555
 31
0.0
  0
TEXT
  5
891
330
9B
100
AcDbEntity
 67
     1
  8
PROF_FRM2
 62
     0
100
AcDbText
 10
196.7708875468241
 20
118.6326634923346
 30
0.0
 40
2.855200302976891
  1
D
 41
0.75
  7
SIMPLEX
 72
     1
 11
197.4846876225683
 21
118.6326634923346
 31
0.0
100
AcDbText
  0
LINE
  5
892
330
9B
100
AcDbEntity
 67
     1
  8
PROF_FRM1
 62
     0
100
AcDbLine
 10
199.8640212083824
 20
97.29797297402409
 30
0.0
 11
195.1053540367542
 21
97.29797297402409
 31
0.0
  0
TEXT
  5
893
330
9B
100
AcDbEntity
 67
     1
  8
PROF_FRM2
 62
     0
100
AcDbText
 10
196.8218732665201
 20
73.10808120100316
 30
0.0
 40
2.855200302976891
  1
E
 41
0.75
  7
SIMPLEX
 72
     1
 11
197.4846876225683
 21
73.10808120100316
 31
0.0
100
AcDbText
  0
LINE
  5
894
330
9B
100
AcDbEntity
 67
     1
  8
PROF_FRM1
 62
     0
100
AcDbLine
 10
199.8640212083824
 20
51.7733897309591
 30
0.0
 11
195.1053540367542
 21
51.7733897309591
 31
0.0
  0
TEXT
  5
895
330
9B
100
AcDbEntity
 67
     1
  8
PROF_FRM2
 62
     0
100
AcDbText
 10
196.8218732665201
 20
27.58349890967164
 30
0.0
 40
2.855200302976891
  1
F
 41
0.75
  7
SIMPLEX
 72
     1
 11
197.4846876225683
 21
27.58349890967164
 31
0.0
100
AcDbText
  0
LINE
  5
896
330
9B
100
AcDbEntity
 67
     1
  8
PROF_FRM1
 62
     0
100
AcDbLine
 10
195.1053540367542
 20
6.248807439627592
 30
0.0
 11
46.2295016796666
 21
6.248807439627592
 31
0.0
  0
LINE
  5
898
330
9B
100
AcDbEntity
 67
     1
  8
PROF_FRM1
 62
     0
370
    35
100
AcDbLine
 10
123.8583617044258
 20
60.99955038074057
 30
0.0
 11
195.1053540367542
 21
60.99955038074057
 31
0.0
  0
LINE
  5
899
330
9B
100
AcDbEntity
 67
     1
  8
PROF_FRM1
 62
     0
100
AcDbLine
 10
195.1053540367542
 20
52.56433555483649
 30
0.0
 11
195.1053540367542
 21
6.248807439627592
 31
0.0
  0
MTEXT
  5
89A
330
9B
100
AcDbEntity
 67
     1
  8
0
 62
     0
100
AcDbMText
 10
7.127529896968994
 20
23.87337578917071
 30
0.0
 40
1.427600151488445
 41
28.30076216235537
 46
0.0
 71
     1
 72
     5
  1
{\fTimes New Roman|b0|i0|c238|p18;POUŽÍVANÉ ZAVĚSY}
 73
     1
 44
1.0
1001
ACAD
1000
ACAD_MTEXT_DEFINED_HEIGHT_BEGIN
1070
    46
1040
0.0
1000
ACAD_MTEXT_DEFINED_HEIGHT_END
  0
MTEXT
  5
89B
330
9B
100
AcDbEntity
 67
     1
  8
0
 62
     0
100
AcDbMText
 10
6.989236201436369
 20
11.0901371305236
 30
0.0
 40
2.379333585814076
 41
107.9768921417987
 46
0.0
 71
     1
 72
     5
  1
{\fTimes New Roman|b0|i0|c238|p18; pro OZ34, SD60/10}
 73
     1
 44
1.0
1001
ACAD
1000
ACAD_MTEXT_DEFINED_HEIGHT_BEGIN
1070
    46
1040
0.0
1000
ACAD_MTEXT_DEFINED_HEIGHT_END
  0
LINE
  5
89C
330
9B
100
AcDbEntity
 67
     1
  8
PROF_FRM1
 62
     0
370
    35
100
AcDbLine
 10
123.8583617044258
 20
60.99955038074057
 30
0.0
 11
123.8583617044258
 21
56.94146655333402
 31
0.0
  0
LINE
  5
89D
330
9B
100
AcDbEntity
 67
     1
  8
PROF_FRM1
 62
     0
100
AcDbLine
 10
138.4490417343022
 20
37.53550302723493
 30
0.0
 11
138.4490417343022
 21
60.99955038074057
 31
0.0
  0
LINE
  5
89E
330
9B
100
AcDbEntity
 67
     1
  8
PROF_FRM1
 62
     0
100
AcDbLine
 10
153.2095233558639
 20
37.53550302723493
 30
0.0
 11
153.2095233558639
 21
60.99955038074057
 31
0.0
  0
LINE
  5
89F
330
9B
100
AcDbEntity
 67
     1
  8
PROF_FRM1
 62
     0
100
AcDbLine
 10
171.4844071907431
 20
37.53550302723493
 30
0.0
 11
171.4844071907431
 21
60.99955038074057
 31
0.0
  0
LINE
  5
8A0
330
9B
100
AcDbEntity
 67
     1
  8
PROF_FRM1
 62
     0
100
AcDbLine
 10
138.4490417343022
 20
57.6880828883371
 30
0.0
 11
138.4490417343022
 21
37.53550302723493
 31
0.0
  0
LINE
  5
8A1
330
9B
100
AcDbEntity
 67
     1
  8
PROF_FRM1
 62
     0
100
AcDbLine
 10
138.4490417343022
 20
57.6880828883371
 30
0.0
 11
138.4490417343022
 21
47.61179295778599
 31
0.0
  0
LINE
  5
8A2
330
9B
100
AcDbEntity
 67
     1
  8
PROF_FRM1
 62
     0
100
AcDbLine
 10
138.4490417343022
 20
47.61179295778599
 30
0.0
 11
138.4490417343022
 21
37.53550302723493
 31
0.0
  0
LINE
  5
8A3
330
9B
100
AcDbEntity
 67
     1
  8
PROF_FRM1
 62
     0
100
AcDbLine
 10
171.4844071907431
 20
57.6880828883371
 30
0.0
 11
171.4844071907431
 21
37.53550302723493
 31
0.0
  0
LINE
  5
8A4
330
9B
100
AcDbEntity
 67
     1
  8
PROF_FRM1
 62
     0
100
AcDbLine
 10
195.1053540367542
 20
50.53260242013255
 30
0.0
 11
138.4490417343022
 21
50.53260242013255
 31
0.0
  0
LINE
  5
8A5
330
9B
100
AcDbEntity
 67
     1
  8
PROF_FRM1
 62
     0
100
AcDbLine
 10
195.1053540367542
 20
43.93378540380182
 30
0.0
 11
138.4490417343022
 21
43.93378540380182
 31
0.0
  0
MTEXT
  5
8A6
330
9B
100
AcDbEntity
 67
     1
  8
0
 62
     0
100
AcDbMText
 10
139.9234164290952
 20
47.92213074370286
 30
0.0
 40
1.61794683835357
 41
9.556305339725826
 46
0.0
 71
     1
 72
     5
  1
{\fTimes New Roman|b0|i0|c238|p18;KRESLIL}
 73
     1
 44
1.0
  0
MTEXT
  5
8A7
330
9B
100
AcDbEntity
 67
     1
  8
0
 62
     0
100
AcDbMText
 10
140.0842041656307
 20
41.91421513025907
 30
0.0
 40
1.61794683835357
 41
9.556305339725826
 46
0.0
 71
     1
 72
     5
  1
{\fTimes New Roman|b0|i0|c238|p18;SCHVÁLIL}
 73
     1
 44
1.0
  0
MTEXT
  5
8AB
330
9B
100
AcDbEntity
 67
     1
  8
0
 62
     0
100
AcDbMText
 10
140.6709692801763
 20
60.01554787739049
 30
0.0
 40
1.427600151488445
 41
8.474458235894076
 46
0.0
 71
     1
 72
     5
  1
{\fTimes New Roman|b0|i0|c238|p18;\H1.133x;05.04.2006}
 73
     1
 44
1.0
1001
ACAD
1000
ACAD_MTEXT_DEFINED_HEIGHT_BEGIN
1070
    46
1040
0.0
1000
ACAD_MTEXT_DEFINED_HEIGHT_END
  0
MTEXT
  5
8AC
330
9B
100
AcDbEntity
 67
     1
  8
0
 62
     0
100
AcDbMText
 10
157.4966596331346
 20
60.41926658279816
 30
0.0
 40
1.427600151488445
 41
8.474458235894076
 46
0.0
 71
     1
 72
     5
  1
{\fTimes New Roman|b0|i0|c238|p18;\H1.133x;JMÉNO}
 73
     1
 44
1.0
  0
MTEXT
  5
8AD
330
9B
100
AcDbEntity
 67
     1
  8
0
 62
     0
100
AcDbMText
 10
178.8323565051092
 20
60.01554787739049
 30
0.0
 40
1.427600151488445
 41
8.474458235894076
 46
0.0
 71
     1
 72
     5
  1
{\fTimes New Roman|b0|i0|c238|p18;\H1.133x;PODPIS}
 73
     1
 44
1.0
  0
VIEWPORT
  5
19B7
330
9B
100
AcDbEntity
 67
     1
  8
VAREZ
100
AcDbViewport
 10
105.060283543644
 20
221.6267462227374
 30
0.0
 40
200.6032327440317
 41
115.5391137366923
 68
     3
 69
     3
 12
71.97939259977862
 22
30.25903891163139
 13
0.0
 23
0.0
 14
0.5
 24
0.5
 15
0.5
 25
0.5
 16
0.0
 26
0.0
 36
3683.757936864092
 17
2330.176412585604
 27
2227.77790920818
 37
0.0
 42
50.0
 43
0.0
 44
0.0
 45
1621.683425681958
 50
0.0
 51
0.0
 72
  1000
 90
    32864
  1

281
     0
 71
     1
 74
     0
110
0.0
120
0.0
130
0.0
111
1.0
121
0.0
131
0.0
112
0.0
122
1.0
132
0.0
 79
     0
146
0.0
170
     0
 61
     5
348
2975
292
     1
282
     1
141
0.0
142
0.0
 63
   250
421
  3355443
  0
LINE
  5
225F
330
9B
100
AcDbEntity
 67
     1
  8
0
 62
     0
370
    35
100
AcDbLine
 10
95.75241365653619
 20
37.53550302723493
 30
0.0
 11
95.75241365653619
 21
24.8687690036047
 31
0.0
  0
MTEXT
  5
2260
330
9B
100
AcDbEntity
 67
     1
  8
0
 62
     0
100
AcDbMText
 10
99.11146659589007
 20
36.56920453564512
 30
0.0
 40
1.427600151488445
 41
35.00048795806895
 46
0.0
 71
     1
 72
     5
  1
{\fTimes New Roman|b0|i0|c238|p18;POUŽITÍ}
 73
     1
 44
1.0
1001
ACAD
1000
ACAD_MTEXT_DEFINED_HEIGHT_BEGIN
1070
    46
1040
0.0
1000
ACAD_MTEXT_DEFINED_HEIGHT_END
  0
MTEXT
  5
2261
330
9B
100
AcDbEntity
 67
     1
  8
0
 62
     0
100
AcDbMText
 10
7.127529896968994
 20
14.79039216718068
 30
0.0
 40
1.427600151488445
 41
28.30076216235537
 46
0.0
 71
     1
 72
     5
  1
{\fTimes New Roman|b0|i0|c238|p18;POUŽÍVANÉ VLOŽKY}
 73
     1
 44
1.0
1001
ACAD
1000
ACAD_MTEXT_DEFINED_HEIGHT_BEGIN
1070
    46
1040
0.0
1000
ACAD_MTEXT_DEFINED_HEIGHT_END
  0
MTEXT
  5
2262
330
9B
100
AcDbEntity
 67
     1
  8
0
 62
     0
100
AcDbMText
 10
6.989236201436362
 20
20.4001179125121
 30
0.0
 40
2.379333585814076
 41
107.9768921417987
 46
0.0
 71
     1
 72
     5
  1
{\fTimes New Roman|b0|i0|c238|p18;OZ30, OZ50}
 73
     1
 44
1.0
1001
ACAD
1000
ACAD_MTEXT_DEFINED_HEIGHT_BEGIN
1070
    46
1040
0.0
1000
ACAD_MTEXT_DEFINED_HEIGHT_END
  0
LINE
  5
22A2
330
9B
100
AcDbEntity
 67
     1
  8
0
 62
     0
370
    35
100
AcDbLine
 10
4.758667171628153
 20
56.94146655333402
 30
0.0
 11
4.758667171628153
 21
6.248807439627592
 31
0.0
  0
LINE
  5
22A3
330
9B
100
AcDbEntity
 67
     1
  8
0
 62
     0
370
    35
100
AcDbLine
 10
195.1053540367542
 20
60.99955038074057
 30
0.0
 11
195.1053540367542
 21
6.24880743962759
 31
0.0
  0
ENDSEC
  0
SECTION
  2
OBJECTS
  0
DICTIONARY
  5
C
330
0
100
AcDbDictionary
281
     1
  3
ACAD_CIP_PREVIOUS_PRODUCT_INFO
350
29E9
  3
ACAD_COLOR
350
73
  3
ACAD_DETAILVIEWSTYLE
350
299E
  3
ACAD_GROUP
350
D
  3
ACAD_LAYOUT
350
1A
  3
ACAD_MATERIAL
350
72
  3
ACAD_MLEADERSTYLE
350
299A
  3
ACAD_MLINESTYLE
350
17
  3
ACAD_PLOTSETTINGS
350
19
  3
ACAD_PLOTSTYLENAME
350
E
  3
ACAD_SCALELIST
350
2988
  3
ACAD_SECTIONVIEWSTYLE
350
299C
  3
ACAD_TABLESTYLE
350
86
  3
ACAD_VISUALSTYLE
350
296F
  3
ACDB_RECOMPOSE_DATA
350
2A93
  3
AcDbVariableDictionary
350
66
  0
DICTIONARY
  5
238
330
2
100
AcDbDictionary
280
     1
281
     1
  3
ACAD_LAYERFILTERS
360
24F
  3
ACAD_LAYERSTATES
360
239
  3
ACLYDICTIONARY
360
24E
  0
DICTIONARY
  5
2A7A
330
10
100
AcDbDictionary
280
     1
281
     1
  3
ADSK_XREC_LAYER_RECONCILED
360
2A7B
  0
DICTIONARY
  5
2A7C
330
1B3
100
AcDbDictionary
280
     1
281
     1
  3
ADSK_XREC_LAYER_RECONCILED
360
2A7D
  0
DICTIONARY
  5
2A7E
330
1B4
100
AcDbDictionary
280
     1
281
     1
  3
ADSK_XREC_LAYER_RECONCILED
360
2A7F
  0
DICTIONARY
  5
2A80
330
1B5
100
AcDbDictionary
280
     1
281
     1
  3
ADSK_XREC_LAYER_RECONCILED
360
2A81
  0
DICTIONARY
  5
2A82
330
1B6
100
AcDbDictionary
280
     1
281
     1
  3
ADSK_XREC_LAYER_RECONCILED
360
2A83
  0
DICTIONARY
  5
2A84
330
24C
100
AcDbDictionary
280
     1
281
     1
  3
ADSK_XREC_LAYER_RECONCILED
360
2A85
  0
DICTIONARY
  5
2A86
330
20B9
100
AcDbDictionary
280
     1
281
     1
  3
ADSK_XREC_LAYER_RECONCILED
360
2A87
  0
DICTIONARY
  5
8DA
330
1F
100
AcDbDictionary
280
     1
281
     1
  3
ACAD_SORTENTS
360
8DB
  0
DICTIONARY
  5
8AE
330
9B
100
AcDbDictionary
280
     1
281
     1
  3
ACAD_SORTENTS
360
8AF
  0
DICTIONARY
  5
225
330
1BE
100
AcDbDictionary
280
     1
281
     1
  3
ACAD_SORTENTS
360
226
  0
DICTIONARY
  5
6BE
330
6BD
100
AcDbDictionary
280
     1
281
     1
  3
ACAD_DIMASSOC
360
6BF
  0
XRECORD
  5
29E9
102
{ACAD_REACTORS
330
C
102
}
330
C
100
AcDbXrecord
280
     1
300
ACDLT
300
2020
300
ACDLT_F_S
  0
DICTIONARY
  5
73
102
{ACAD_REACTORS
330
C
102
}
330
C
100
AcDbDictionary
281
     1
  0
DICTIONARY
  5
299E
102
{ACAD_REACTORS
330
C
102
}
330
C
100
AcDbDictionary
281
     1
  3
Metric50
350
299F
  0
DICTIONARY
  5
D
102
{ACAD_REACTORS
330
C
102
}
330
C
100
AcDbDictionary
281
     1
  0
DICTIONARY
  5
1A
102
{ACAD_REACTORS
330
C
102
}
330
C
100
AcDbDictionary
281
     1
  3
Model
350
22
  3
Montkov_A4
350
9C
  0
DICTIONARY
  5
72
102
{ACAD_REACTORS
330
C
102
}
330
C
100
AcDbDictionary
281
     1
  3
ByBlock
350
295F
  3
ByLayer
350
2957
  3
Global
350
2967
  0
DICTIONARY
  5
299A
102
{ACAD_REACTORS
330
C
102
}
330
C
100
AcDbDictionary
281
     1
  3
Standard
350
299B
  0
DICTIONARY
  5
17
102
{ACAD_REACTORS
330
C
102
}
330
C
100
AcDbDictionary
281
     1
  3
Standard
350
18
  0
DICTIONARY
  5
19
102
{ACAD_REACTORS
330
C
102
}
330
C
100
AcDbDictionary
281
     1
  3
montkov
350
1BD
  0
ACDBDICTIONARYWDFLT
  5
E
102
{ACAD_REACTORS
330
C
102
}
330
C
100
AcDbDictionary
281
     1
  3
Normal
350
F
100
AcDbDictionaryWithDefault
340
F
  0
DICTIONARY
  5
2988
102
{ACAD_REACTORS
330
C
102
}
330
C
100
AcDbDictionary
281
     1
  3
A0
350
2989
  3
A1
350
298A
  3
A2
350
298B
  3
A3
350
298C
  3
A4
350
298D
  3
A5
350
298E
  3
A6
350
298F
  3
A7
350
2990
  3
A8
350
2991
  3
A9
350
2992
  3
B0
350
2993
  3
B1
350
2994
  3
B2
350
2995
  3
B3
350
2996
  3
B4
350
2997
  3
B5
350
2998
  3
B6
350
2999
  0
DICTIONARY
  5
299C
102
{ACAD_REACTORS
330
C
102
}
330
C
100
AcDbDictionary
281
     1
  3
Metric50
350
299D
  0
DICTIONARY
  5
86
102
{ACAD_REACTORS
330
C
102
}
330
C
100
AcDbDictionary
281
     1
  3
Standard
350
87
  0
DICTIONARY
  5
296F
102
{ACAD_REACTORS
330
C
102
}
330
C
100
AcDbDictionary
281
     1
  3
2dWireframe
350
2975
  3
Basic
350
2974
  3
Brighten
350
297B
  3
ColorChange
350
297F
  3
Conceptual
350
2978
  3
Dim
350
297A
  3
EdgeColorOff
350
2987
  3
Facepattern
350
297E
  3
Flat
350
2970
  3
FlatWithEdges
350
2971
  3
Gouraud
350
2972
  3
GouraudWithEdges
350
2973
  3
Hidden
350
2977
  3
JitterOff
350
2985
  3
Linepattern
350
297D
  3
OverhangOff
350
2986
  3
Realistic
350
2979
  3
Shaded
350
2984
  3
Shaded with edges
350
2983
  3
Shades of Gray
350
2980
  3
Sketchy
350
2981
  3
Thicken
350
297C
  3
Wireframe
350
2976
  3
X-Ray
350
2982
  0
XRECORD
  5
2A93
102
{ACAD_REACTORS
330
C
102
}
330
C
100
AcDbXrecord
280
     1
 90
        1
330
87
  0
DICTIONARY
  5
66
102
{ACAD_REACTORS
330
C
102
}
330
C
100
AcDbDictionary
281
     1
  3
CANNOSCALE
350
2A8C
  3
CMLEADERSTYLE
350
2A88
  3
CTABLESTYLE
350
8B
  3
CVIEWDETAILSTYLE
350
2A89
  3
CVIEWSECTIONSTYLE
350
2A8A
  3
DIMASSOC
350
67
  3
HIDETEXT
350
6B
  3
LAYEREVAL
350
2A8E
  3
LAYERNOTIFY
350
2A8F
  3
LIGHTINGUNITS
350
2A8D
  3
MSLTSCALE
350
2A8B
  0
DICTIONARY
  5
24F
102
{ACAD_REACTORS
330
238
102
}
330
238
100
AcDbDictionary
281
     1
  0
DICTIONARY
  5
239
102
{ACAD_REACTORS
330
238
102
}
330
238
100
AcDbDictionary
281
     1
  0
DICTIONARY
  5
24E
102
{ACAD_REACTORS
330
238
102
}
330
238
100
AcDbDictionary
281
     1
1001
ACAD
1000
<All
  0
XRECORD
  5
2A7B
102
{ACAD_REACTORS
330
2A7A
102
}
330
2A7A
100
AcDbXrecord
280
     1
290
     1
  0
XRECORD
  5
2A7D
102
{ACAD_REACTORS
330
2A7C
102
}
330
2A7C
100
AcDbXrecord
280
     1
290
     1
  0
XRECORD
  5
2A7F
102
{ACAD_REACTORS
330
2A7E
102
}
330
2A7E
100
AcDbXrecord
280
     1
290
     1
  0
XRECORD
  5
2A81
102
{ACAD_REACTORS
330
2A80
102
}
330
2A80
100
AcDbXrecord
280
     1
290
     1
  0
XRECORD
  5
2A83
102
{ACAD_REACTORS
330
2A82
102
}
330
2A82
100
AcDbXrecord
280
     1
290
     1
  0
XRECORD
  5
2A85
102
{ACAD_REACTORS
330
2A84
102
}
330
2A84
100
AcDbXrecord
280
     1
290
     1
  0
XRECORD
  5
2A87
102
{ACAD_REACTORS
330
2A86
102
}
330
2A86
100
AcDbXrecord
280
     1
290
     1
  0
SORTENTSTABLE
  5
8DB
102
{ACAD_REACTORS
330
8DA
102
}
330
8DA
100
AcDbSortentsTable
330
1F
331
6C6
  5
6C7
331
6C7
  5
6C8
331
6C8
  5
6C9
331
6C9
  5
6CA
331
6CA
  5
6CB
331
6CB
  5
6CC
331
6CC
  5
6CD
331
6CD
  5
6CE
331
6CE
  5
6CF
331
6CF
  5
6D0
331
6D0
  5
6D1
331
6D1
  5
6D2
331
6D2
  5
6D3
331
6D3
  5
6D4
331
6D4
  5
6D5
331
6D5
  5
6D6
331
6D6
  5
6D7
331
6D7
  5
6D8
331
6D8
  5
6D9
331
6D9
  5
6DA
331
6DA
  5
6DB
331
6DB
  5
6DC
331
6DC
  5
6DD
331
6DD
  5
6DE
331
6DE
  5
6DF
331
6DF
  5
6E0
331
6E0
  5
6E1
331
6E1
  5
6E2
331
6E2
  5
6E3
331
6E3
  5
6E4
331
6E4
  5
6E5
331
6E5
  5
6E6
331
6E6
  5
6E7
331
6E7
  5
6E8
331
6E8
  5
6E9
331
6E9
  5
6EA
331
6EA
  5
6EB
331
6EB
  5
6EC
331
6EC
  5
6ED
331
6ED
  5
6EE
331
6EE
  5
6EF
331
6EF
  5
6F0
331
6F0
  5
6F1
331
6F1
  5
6F2
331
6F2
  5
6F3
331
6F3
  5
6F4
331
6F4
  5
6F5
331
6F5
  5
6F6
331
6F6
  5
6F7
331
6F7
  5
6F8
331
6F8
  5
6F9
331
6F9
  5
6FA
331
6FB
  5
6FC
331
6FC
  5
8C9
331
222C
  5
222D
331
222D
  5
222E
331
222E
  5
222F
331
222F
  5
2230
331
2230
  5
2231
331
2231
  5
2232
331
2232
  5
2233
331
2233
  5
2234
331
2234
  5
2235
331
2235
  5
2236
331
2236
  5
2237
331
2237
  5
2238
331
2238
  5
2239
331
2239
  5
223A
331
223A
  5
223B
331
223B
  5
223C
331
223C
  5
223D
331
223D
  5
223E
331
223E
  5
223F
331
223F
  5
2240
331
2240
  5
2241
331
2241
  5
2242
331
2242
  5
2243
331
2243
  5
2244
331
2244
  5
2245
331
2245
  5
2246
331
2246
  5
2247
331
2247
  5
2248
331
2248
  5
2249
331
2249
  5
224A
331
224A
  5
224B
331
224B
  5
224C
331
224C
  5
224D
331
224D
  5
224E
331
224E
  5
224F
331
224F
  5
2250
331
2250
  5
2251
331
2251
  5
2252
331
2252
  5
2253
331
2253
  5
2254
331
2254
  5
2255
331
2255
  5
2256
331
2256
  5
226E
331
2752
  5
276A
331
276A
  5
27D9
331
27D9
  5
27DB
331
27DA
  5
27DC
331
27DB
  5
27DD
331
27DC
  5
27DE
331
27DD
  5
27DF
331
27DE
  5
27E0
331
27DF
  5
27E1
331
27E0
  5
27E2
331
27E2
  5
27E4
331
27E3
  5
27E5
331
27E4
  5
27E6
331
27E5
  5
27E7
331
27E6
  5
27E8
331
27E7
  5
27E9
331
27E8
  5
27EA
331
27E9
  5
27EB
331
27EA
  5
27EC
331
27EB
  5
27ED
331
27EC
  5
27EE
331
27ED
  5
27EF
331
27EE
  5
27F0
331
27F0
  5
27F2
331
27F1
  5
27F3
331
2865
  5
294A
331
2874
  5
294B
  0
SORTENTSTABLE
  5
8AF
102
{ACAD_REACTORS
330
8AE
102
}
330
8AE
100
AcDbSortentsTable
330
9B
  0
SORTENTSTABLE
  5
226
102
{ACAD_REACTORS
330
225
102
}
330
225
100
AcDbSortentsTable
330
1BE
  0
DIMASSOC
  5
6BF
102
{ACAD_REACTORS
330
6BE
102
}
330
6BE
100
AcDbDimAssoc
330
6BD
 90
        1
 70
     0
 71
     0
  1
AcDbOsnapPointRef
 72
     1
331
6AE
 73
     2
 91
        0
 40
1.0
 10
0.0
 20
0.0
 30
2.000000000000000E+50
 75
     0
  0
ACDBDETAILVIEWSTYLE
  5
299F
102
{ACAD_REACTORS
330
299E
102
}
330
299E
100
AcDbModelDocViewStyle
 70
     0
  3
Metric50
290
     0
300
Metric50
 90
        0
100
AcDbDetailViewStyle
 70
     0
 71
     0
 90
        3
 71
     1
340
11
 62
   256
 40
5.0
340
0
 62
   256
 40
5.0
300

 40
0.0
280
     1
 71
     2
340
16
 90
       25
 62
   256
 71
     3
340
11
 62
   256
 40
5.0
 90
        0
 40
15.0
 90
        1
300
%<\AcVar ViewDetailId>% (%<\AcVar ViewScale \f "%sn">%)
 71
     4
340
16
 90
       25
 62
   256
340
16
 90
       25
 62
   256
280
     0
  0
LAYOUT
  5
22
102
{ACAD_REACTORS
330
1A
102
}
330
1A
100
AcDbPlotSettings
  1

  2
\\NDS\lj3020 q1
  4
A4
  6

 40
5.027083396911621
 41
5.069413185119628
 42
5.027084350585936
 43
5.027069091796875
 44
209.9733276367186
 45
296.9683227539062
 46
0.0
 47
82.32039724483716
 48
0.0
 49
0.0
140
0.0
141
0.0
142
1.0
143
0.074104052474233
 70
 11956
 72
     1
 73
     0
 74
     0
  7

 75
     0
147
13.49453864682655
 76
     0
 77
     2
 78
   300
148
1.407409957517708
149
0.0289079229122056
100
AcDbLayout
  1
Model
 70
     1
 71
     0
 10
0.0
 20
0.0
 11
12.0
 21
9.0
 12
0.0
 22
0.0
 32
0.0
 14
0.0
 24
0.0
 34
0.0
 15
0.0
 25
0.0
 35
0.0
146
0.0
 13
0.0
 23
0.0
 33
0.0
 16
1.0
 26
0.0
 36
0.0
 17
0.0
 27
1.0
 37
0.0
 76
     0
330
1F
331
294D
1001
ACAD_PSEXT
1000
\\NDS\lj3020 q1
1000
hp LaserJet 3020 PCL 6
1000
\\NDS\lj3020 q1
1000

1070
     0
  0
LAYOUT
  5
9C
102
{ACAD_XDICTIONARY
360
23B
102
}
102
{ACAD_REACTORS
330
1A
102
}
330
1A
100
AcDbPlotSettings
  1

  2
\\NDS\lj3020 q1
  4
A4
  6

 40
5.027083396911621
 41
5.069413185119628
 42
5.027084350585936
 43
5.027069091796875
 44
209.9733276367186
 45
296.9683227539062
 46
0.0
 47
0.0
 48
0.0
 49
0.0
140
0.0
141
0.0
142
1.0
143
1.0
 70
   688
 72
     1
 73
     0
 74
     5
  7

 75
    16
147
1.0
 76
     0
 77
     2
 78
   300
148
0.0
149
0.0
100
AcDbLayout
  1
Montkov_A4
 70
     1
 71
     1
 10
-5.027083396911621
 20
-5.069413185119628
 11
204.946244239807
 21
291.8989095687866
 12
0.0
 22
0.0
 32
0.0
 14
0.0
 24
1.490140267999436
 34
0.0
 15
205.3618999156599
 25
284.1549702627116
 35
0.0
146
0.0
 13
0.0
 23
0.0
 33
0.0
 16
1.0
 26
0.0
 36
0.0
 17
0.0
 27
1.0
 37
0.0
 76
     0
330
9B
331
A4
1001
ACAD_PSEXT
1000
\\NDS\lj3020 q1
1000
hp LaserJet 3020 PCL 6
1000
\\NDS\lj3020 q1
1000

1070
     0
  0
MATERIAL
  5
295F
102
{ACAD_XDICTIONARY
360
2960
102
}
102
{ACAD_REACTORS
330
72
102
}
330
72
100
AcDbMaterial
  1
ByBlock
 72
     0
 43
0.0008202099737533
 43
0.0
 43
0.0
 43
0.0
 43
0.0
 43
0.0008202099737533
 43
0.0
 43
0.0
 43
0.0
 43
0.0
 43
1.0
 43
0.0
 43
0.0
 43
0.0
 43
0.0
 43
1.0
 77
     0
 47
0.0008202099737533
 47
0.0
 47
0.0
 47
0.0
 47
0.0
 47
0.0008202099737533
 47
0.0
 47
0.0
 47
0.0
 47
0.0
 47
1.0
 47
0.0
 47
0.0
 47
0.0
 47
0.0
 47
1.0
171
     0
 49
0.0008202099737533
 49
0.0
 49
0.0
 49
0.0
 49
0.0
 49
0.0008202099737533
 49
0.0
 49
0.0
 49
0.0
 49
0.0
 49
1.0
 49
0.0
 49
0.0
 49
0.0
 49
0.0
 49
1.0
175
     0
142
0.0008202099737533
142
0.0
142
0.0
142
0.0
142
0.0
142
0.0008202099737533
142
0.0
142
0.0
142
0.0
142
0.0
142
1.0
142
0.0
142
0.0
142
0.0
142
0.0
142
1.0
179
     0
144
0.0008202099737533
144
0.0
144
0.0
144
0.0
144
0.0
144
0.0008202099737533
144
0.0
144
0.0
144
0.0
144
0.0
144
1.0
144
0.0
144
0.0
144
0.0
144
0.0
144
1.0
147
0.0008202099737533
147
0.0
147
0.0
147
0.0
147
0.0
147
0.0008202099737533
147
0.0
147
0.0
147
0.0
147
0.0
147
1.0
147
0.0
147
0.0
147
0.0
147
0.0
147
1.0
  0
MATERIAL
  5
2957
102
{ACAD_XDICTIONARY
360
2958
102
}
102
{ACAD_REACTORS
330
72
102
}
330
72
100
AcDbMaterial
  1
ByLayer
 72
     0
 43
0.0008202099737533
 43
0.0
 43
0.0
 43
0.0
 43
0.0
 43
0.0008202099737533
 43
0.0
 43
0.0
 43
0.0
 43
0.0
 43
1.0
 43
0.0
 43
0.0
 43
0.0
 43
0.0
 43
1.0
 77
     0
 47
0.0008202099737533
 47
0.0
 47
0.0
 47
0.0
 47
0.0
 47
0.0008202099737533
 47
0.0
 47
0.0
 47
0.0
 47
0.0
 47
1.0
 47
0.0
 47
0.0
 47
0.0
 47
0.0
 47
1.0
171
     0
 49
0.0008202099737533
 49
0.0
 49
0.0
 49
0.0
 49
0.0
 49
0.0008202099737533
 49
0.0
 49
0.0
 49
0.0
 49
0.0
 49
1.0
 49
0.0
 49
0.0
 49
0.0
 49
0.0
 49
1.0
175
     0
142
0.0008202099737533
142
0.0
142
0.0
142
0.0
142
0.0
142
0.0008202099737533
142
0.0
142
0.0
142
0.0
142
0.0
142
1.0
142
0.0
142
0.0
142
0.0
142
0.0
142
1.0
179
     0
144
0.0008202099737533
144
0.0
144
0.0
144
0.0
144
0.0
144
0.0008202099737533
144
0.0
144
0.0
144
0.0
144
0.0
144
1.0
144
0.0
144
0.0
144
0.0
144
0.0
144
1.0
147
0.0008202099737533
147
0.0
147
0.0
147
0.0
147
0.0
147
0.0008202099737533
147
0.0
147
0.0
147
0.0
147
0.0
147
1.0
147
0.0
147
0.0
147
0.0
147
0.0
147
1.0
  0
MATERIAL
  5
2967
102
{ACAD_XDICTIONARY
360
2968
102
}
102
{ACAD_REACTORS
330
72
102
}
330
72
100
AcDbMaterial
  1
Global
 72
     0
 43
0.0008202099737533
 43
0.0
 43
0.0
 43
0.0
 43
0.0
 43
0.0008202099737533
 43
0.0
 43
0.0
 43
0.0
 43
0.0
 43
1.0
 43
0.0
 43
0.0
 43
0.0
 43
0.0
 43
1.0
 77
     0
 47
0.0008202099737533
 47
0.0
 47
0.0
 47
0.0
 47
0.0
 47
0.0008202099737533
 47
0.0
 47
0.0
 47
0.0
 47
0.0
 47
1.0
 47
0.0
 47
0.0
 47
0.0
 47
0.0
 47
1.0
171
     0
 49
0.0008202099737533
 49
0.0
 49
0.0
 49
0.0
 49
0.0
 49
0.0008202099737533
 49
0.0
 49
0.0
 49
0.0
 49
0.0
 49
1.0
 49
0.0
 49
0.0
 49
0.0
 49
0.0
 49
1.0
175
     0
142
0.0008202099737533
142
0.0
142
0.0
142
0.0
142
0.0
142
0.0008202099737533
142
0.0
142
0.0
142
0.0
142
0.0
142
1.0
142
0.0
142
0.0
142
0.0
142
0.0
142
1.0
179
     0
144
0.0008202099737533
144
0.0
144
0.0
144
0.0
144
0.0
144
0.0008202099737533
144
0.0
144
0.0
144
0.0
144
0.0
144
1.0
144
0.0
144
0.0
144
0.0
144
0.0
144
1.0
147
0.0008202099737533
147
0.0
147
0.0
147
0.0
147
0.0
147
0.0008202099737533
147
0.0
147
0.0
147
0.0
147
0.0
147
1.0
147
0.0
147
0.0
147
0.0
147
0.0
147
1.0
  0
MLEADERSTYLE
  5
299B
102
{ACAD_REACTORS
330
299A
102
}
330
299A
100
AcDbMLeaderStyle
179
     2
170
     2
171
     1
172
     0
 90
        2
 40
0.0
 41
0.0
173
     1
 91
-1056964608
340
14
 92
       -2
290
     1
 42
2.0
291
     1
 43
0.36
  3
Standard
 44
4.0
300

342
11
174
     1
178
     6
175
     1
176
     0
 93
-1056964608
 45
4.0
292
     0
297
     0
 46
4.0
 94
-1056964608
 47
1.0
 49
1.0
140
1.0
293
     1
141
0.0
294
     1
177
     0
142
1.0
295
     0
296
     0
143
0.125
271
     0
272
     9
273
     9
298
     0
  0
MLINESTYLE
  5
18
102
{ACAD_REACTORS
330
17
102
}
330
17
100
AcDbMlineStyle
  2
STANDARD
 70
     0
  3

 62
   256
 51
90.0
 52
90.0
 71
     2
 49
0.5
 62
   256
  6
BYLAYER
 49
-0.5
 62
   256
  6
BYLAYER
  0
PLOTSETTINGS
  5
1BD
102
{ACAD_REACTORS
330
19
102
}
330
19
100
AcDbPlotSettings
  1
montkov
  2
HP DesignJet 500 24 by HP
  4
User268
  6

 40
4.995333194732666
 41
16.97565841674804
 42
4.995330810546875
 43
16.97567749023437
 44
209.9733276367186
 45
296.9259948730469
 46
7.009999999999998
 47
0.0
 48
0.0
 49
0.0
140
0.0
141
0.0
142
1.0
143
1.050441699559238
 70
  1716
 72
     1
 73
     0
 74
     1
  7

 75
     0
147
0.951980486322655
 76
     0
 77
     0
 78
   300
148
0.0128164049386896
149
0.0090630292066862
  0
ACDBPLACEHOLDER
  5
F
102
{ACAD_REACTORS
330
E
102
}
330
E
  0
SCALE
  5
2989
102
{ACAD_REACTORS
330
2988
102
}
330
2988
100
AcDbScale
 70
     0
300
1:1
140
1.0
141
1.0
290
     1
  0
SCALE
  5
298A
102
{ACAD_REACTORS
330
2988
102
}
330
2988
100
AcDbScale
 70
     0
300
1:2
140
1.0
141
2.0
290
     0
  0
SCALE
  5
298B
102
{ACAD_REACTORS
330
2988
102
}
330
2988
100
AcDbScale
 70
     0
300
1:4
140
1.0
141
4.0
290
     0
  0
SCALE
  5
298C
102
{ACAD_REACTORS
330
2988
102
}
330
2988
100
AcDbScale
 70
     0
300
1:5
140
1.0
141
5.0
290
     0
  0
SCALE
  5
298D
102
{ACAD_REACTORS
330
2988
102
}
330
2988
100
AcDbScale
 70
     0
300
1:8
140
1.0
141
8.0
290
     0
  0
SCALE
  5
298E
102
{ACAD_REACTORS
330
2988
102
}
330
2988
100
AcDbScale
 70
     0
300
1:10
140
1.0
141
10.0
290
     0
  0
SCALE
  5
298F
102
{ACAD_REACTORS
330
2988
102
}
330
2988
100
AcDbScale
 70
     0
300
1:16
140
1.0
141
16.0
290
     0
  0
SCALE
  5
2990
102
{ACAD_REACTORS
330
2988
102
}
330
2988
100
AcDbScale
 70
     0
300
1:20
140
1.0
141
20.0
290
     0
  0
SCALE
  5
2991
102
{ACAD_REACTORS
330
2988
102
}
330
2988
100
AcDbScale
 70
     0
300
1:30
140
1.0
141
30.0
290
     0
  0
SCALE
  5
2992
102
{ACAD_REACTORS
330
2988
102
}
330
2988
100
AcDbScale
 70
     0
300
1:40
140
1.0
141
40.0
290
     0
  0
SCALE
  5
2993
102
{ACAD_REACTORS
330
2988
102
}
330
2988
100
AcDbScale
 70
     0
300
1:50
140
1.0
141
50.0
290
     0
  0
SCALE
  5
2994
102
{ACAD_REACTORS
330
2988
102
}
330
2988
100
AcDbScale
 70
     0
300
1:100
140
1.0
141
100.0
290
     0
  0
SCALE
  5
2995
102
{ACAD_REACTORS
330
2988
102
}
330
2988
100
AcDbScale
 70
     0
300
2:1
140
2.0
141
1.0
290
     0
  0
SCALE
  5
2996
102
{ACAD_REACTORS
330
2988
102
}
330
2988
100
AcDbScale
 70
     0
300
4:1
140
4.0
141
1.0
290
     0
  0
SCALE
  5
2997
102
{ACAD_REACTORS
330
2988
102
}
330
2988
100
AcDbScale
 70
     0
300
8:1
140
8.0
141
1.0
290
     0
  0
SCALE
  5
2998
102
{ACAD_REACTORS
330
2988
102
}
330
2988
100
AcDbScale
 70
     0
300
10:1
140
10.0
141
1.0
290
     0
  0
SCALE
  5
2999
102
{ACAD_REACTORS
330
2988
102
}
330
2988
100
AcDbScale
 70
     0
300
100:1
140
100.0
141
1.0
290
     0
  0
ACDBSECTIONVIEWSTYLE
  5
299D
102
{ACAD_REACTORS
330
299C
102
}
330
299C
100
AcDbModelDocViewStyle
 70
     0
  3
Metric50
290
     0
300
Metric50
 90
        0
100
AcDbSectionViewStyle
 70
     0
 71
     0
 90
      102
 71
     1
340
11
 62
   256
 40
5.0
340
0
340
0
 62
   256
 40
5.0
300
I, O, Q, S, X, Z
 40
10.0
 90
        0
 40
2.5
 90
        0
 71
     2
340
16
 90
       25
 62
   256
340
16
 90
       50
 62
   256
 40
5.0
 40
2.5
 40
5.0
 71
     3
340
11
 62
   256
 40
5.0
 90
        0
 40
15.0
 90
        1
300
%<\AcVar ViewSectionStartId>%-%<\AcVar ViewSectionEndId>% (%<\AcVar ViewScale \f "%sn">%)
 71
     4
 62
   256
 62
   257
300
ANSI31
 40
1.0
 90
        0
290
     0
290
     0
 90
        6
 40
0.0
 40
1.570796326794896
 40
0.2617993877991494
 40
1.308996938995747
 40
-0.2617993877991494
 40
1.832595714594046
  0
TABLESTYLE
  5
87
102
{ACAD_XDICTIONARY
360
2A91
102
}
102
{ACAD_REACTORS
330
86
102
}
330
86
100
AcDbTableStyle
280
     0
  3
Standard
 70
     0
 71
     0
 40
0.06
 41
0.06
280
     0
281
     0
  7
Standard
140
0.18
170
     2
 62
     0
 63
     7
283
     0
 90
        4
 91
        0
  1

274
    -2
284
     1
 64
     0
275
    -2
285
     1
 65
     0
276
    -2
286
     1
 66
     0
277
    -2
287
     1
 67
     0
278
    -2
288
     1
 68
     0
279
    -2
289
     1
 69
     0
  7
Standard
140
0.25
170
     5
 62
     0
 63
     7
283
     0
 90
        4
 91
        0
  1

274
    -2
284
     1
 64
     0
275
    -2
285
     1
 65
     0
276
    -2
286
     1
 66
     0
277
    -2
287
     1
 67
     0
278
    -2
288
     1
 68
     0
279
    -2
289
     1
 69
     0
  7
Standard
140
0.18
170
     5
 62
     0
 63
     7
283
     0
 90
        4
 91
        0
  1

274
    -2
284
     1
 64
     0
275
    -2
285
     1
 65
     0
276
    -2
286
     1
 66
     0
277
    -2
287
     1
 67
     0
278
    -2
288
     1
 68
     0
279
    -2
289
     1
 69
     0
  0
VISUALSTYLE
  5
2975
102
{ACAD_REACTORS
330
296F
102
}
330
296F
100
AcDbVisualStyle
  2
2dWireframe
 70
     4
177
     3
291
     0
 70
    58
 90
        0
176
     1
 90
        2
176
     1
 90
        0
176
     1
 90
        0
176
     1
 40
0.6
176
     1
 40
30.0
176
     1
 62
     7
420
 16777215
176
     1
 90
        1
176
     1
 90
        4
176
     1
 62
     7
176
     1
 62
   257
176
     1
 90
        1
176
     1
 90
        1
176
     1
 40
1.0
176
     1
 90
        0
176
     1
 62
   257
176
     1
 40
1.0
176
     1
 90
        1
176
     1
 90
        6
176
     1
 90
        2
176
     1
 62
     7
176
     1
 90
        5
176
     1
 90
        0
176
     1
 90
        0
176
     1
290
     0
176
     1
 90
        1
176
     1
 40
0.0
176
     1
 90
        0
176
     1
290
     1
176
     1
290
     1
176
     1
290
     0
176
     1
290
     0
176
     1
290
     0
176
     1
290
     0
176
     1
290
     0
176
     1
290
     0
176
     1
290
     0
176
     1
 90
       50
176
     1
 40
0.0
176
     1
 40
1.0
176
     1
 90
        0
176
     1
 62
    18
420
        0
176
     1
 90
       50
176
     1
 90
        3
176
     1
 62
     5
420
      255
176
     1
290
     0
176
     1
 90
       50
176
     1
 90
       50
176
     1
 90
       50
176
     1
290
     0
176
     1
 90
       50
176
     1
 62
   256
176
     0
 40
1.0
176
     0
 90
        2
176
     1
  1
strokes_ogs.tif
176
     1
290
     0
176
     1
 40
1.0
176
     1
 40
1.0
176
     1
  0
VISUALSTYLE
  5
2974
102
{ACAD_REACTORS
330
296F
102
}
330
296F
100
AcDbVisualStyle
  2
Basic
 70
     7
177
     3
291
     1
 70
    58
 90
        1
176
     1
 90
        0
176
     1
 90
        1
176
     1
 90
        0
176
     1
 40
0.6
176
     1
 40
30.0
176
     1
 62
     7
420
 16777215
176
     1
 90
        0
176
     1
 90
        4
176
     1
 62
     7
176
     1
 62
   257
176
     1
 90
        1
176
     1
 90
        1
176
     1
 40
1.0
176
     1
 90
        8
176
     1
 62
     7
176
     1
 40
1.0
176
     1
 90
        1
176
     1
 90
        6
176
     1
 90
        2
176
     1
 62
     7
176
     1
 90
        5
176
     1
 90
        0
176
     1
 90
        0
176
     1
290
     0
176
     1
 90
        1
176
     1
 40
0.0
176
     1
 90
        0
176
     1
290
     0
176
     1
290
     1
176
     1
290
     1
176
     1
290
     0
176
     1
290
     0
176
     1
290
     0
176
     1
290
     0
176
     1
290
     0
176
     1
290
     0
176
     1
 90
       50
176
     1
 40
0.0
176
     1
 40
1.0
176
     1
 90
        0
176
     1
 62
    18
420
        0
176
     1
 90
       50
176
     1
 90
        3
176
     1
 62
     5
420
      255
176
     1
290
     0
176
     1
 90
       50
176
     1
 90
       50
176
     1
 90
       50
176
     1
290
     0
176
     1
 90
       50
176
     1
 62
   256
176
     0
 40
1.0
176
     0
 90
        2
176
     1
  1
strokes_ogs.tif
176
     1
290
     0
176
     1
 40
1.0
176
     1
 40
1.0
176
     1
  0
VISUALSTYLE
  5
297B
102
{ACAD_REACTORS
330
296F
102
}
330
296F
100
AcDbVisualStyle
  2
Brighten
 70
    12
177
     3
291
     1
 70
    58
 90
        2
176
     1
 90
        2
176
     1
 90
        0
176
     1
 90
        0
176
     1
 40
0.6
176
     1
 40
30.0
176
     1
 62
     7
420
 16777215
176
     1
 90
        1
176
     1
 90
        4
176
     1
 62
     7
176
     1
 62
   257
176
     1
 90
        1
176
     1
 90
        1
176
     1
 40
1.0
176
     1
 90
        8
176
     1
 62
     7
176
     1
 40
1.0
176
     1
 90
        1
176
     1
 90
        6
176
     1
 90
        2
176
     1
 62
     7
176
     1
 90
        5
176
     1
 90
        0
176
     1
 90
        0
176
     1
290
     0
176
     1
 90
        1
176
     1
 40
50.0
176
     1
 90
        0
176
     1
290
     0
176
     1
290
     1
176
     1
290
     1
176
     1
290
     0
176
     1
290
     0
176
     1
290
     0
176
     1
290
     0
176
     1
290
     0
176
     1
290
     0
176
     1
 90
       50
176
     1
 40
0.0
176
     1
 40
1.0
176
     1
 90
        0
176
     1
 62
    18
420
        0
176
     1
 90
       50
176
     1
 90
        3
176
     1
 62
     5
420
      255
176
     1
290
     0
176
     1
 90
       50
176
     1
 90
       50
176
     1
 90
       50
176
     1
290
     0
176
     1
 90
       50
176
     1
 62
   256
176
     0
 40
1.0
176
     0
 90
        2
176
     1
  1
strokes_ogs.tif
176
     1
290
     0
176
     1
 40
1.0
176
     1
 40
1.0
176
     1
  0
VISUALSTYLE
  5
297F
102
{ACAD_REACTORS
330
296F
102
}
330
296F
100
AcDbVisualStyle
  2
ColorChange
 70
    16
177
     3
291
     1
 70
    58
 90
        2
176
     1
 90
        2
176
     1
 90
        3
176
     1
 90
        0
176
     1
 40
0.6
176
     1
 40
30.0
176
     1
 62
     8
420
  8421504
176
     1
 90
        1
176
     1
 90
        4
176
     1
 62
     7
176
     1
 62
   257
176
     1
 90
        1
176
     1
 90
        1
176
     1
 40
1.0
176
     1
 90
        8
176
     1
 62
     8
420
  8421504
176
     1
 40
1.0
176
     1
 90
        1
176
     1
 90
        6
176
     1
 90
        2
176
     1
 62
     7
176
     1
 90
        5
176
     1
 90
        0
176
     1
 90
        0
176
     1
290
     0
176
     1
 90
        1
176
     1
 40
0.0
176
     1
 90
        0
176
     1
290
     0
176
     1
290
     1
176
     1
290
     1
176
     1
290
     0
176
     1
290
     0
176
     1
290
     0
176
     1
290
     0
176
     1
290
     0
176
     1
290
     0
176
     1
 90
       50
176
     1
 40
0.0
176
     1
 40
1.0
176
     1
 90
        0
176
     1
 62
    18
420
        0
176
     1
 90
       50
176
     1
 90
        3
176
     1
 62
     5
420
      255
176
     1
290
     0
176
     1
 90
       50
176
     1
 90
       50
176
     1
 90
       50
176
     1
290
     0
176
     1
 90
       50
176
     1
 62
   256
176
     0
 40
1.0
176
     0
 90
        2
176
     1
  1
strokes_ogs.tif
176
     1
290
     0
176
     1
 40
1.0
176
     1
 40
1.0
176
     1
  0
VISUALSTYLE
  5
2978
102
{ACAD_REACTORS
330
296F
102
}
330
296F
100
AcDbVisualStyle
  2
Conceptual
 70
     9
177
     3
291
     0
 70
    58
 90
        3
176
     1
 90
        2
176
     1
 90
        0
176
     1
 90
        0
176
     1
 40
0.6
176
     1
 40
30.0
176
     1
 62
     7
420
 16777215
176
     1
 90
        2
176
     1
 90
        2
176
     1
 62
     7
176
     1
 62
   257
176
     1
 90
        1
176
     1
 90
        1
176
     1
 40
179.0
176
     1
 90
        8
176
     1
 62
     7
176
     1
 40
1.0
176
     1
 90
        1
176
     1
 90
        6
176
     1
 90
        2
176
     1
 62
     7
176
     1
 90
        3
176
     1
 90
        0
176
     1
 90
        0
176
     1
290
     0
176
     1
 90
        1
176
     1
 40
0.0
176
     1
 90
        0
176
     1
290
     0
176
     1
290
     1
176
     1
290
     1
176
     1
290
     0
176
     1
290
     0
176
     1
290
     0
176
     1
290
     0
176
     1
290
     0
176
     1
290
     0
176
     1
 90
       50
176
     1
 40
0.0
176
     1
 40
1.0
176
     1
 90
        0
176
     1
 62
    18
420
        0
176
     1
 90
       50
176
     1
 90
        3
176
     1
 62
     5
420
      255
176
     1
290
     0
176
     1
 90
       50
176
     1
 90
       50
176
     1
 90
       50
176
     1
290
     0
176
     1
 90
       50
176
     1
 62
   256
176
     0
 40
1.0
176
     0
 90
        2
176
     1
  1
strokes_ogs.tif
176
     1
290
     0
176
     1
 40
1.0
176
     1
 40
1.0
176
     1
  0
VISUALSTYLE
  5
297A
102
{ACAD_REACTORS
330
296F
102
}
330
296F
100
AcDbVisualStyle
  2
Dim
 70
    11
177
     3
291
     1
 70
    58
 90
        2
176
     1
 90
        2
176
     1
 90
        0
176
     1
 90
        0
176
     1
 40
0.6
176
     1
 40
30.0
176
     1
 62
     7
420
 16777215
176
     1
 90
        1
176
     1
 90
        4
176
     1
 62
     7
176
     1
 62
   257
176
     1
 90
        1
176
     1
 90
        1
176
     1
 40
1.0
176
     1
 90
        8
176
     1
 62
     7
176
     1
 40
1.0
176
     1
 90
        1
176
     1
 90
        6
176
     1
 90
        2
176
     1
 62
     7
176
     1
 90
        5
176
     1
 90
        0
176
     1
 90
        0
176
     1
290
     0
176
     1
 90
        1
176
     1
 40
-50.0
176
     1
 90
        0
176
     1
290
     0
176
     1
290
     1
176
     1
290
     1
176
     1
290
     0
176
     1
290
     0
176
     1
290
     0
176
     1
290
     0
176
     1
290
     0
176
     1
290
     0
176
     1
 90
       50
176
     1
 40
0.0
176
     1
 40
1.0
176
     1
 90
        0
176
     1
 62
    18
420
        0
176
     1
 90
       50
176
     1
 90
        3
176
     1
 62
     5
420
      255
176
     1
290
     0
176
     1
 90
       50
176
     1
 90
       50
176
     1
 90
       50
176
     1
290
     0
176
     1
 90
       50
176
     1
 62
   256
176
     0
 40
1.0
176
     0
 90
        2
176
     1
  1
strokes_ogs.tif
176
     1
290
     0
176
     1
 40
1.0
176
     1
 40
1.0
176
     1
  0
VISUALSTYLE
  5
2987
102
{ACAD_REACTORS
330
296F
102
}
330
296F
100
AcDbVisualStyle
  2
EdgeColorOff
 70
    22
177
     3
291
     1
 70
    58
 90
        2
176
     0
 90
        2
176
     0
 90
        0
176
     0
 90
        0
176
     0
 40
0.6
176
     0
 40
30.0
176
     0
 62
     7
420
 16777215
176
     0
 90
        1
176
     0
 90
        4
176
     0
 62
     7
176
     0
 62
   257
176
     0
 90
        1
176
     0
 90
        1
176
     0
 40
1.0
176
     0
 90
        8
176
     2
 62
     7
176
     0
 40
1.0
176
     0
 90
        1
176
     0
 90
        6
176
     0
 90
        2
176
     0
 62
     7
176
     0
 90
        5
176
     0
 90
        0
176
     0
 90
        0
176
     0
290
     0
176
     0
 90
        1
176
     0
 40
0.0
176
     0
 90
        0
176
     0
290
     0
176
     1
290
     1
176
     1
290
     1
176
     1
290
     0
176
     1
290
     0
176
     1
290
     0
176
     1
290
     0
176
     1
290
     0
176
     1
290
     0
176
     1
 90
       50
176
     0
 40
0.0
176
     0
 40
1.0
176
     0
 90
        0
176
     0
 62
    18
420
        0
176
     0
 90
       50
176
     0
 90
        3
176
     0
 62
     5
420
      255
176
     0
290
     0
176
     1
 90
       50
176
     0
 90
       50
176
     0
 90
       50
176
     0
290
     0
176
     1
 90
       50
176
     0
 62
   256
176
     0
 40
1.0
176
     0
 90
        2
176
     0
  1
strokes_ogs.tif
176
     0
290
     0
176
     1
 40
1.0
176
     0
 40
1.0
176
     0
  0
VISUALSTYLE
  5
297E
102
{ACAD_REACTORS
330
296F
102
}
330
296F
100
AcDbVisualStyle
  2
Facepattern
 70
    15
177
     3
291
     1
 70
    58
 90
        2
176
     1
 90
        2
176
     1
 90
        0
176
     1
 90
        0
176
     1
 40
0.6
176
     1
 40
30.0
176
     1
 62
     7
420
 16777215
176
     1
 90
        1
176
     1
 90
        4
176
     1
 62
     7
176
     1
 62
   257
176
     1
 90
        1
176
     1
 90
        1
176
     1
 40
1.0
176
     1
 90
        8
176
     1
 62
     7
176
     1
 40
1.0
176
     1
 90
        1
176
     1
 90
        6
176
     1
 90
        2
176
     1
 62
     7
176
     1
 90
        5
176
     1
 90
        0
176
     1
 90
        0
176
     1
290
     0
176
     1
 90
        1
176
     1
 40
0.0
176
     1
 90
        0
176
     1
290
     0
176
     1
290
     1
176
     1
290
     1
176
     1
290
     0
176
     1
290
     0
176
     1
290
     0
176
     1
290
     0
176
     1
290
     0
176
     1
290
     0
176
     1
 90
       50
176
     1
 40
0.0
176
     1
 40
1.0
176
     1
 90
        0
176
     1
 62
    18
420
        0
176
     1
 90
       50
176
     1
 90
        3
176
     1
 62
     5
420
      255
176
     1
290
     0
176
     1
 90
       50
176
     1
 90
       50
176
     1
 90
       50
176
     1
290
     0
176
     1
 90
       50
176
     1
 62
   256
176
     0
 40
1.0
176
     0
 90
        2
176
     1
  1
strokes_ogs.tif
176
     1
290
     0
176
     1
 40
1.0
176
     1
 40
1.0
176
     1
  0
VISUALSTYLE
  5
2970
102
{ACAD_REACTORS
330
296F
102
}
330
296F
100
AcDbVisualStyle
  2
Flat
 70
     0
177
     3
291
     1
 70
    58
 90
        2
176
     1
 90
        1
176
     1
 90
        1
176
     1
 90
        2
176
     1
 40
0.6
176
     1
 40
30.0
176
     1
 62
     7
420
 16777215
176
     1
 90
        0
176
     1
 90
        0
176
     1
 62
     7
176
     1
 62
   257
176
     1
 90
        1
176
     1
 90
        1
176
     1
 40
1.0
176
     1
 90
        8
176
     1
 62
     7
176
     1
 40
1.0
176
     1
 90
        1
176
     1
 90
        6
176
     1
 90
        2
176
     1
 62
     7
176
     1
 90
        5
176
     1
 90
        0
176
     1
 90
        0
176
     1
290
     0
176
     1
 90
       13
176
     1
 40
0.0
176
     1
 90
        0
176
     1
290
     0
176
     1
290
     1
176
     1
290
     1
176
     1
290
     0
176
     1
290
     0
176
     1
290
     0
176
     1
290
     0
176
     1
290
     0
176
     1
290
     0
176
     1
 90
       50
176
     1
 40
0.0
176
     1
 40
1.0
176
     1
 90
        0
176
     1
 62
    18
420
        0
176
     1
 90
       50
176
     1
 90
        3
176
     1
 62
     5
420
      255
176
     1
290
     0
176
     1
 90
       50
176
     1
 90
       50
176
     1
 90
       50
176
     1
290
     0
176
     1
 90
       50
176
     1
 62
   256
176
     0
 40
1.0
176
     0
 90
        2
176
     1
  1
strokes_ogs.tif
176
     1
290
     0
176
     1
 40
1.0
176
     1
 40
1.0
176
     1
  0
VISUALSTYLE
  5
2971
102
{ACAD_REACTORS
330
296F
102
}
330
296F
100
AcDbVisualStyle
  2
FlatWithEdges
 70
     1
177
     3
291
     1
 70
    58
 90
        2
176
     1
 90
        1
176
     1
 90
        1
176
     1
 90
        2
176
     1
 40
0.6
176
     1
 40
30.0
176
     1
 62
     7
420
 16777215
176
     1
 90
        1
176
     1
 90
        0
176
     1
 62
     7
176
     1
 62
   257
176
     1
 90
        1
176
     1
 90
        1
176
     1
 40
1.0
176
     1
 90
        0
176
     1
 62
   257
176
     1
 40
1.0
176
     1
 90
        1
176
     1
 90
        6
176
     1
 90
        2
176
     1
 62
     7
176
     1
 90
        5
176
     1
 90
        0
176
     1
 90
        0
176
     1
290
     0
176
     1
 90
       13
176
     1
 40
0.0
176
     1
 90
        0
176
     1
290
     0
176
     1
290
     1
176
     1
290
     1
176
     1
290
     0
176
     1
290
     0
176
     1
290
     0
176
     1
290
     0
176
     1
290
     0
176
     1
290
     0
176
     1
 90
       50
176
     1
 40
0.0
176
     1
 40
1.0
176
     1
 90
        0
176
     1
 62
    18
420
        0
176
     1
 90
       50
176
     1
 90
        3
176
     1
 62
     5
420
      255
176
     1
290
     0
176
     1
 90
       50
176
     1
 90
       50
176
     1
 90
       50
176
     1
290
     0
176
     1
 90
       50
176
     1
 62
   256
176
     0
 40
1.0
176
     0
 90
        2
176
     1
  1
strokes_ogs.tif
176
     1
290
     0
176
     1
 40
1.0
176
     1
 40
1.0
176
     1
  0
VISUALSTYLE
  5
2972
102
{ACAD_REACTORS
330
296F
102
}
330
296F
100
AcDbVisualStyle
  2
Gouraud
 70
     2
177
     3
291
     1
 70
    58
 90
        2
176
     1
 90
        2
176
     1
 90
        1
176
     1
 90
        2
176
     1
 40
0.6
176
     1
 40
30.0
176
     1
 62
     7
420
 16777215
176
     1
 90
        0
176
     1
 90
        0
176
     1
 62
     7
176
     1
 62
   257
176
     1
 90
        1
176
     1
 90
        1
176
     1
 40
1.0
176
     1
 90
        0
176
     1
 62
     7
176
     1
 40
1.0
176
     1
 90
        1
176
     1
 90
        6
176
     1
 90
        2
176
     1
 62
     7
176
     1
 90
        5
176
     1
 90
        0
176
     1
 90
        0
176
     1
290
     0
176
     1
 90
       13
176
     1
 40
0.0
176
     1
 90
        0
176
     1
290
     0
176
     1
290
     1
176
     1
290
     1
176
     1
290
     0
176
     1
290
     0
176
     1
290
     0
176
     1
290
     0
176
     1
290
     0
176
     1
290
     0
176
     1
 90
       50
176
     1
 40
0.0
176
     1
 40
1.0
176
     1
 90
        0
176
     1
 62
    18
420
        0
176
     1
 90
       50
176
     1
 90
        3
176
     1
 62
     5
420
      255
176
     1
290
     0
176
     1
 90
       50
176
     1
 90
       50
176
     1
 90
       50
176
     1
290
     0
176
     1
 90
       50
176
     1
 62
   256
176
     0
 40
1.0
176
     0
 90
        2
176
     1
  1
strokes_ogs.tif
176
     1
290
     0
176
     1
 40
1.0
176
     1
 40
1.0
176
     1
  0
VISUALSTYLE
  5
2973
102
{ACAD_REACTORS
330
296F
102
}
330
296F
100
AcDbVisualStyle
  2
GouraudWithEdges
 70
     3
177
     3
291
     1
 70
    58
 90
        2
176
     1
 90
        2
176
     1
 90
        1
176
     1
 90
        2
176
     1
 40
0.6
176
     1
 40
30.0
176
     1
 62
     7
420
 16777215
176
     1
 90
        1
176
     1
 90
        0
176
     1
 62
     7
176
     1
 62
   257
176
     1
 90
        1
176
     1
 90
        1
176
     1
 40
1.0
176
     1
 90
        0
176
     1
 62
   257
176
     1
 40
1.0
176
     1
 90
        1
176
     1
 90
        6
176
     1
 90
        2
176
     1
 62
     7
176
     1
 90
        5
176
     1
 90
        0
176
     1
 90
        0
176
     1
290
     0
176
     1
 90
       13
176
     1
 40
0.0
176
     1
 90
        0
176
     1
290
     0
176
     1
290
     1
176
     1
290
     1
176
     1
290
     0
176
     1
290
     0
176
     1
290
     0
176
     1
290
     0
176
     1
290
     0
176
     1
290
     0
176
     1
 90
       50
176
     1
 40
0.0
176
     1
 40
1.0
176
     1
 90
        0
176
     1
 62
    18
420
        0
176
     1
 90
       50
176
     1
 90
        3
176
     1
 62
     5
420
      255
176
     1
290
     0
176
     1
 90
       50
176
     1
 90
       50
176
     1
 90
       50
176
     1
290
     0
176
     1
 90
       50
176
     1
 62
   256
176
     0
 40
1.0
176
     0
 90
        2
176
     1
  1
strokes_ogs.tif
176
     1
290
     0
176
     1
 40
1.0
176
     1
 40
1.0
176
     1
  0
VISUALSTYLE
  5
2977
102
{ACAD_REACTORS
330
296F
102
}
330
296F
100
AcDbVisualStyle
  2
Hidden
 70
     6
177
     3
291
     0
 70
    58
 90
        1
176
     1
 90
        2
176
     1
 90
        2
176
     1
 90
        0
176
     1
 40
0.6
176
     1
 40
30.0
176
     1
 62
     7
420
 16777215
176
     1
 90
        2
176
     1
 90
        2
176
     1
 62
     7
176
     1
 62
   257
176
     1
 90
        2
176
     1
 90
        1
176
     1
 40
40.0
176
     1
 90
        0
176
     1
 62
   257
176
     1
 40
1.0
176
     1
 90
        1
176
     1
 90
        6
176
     1
 90
        2
176
     1
 62
     7
176
     1
 90
        3
176
     1
 90
        0
176
     1
 90
        0
176
     1
290
     0
176
     1
 90
        1
176
     1
 40
0.0
176
     1
 90
        0
176
     1
290
     0
176
     1
290
     1
176
     1
290
     1
176
     1
290
     0
176
     1
290
     0
176
     1
290
     0
176
     1
290
     0
176
     1
290
     0
176
     1
290
     0
176
     1
 90
       50
176
     1
 40
0.0
176
     1
 40
1.0
176
     1
 90
        0
176
     1
 62
    18
420
        0
176
     1
 90
       50
176
     1
 90
        3
176
     1
 62
     5
420
      255
176
     1
290
     0
176
     1
 90
       50
176
     1
 90
       50
176
     1
 90
       50
176
     1
290
     0
176
     1
 90
       50
176
     1
 62
   256
176
     0
 40
1.0
176
     0
 90
        2
176
     1
  1
strokes_ogs.tif
176
     1
290
     0
176
     1
 40
1.0
176
     1
 40
1.0
176
     1
  0
VISUALSTYLE
  5
2985
102
{ACAD_REACTORS
330
296F
102
}
330
296F
100
AcDbVisualStyle
  2
JitterOff
 70
    20
177
     3
291
     1
 70
    58
 90
        2
176
     0
 90
        2
176
     0
 90
        0
176
     0
 90
        0
176
     0
 40
0.6
176
     0
 40
30.0
176
     0
 62
     7
420
 16777215
176
     0
 90
        1
176
     0
 90
        4
176
     0
 62
     7
176
     0
 62
   257
176
     0
 90
        1
176
     0
 90
        1
176
     0
 40
1.0
176
     0
 90
       10
176
     2
 62
     7
176
     0
 40
1.0
176
     0
 90
        1
176
     0
 90
        6
176
     0
 90
        2
176
     0
 62
     7
176
     0
 90
        5
176
     0
 90
        0
176
     0
 90
        0
176
     0
290
     0
176
     0
 90
        1
176
     0
 40
0.0
176
     0
 90
        0
176
     0
290
     0
176
     1
290
     1
176
     1
290
     1
176
     1
290
     0
176
     1
290
     0
176
     1
290
     0
176
     1
290
     0
176
     1
290
     0
176
     1
290
     0
176
     1
 90
       50
176
     0
 40
0.0
176
     0
 40
1.0
176
     0
 90
        0
176
     0
 62
    18
420
        0
176
     0
 90
       50
176
     0
 90
        3
176
     0
 62
     5
420
      255
176
     0
290
     0
176
     1
 90
       50
176
     0
 90
       50
176
     0
 90
       50
176
     0
290
     0
176
     1
 90
       50
176
     0
 62
   256
176
     0
 40
1.0
176
     0
 90
        2
176
     0
  1
strokes_ogs.tif
176
     0
290
     0
176
     1
 40
1.0
176
     0
 40
1.0
176
     0
  0
VISUALSTYLE
  5
297D
102
{ACAD_REACTORS
330
296F
102
}
330
296F
100
AcDbVisualStyle
  2
Linepattern
 70
    14
177
     3
291
     1
 70
    58
 90
        2
176
     1
 90
        2
176
     1
 90
        0
176
     1
 90
        0
176
     1
 40
0.6
176
     1
 40
30.0
176
     1
 62
     7
420
 16777215
176
     1
 90
        1
176
     1
 90
        4
176
     1
 62
     7
176
     1
 62
   257
176
     1
 90
        7
176
     1
 90
        7
176
     1
 40
1.0
176
     1
 90
        8
176
     1
 62
     7
176
     1
 40
1.0
176
     1
 90
        1
176
     1
 90
        6
176
     1
 90
        2
176
     1
 62
     7
176
     1
 90
        5
176
     1
 90
        0
176
     1
 90
        0
176
     1
290
     0
176
     1
 90
        1
176
     1
 40
0.0
176
     1
 90
        0
176
     1
290
     0
176
     1
290
     1
176
     1
290
     1
176
     1
290
     0
176
     1
290
     0
176
     1
290
     0
176
     1
290
     0
176
     1
290
     0
176
     1
290
     0
176
     1
 90
       50
176
     1
 40
0.0
176
     1
 40
1.0
176
     1
 90
        0
176
     1
 62
    18
420
        0
176
     1
 90
       50
176
     1
 90
        3
176
     1
 62
     5
420
      255
176
     1
290
     0
176
     1
 90
       50
176
     1
 90
       50
176
     1
 90
       50
176
     1
290
     0
176
     1
 90
       50
176
     1
 62
   256
176
     0
 40
1.0
176
     0
 90
        2
176
     1
  1
strokes_ogs.tif
176
     1
290
     0
176
     1
 40
1.0
176
     1
 40
1.0
176
     1
  0
VISUALSTYLE
  5
2986
102
{ACAD_REACTORS
330
296F
102
}
330
296F
100
AcDbVisualStyle
  2
OverhangOff
 70
    21
177
     3
291
     1
 70
    58
 90
        2
176
     0
 90
        2
176
     0
 90
        0
176
     0
 90
        0
176
     0
 40
0.6
176
     0
 40
30.0
176
     0
 62
     7
420
 16777215
176
     0
 90
        1
176
     0
 90
        4
176
     0
 62
     7
176
     0
 62
   257
176
     0
 90
        1
176
     0
 90
        1
176
     0
 40
1.0
176
     0
 90
        9
176
     2
 62
     7
176
     0
 40
1.0
176
     0
 90
        1
176
     0
 90
        6
176
     0
 90
        2
176
     0
 62
     7
176
     0
 90
        5
176
     0
 90
        0
176
     0
 90
        0
176
     0
290
     0
176
     0
 90
        1
176
     0
 40
0.0
176
     0
 90
        0
176
     0
290
     0
176
     1
290
     1
176
     1
290
     1
176
     1
290
     0
176
     1
290
     0
176
     1
290
     0
176
     1
290
     0
176
     1
290
     0
176
     1
290
     0
176
     1
 90
       50
176
     0
 40
0.0
176
     0
 40
1.0
176
     0
 90
        0
176
     0
 62
    18
420
        0
176
     0
 90
       50
176
     0
 90
        3
176
     0
 62
     5
420
      255
176
     0
290
     0
176
     1
 90
       50
176
     0
 90
       50
176
     0
 90
       50
176
     0
290
     0
176
     1
 90
       50
176
     0
 62
   256
176
     0
 40
1.0
176
     0
 90
        2
176
     0
  1
strokes_ogs.tif
176
     0
290
     0
176
     1
 40
1.0
176
     0
 40
1.0
176
     0
  0
VISUALSTYLE
  5
2979
102
{ACAD_REACTORS
330
296F
102
}
330
296F
100
AcDbVisualStyle
  2
Realistic
 70
     8
177
     3
291
     0
 70
    58
 90
        2
176
     1
 90
        3
176
     1
 90
        0
176
     1
 90
        2
176
     1
 40
0.6
176
     1
 40
30.0
176
     1
 62
     7
420
 16777215
176
     1
 90
        0
176
     1
 90
        0
176
     1
 62
     7
176
     1
 62
   257
176
     1
 90
        1
176
     1
 90
        1
176
     1
 40
1.0
176
     1
 90
        8
176
     1
 62
   257
176
     1
 40
1.0
176
     1
 90
        1
176
     1
 90
        6
176
     1
 90
        2
176
     1
 62
     7
176
     1
 90
        3
176
     1
 90
        0
176
     1
 90
        0
176
     1
290
     0
176
     1
 90
       13
176
     1
 40
0.0
176
     1
 90
        0
176
     1
290
     0
176
     1
290
     1
176
     1
290
     1
176
     1
290
     0
176
     1
290
     0
176
     1
290
     0
176
     1
290
     0
176
     1
290
     0
176
     1
290
     0
176
     1
 90
       50
176
     1
 40
0.0
176
     1
 40
1.0
176
     1
 90
        0
176
     1
 62
    18
420
        0
176
     1
 90
       50
176
     1
 90
        3
176
     1
 62
     5
420
      255
176
     1
290
     0
176
     1
 90
       50
176
     1
 90
       50
176
     1
 90
       50
176
     1
290
     0
176
     1
 90
       50
176
     1
 62
   256
176
     0
 40
1.0
176
     0
 90
        2
176
     1
  1
strokes_ogs.tif
176
     1
290
     0
176
     1
 40
1.0
176
     1
 40
1.0
176
     1
  0
VISUALSTYLE
  5
2984
102
{ACAD_REACTORS
330
296F
102
}
330
296F
100
AcDbVisualStyle
  2
Shaded
 70
    27
177
     3
291
     0
 70
    58
 90
        2
176
     1
 90
        2
176
     1
 90
        1
176
     1
 90
        2
176
     1
 40
0.6
176
     1
 40
30.0
176
     1
 62
     7
420
 16777215
176
     1
 90
        0
176
     1
 90
        4
176
     1
 62
     7
176
     1
 62
   257
176
     1
 90
        1
176
     1
 90
        1
176
     1
 40
1.0
176
     1
 90
        8
176
     1
 62
   257
176
     1
 40
1.0
176
     1
 90
        1
176
     1
 90
        6
176
     1
 90
        2
176
     1
 62
     8
420
  7895160
176
     1
 90
        3
176
     1
 90
        0
176
     1
 90
        0
176
     1
290
     0
176
     1
 90
        5
176
     1
 40
0.0
176
     1
 90
        0
176
     1
290
     0
176
     1
290
     1
176
     1
290
     1
176
     1
290
     0
176
     1
290
     0
176
     1
290
     0
176
     1
290
     0
176
     1
290
     0
176
     1
290
     0
176
     1
 90
       50
176
     1
 40
0.0
176
     1
 40
1.0
176
     1
 90
        0
176
     1
 62
    18
420
        0
176
     1
 90
       50
176
     1
 90
        3
176
     1
 62
     5
420
      255
176
     1
290
     0
176
     1
 90
       50
176
     1
 90
       50
176
     1
 90
       50
176
     1
290
     0
176
     1
 90
       50
176
     1
 62
   256
176
     0
 40
1.0
176
     0
 90
        2
176
     1
  1
strokes_ogs.tif
176
     1
290
     0
176
     1
 40
1.0
176
     1
 40
1.0
176
     1
  0
VISUALSTYLE
  5
2983
102
{ACAD_REACTORS
330
296F
102
}
330
296F
100
AcDbVisualStyle
  2
Shaded with edges
 70
    26
177
     3
291
     0
 70
    58
 90
        2
176
     1
 90
        2
176
     1
 90
        1
176
     1
 90
        2
176
     1
 40
0.6
176
     1
 40
30.0
176
     1
 62
     7
420
 16777215
176
     1
 90
        1
176
     1
 90
        2
176
     1
 62
     7
176
     1
 62
   257
176
     1
 90
        2
176
     1
 90
        1
176
     1
 40
1.0
176
     1
 90
        8
176
     1
 62
   257
176
     1
 40
1.0
176
     1
 90
        1
176
     1
 90
        6
176
     1
 90
        2
176
     1
 62
     7
176
     1
 90
        3
176
     1
 90
        0
176
     1
 90
        0
176
     1
290
     0
176
     1
 90
        5
176
     1
 40
0.0
176
     1
 90
        0
176
     1
290
     0
176
     1
290
     1
176
     1
290
     1
176
     1
290
     0
176
     1
290
     0
176
     1
290
     0
176
     1
290
     0
176
     1
290
     0
176
     1
290
     0
176
     1
 90
       50
176
     1
 40
0.0
176
     1
 40
1.0
176
     1
 90
        0
176
     1
 62
    18
420
        0
176
     1
 90
       50
176
     1
 90
        3
176
     1
 62
     5
420
      255
176
     1
290
     0
176
     1
 90
       50
176
     1
 90
       50
176
     1
 90
       50
176
     1
290
     0
176
     1
 90
       50
176
     1
 62
   256
176
     0
 40
1.0
176
     0
 90
        2
176
     1
  1
strokes_ogs.tif
176
     1
290
     0
176
     1
 40
1.0
176
     1
 40
1.0
176
     1
  0
VISUALSTYLE
  5
2980
102
{ACAD_REACTORS
330
296F
102
}
330
296F
100
AcDbVisualStyle
  2
Shades of Gray
 70
    23
177
     3
291
     0
 70
    58
 90
        2
176
     1
 90
        2
176
     1
 90
        3
176
     1
 90
        0
176
     1
 40
0.6
176
     1
 40
30.0
176
     1
 62
     7
420
 16777215
176
     1
 90
        2
176
     1
 90
        2
176
     1
 62
     7
176
     1
 62
     7
176
     1
 90
        1
176
     1
 90
        1
176
     1
 40
40.0
176
     1
 90
        8
176
     1
 62
     7
176
     1
 40
1.0
176
     1
 90
        1
176
     1
 90
        6
176
     1
 90
        2
176
     1
 62
     7
176
     1
 90
        3
176
     1
 90
        0
176
     1
 90
        0
176
     1
290
     0
176
     1
 90
        1
176
     1
 40
0.0
176
     1
 90
        0
176
     1
290
     0
176
     1
290
     1
176
     1
290
     1
176
     1
290
     0
176
     1
290
     0
176
     1
290
     0
176
     1
290
     0
176
     1
290
     0
176
     1
290
     0
176
     1
 90
       50
176
     1
 40
0.0
176
     1
 40
1.0
176
     1
 90
        0
176
     1
 62
    18
420
        0
176
     1
 90
       50
176
     1
 90
        3
176
     1
 62
     5
420
      255
176
     1
290
     0
176
     1
 90
       50
176
     1
 90
       50
176
     1
 90
       50
176
     1
290
     0
176
     1
 90
       50
176
     1
 62
   256
176
     0
 40
1.0
176
     0
 90
        2
176
     1
  1
strokes_ogs.tif
176
     1
290
     0
176
     1
 40
1.0
176
     1
 40
1.0
176
     1
  0
VISUALSTYLE
  5
2981
102
{ACAD_REACTORS
330
296F
102
}
330
296F
100
AcDbVisualStyle
  2
Sketchy
 70
    24
177
     3
291
     0
 70
    58
 90
        1
176
     1
 90
        2
176
     1
 90
        2
176
     1
 90
        0
176
     1
 40
0.6
176
     1
 40
30.0
176
     1
 62
     7
420
 16777215
176
     1
 90
        2
176
     1
 90
        2
176
     1
 62
     7
176
     1
 62
     7
176
     1
 90
        1
176
     1
 90
        1
176
     1
 40
40.0
176
     1
 90
       11
176
     1
 62
     7
176
     1
 40
1.0
176
     1
 90
        1
176
     1
 90
        6
176
     1
 90
        2
176
     1
 62
     7
176
     1
 90
        6
176
     1
 90
        0
176
     1
 90
        0
176
     1
290
     0
176
     1
 90
        1
176
     1
 40
0.0
176
     1
 90
        0
176
     1
290
     0
176
     1
290
     1
176
     1
290
     1
176
     1
290
     0
176
     1
290
     0
176
     1
290
     0
176
     1
290
     0
176
     1
290
     0
176
     1
290
     0
176
     1
 90
       50
176
     1
 40
0.0
176
     1
 40
1.0
176
     1
 90
        0
176
     1
 62
    18
420
        0
176
     1
 90
       50
176
     1
 90
        3
176
     1
 62
     5
420
      255
176
     1
290
     0
176
     1
 90
       50
176
     1
 90
       50
176
     1
 90
       50
176
     1
290
     0
176
     1
 90
       50
176
     1
 62
   256
176
     0
 40
1.0
176
     0
 90
        2
176
     1
  1
strokes_ogs.tif
176
     1
290
     0
176
     1
 40
1.0
176
     1
 40
1.0
176
     1
  0
VISUALSTYLE
  5
297C
102
{ACAD_REACTORS
330
296F
102
}
330
296F
100
AcDbVisualStyle
  2
Thicken
 70
    13
177
     3
291
     1
 70
    58
 90
        2
176
     1
 90
        2
176
     1
 90
        0
176
     1
 90
        0
176
     1
 40
0.6
176
     1
 40
30.0
176
     1
 62
     7
420
 16777215
176
     1
 90
        1
176
     1
 90
        4
176
     1
 62
     7
176
     1
 62
   257
176
     1
 90
        1
176
     1
 90
        1
176
     1
 40
1.0
176
     1
 90
       12
176
     1
 62
     7
176
     1
 40
1.0
176
     1
 90
        1
176
     1
 90
        6
176
     1
 90
        2
176
     1
 62
     7
176
     1
 90
        5
176
     1
 90
        0
176
     1
 90
        0
176
     1
290
     0
176
     1
 90
        1
176
     1
 40
0.0
176
     1
 90
        0
176
     1
290
     0
176
     1
290
     1
176
     1
290
     1
176
     1
290
     0
176
     1
290
     0
176
     1
290
     0
176
     1
290
     0
176
     1
290
     0
176
     1
290
     0
176
     1
 90
       50
176
     1
 40
0.0
176
     1
 40
1.0
176
     1
 90
        0
176
     1
 62
    18
420
        0
176
     1
 90
       50
176
     1
 90
        3
176
     1
 62
     5
420
      255
176
     1
290
     0
176
     1
 90
       50
176
     1
 90
       50
176
     1
 90
       50
176
     1
290
     0
176
     1
 90
       50
176
     1
 62
   256
176
     0
 40
1.0
176
     0
 90
        2
176
     1
  1
strokes_ogs.tif
176
     1
290
     0
176
     1
 40
1.0
176
     1
 40
1.0
176
     1
  0
VISUALSTYLE
  5
2976
102
{ACAD_REACTORS
330
296F
102
}
330
296F
100
AcDbVisualStyle
  2
Wireframe
 70
     5
177
     3
291
     0
 70
    58
 90
        0
176
     1
 90
        2
176
     1
 90
        0
176
     1
 90
        0
176
     1
 40
0.6
176
     1
 40
30.0
176
     1
 62
     7
420
 16777215
176
     1
 90
        1
176
     1
 90
        4
176
     1
 62
     7
176
     1
 62
   257
176
     1
 90
        1
176
     1
 90
        1
176
     1
 40
1.0
176
     1
 90
        0
176
     1
 62
   257
176
     1
 40
1.0
176
     1
 90
        1
176
     1
 90
        6
176
     1
 90
        2
176
     1
 62
     7
176
     1
 90
        3
176
     1
 90
        0
176
     1
 90
        0
176
     1
290
     0
176
     1
 90
        1
176
     1
 40
0.0
176
     1
 90
        0
176
     1
290
     0
176
     1
290
     1
176
     1
290
     1
176
     1
290
     0
176
     1
290
     0
176
     1
290
     0
176
     1
290
     0
176
     1
290
     0
176
     1
290
     0
176
     1
 90
       50
176
     1
 40
0.0
176
     1
 40
1.0
176
     1
 90
        0
176
     1
 62
    18
420
        0
176
     1
 90
       50
176
     1
 90
        3
176
     1
 62
     5
420
      255
176
     1
290
     0
176
     1
 90
       50
176
     1
 90
       50
176
     1
 90
       50
176
     1
290
     0
176
     1
 90
       50
176
     1
 62
   256
176
     0
 40
1.0
176
     0
 90
        2
176
     1
  1
strokes_ogs.tif
176
     1
290
     0
176
     1
 40
1.0
176
     1
 40
1.0
176
     1
  0
VISUALSTYLE
  5
2982
102
{ACAD_REACTORS
330
296F
102
}
330
296F
100
AcDbVisualStyle
  2
X-Ray
 70
    25
177
     3
291
     0
 70
    58
 90
        2
176
     1
 90
        2
176
     1
 90
        1
176
     1
 90
        1
176
     1
 40
0.5
176
     1
 40
30.0
176
     1
 62
     7
420
 16777215
176
     1
 90
        1
176
     1
 90
        0
176
     1
 62
     7
176
     1
 62
   257
176
     1
 90
        1
176
     1
 90
        1
176
     1
 40
1.0
176
     1
 90
        8
176
     1
 62
     7
176
     1
 40
1.0
176
     1
 90
        1
176
     1
 90
        6
176
     1
 90
        2
176
     1
 62
     7
176
     1
 90
        3
176
     1
 90
        0
176
     1
 90
        0
176
     1
290
     0
176
     1
 90
       13
176
     1
 40
0.0
176
     1
 90
        0
176
     1
290
     0
176
     1
290
     1
176
     1
290
     1
176
     1
290
     0
176
     1
290
     0
176
     1
290
     0
176
     1
290
     0
176
     1
290
     0
176
     1
290
     0
176
     1
 90
       50
176
     1
 40
0.0
176
     1
 40
1.0
176
     1
 90
        0
176
     1
 62
    18
420
        0
176
     1
 90
       50
176
     1
 90
        3
176
     1
 62
     5
420
      255
176
     1
290
     0
176
     1
 90
       50
176
     1
 90
       50
176
     1
 90
       50
176
     1
290
     0
176
     1
 90
       50
176
     1
 62
   256
176
     0
 40
1.0
176
     0
 90
        2
176
     1
  1
strokes_ogs.tif
176
     1
290
     0
176
     1
 40
1.0
176
     1
 40
1.0
176
     1
  0
DICTIONARYVAR
  5
2A8C
102
{ACAD_REACTORS
330
66
102
}
330
66
100
DictionaryVariables
280
     0
  1
1:1
  0
DICTIONARYVAR
  5
2A88
102
{ACAD_REACTORS
330
66
102
}
330
66
100
DictionaryVariables
280
     0
  1
STANDARD
  0
DICTIONARYVAR
  5
8B
102
{ACAD_REACTORS
330
66
102
}
330
66
100
DictionaryVariables
280
     0
  1
STANDARD
  0
DICTIONARYVAR
  5
2A89
102
{ACAD_REACTORS
330
66
102
}
330
66
100
DictionaryVariables
280
     0
  1
Metric50
  0
DICTIONARYVAR
  5
2A8A
102
{ACAD_REACTORS
330
66
102
}
330
66
100
DictionaryVariables
280
     0
  1
Metric50
  0
DICTIONARYVAR
  5
67
102
{ACAD_REACTORS
330
66
102
}
330
66
100
DictionaryVariables
280
     0
  1
2
  0
DICTIONARYVAR
  5
6B
102
{ACAD_REACTORS
330
66
102
}
330
66
100
DictionaryVariables
280
     0
  1
1
  0
DICTIONARYVAR
  5
2A8E
102
{ACAD_REACTORS
330
66
102
}
330
66
100
DictionaryVariables
280
     0
  1
1
  0
DICTIONARYVAR
  5
2A8F
102
{ACAD_REACTORS
330
66
102
}
330
66
100
DictionaryVariables
280
     0
  1
15
  0
DICTIONARYVAR
  5
2A8D
102
{ACAD_REACTORS
330
66
102
}
330
66
100
DictionaryVariables
280
     0
  1
0
  0
DICTIONARYVAR
  5
2A8B
102
{ACAD_REACTORS
330
66
102
}
330
66
100
DictionaryVariables
280
     0
  1
0
  0
DICTIONARY
  5
23B
330
9C
100
AcDbDictionary
280
     1
281
     1
  0
DICTIONARY
  5
2960
330
295F
100
AcDbDictionary
280
     1
281
     1
  3
BUMPTILE
360
2962
  3
DIFFUSETILE
360
2961
  3
OPACITYTILE
360
2965
  3
REFLECTIONTILE
360
2964
  3
REFRACTIONTILE
360
2966
  3
SPECULARTILE
360
2963
  0
DICTIONARY
  5
2958
330
2957
100
AcDbDictionary
280
     1
281
     1
  3
BUMPTILE
360
295A
  3
DIFFUSETILE
360
2959
  3
OPACITYTILE
360
295D
  3
REFLECTIONTILE
360
295C
  3
REFRACTIONTILE
360
295E
  3
SPECULARTILE
360
295B
  0
DICTIONARY
  5
2968
330
2967
100
AcDbDictionary
280
     1
281
     1
  3
BUMPTILE
360
296A
  3
DIFFUSETILE
360
2969
  3
OPACITYTILE
360
296D
  3
REFLECTIONTILE
360
296C
  3
REFRACTIONTILE
360
296E
  3
SPECULARTILE
360
296B
  0
DICTIONARY
  5
2A91
330
87
100
AcDbDictionary
280
     1
281
     1
  3
ACAD_ROUNDTRIP_2008_TABLESTYLE_CELLSTYLEMAP
360
2A92
  0
XRECORD
  5
2962
102
{ACAD_REACTORS
330
2960
102
}
330
2960
100
AcDbXrecord
280
     1
270
     1
271
     1
  0
XRECORD
  5
2961
102
{ACAD_REACTORS
330
2960
102
}
330
2960
100
AcDbXrecord
280
     1
270
     1
271
     1
  0
XRECORD
  5
2965
102
{ACAD_REACTORS
330
2960
102
}
330
2960
100
AcDbXrecord
280
     1
270
     1
271
     1
  0
XRECORD
  5
2964
102
{ACAD_REACTORS
330
2960
102
}
330
2960
100
AcDbXrecord
280
     1
270
     1
271
     1
  0
XRECORD
  5
2966
102
{ACAD_REACTORS
330
2960
102
}
330
2960
100
AcDbXrecord
280
     1
270
     1
271
     1
  0
XRECORD
  5
2963
102
{ACAD_REACTORS
330
2960
102
}
330
2960
100
AcDbXrecord
280
     1
270
     1
271
     1
  0
XRECORD
  5
295A
102
{ACAD_REACTORS
330
2958
102
}
330
2958
100
AcDbXrecord
280
     1
270
     1
271
     1
  0
XRECORD
  5
2959
102
{ACAD_REACTORS
330
2958
102
}
330
2958
100
AcDbXrecord
280
     1
270
     1
271
     1
  0
XRECORD
  5
295D
102
{ACAD_REACTORS
330
2958
102
}
330
2958
100
AcDbXrecord
280
     1
270
     1
271
     1
  0
XRECORD
  5
295C
102
{ACAD_REACTORS
330
2958
102
}
330
2958
100
AcDbXrecord
280
     1
270
     1
271
     1
  0
XRECORD
  5
295E
102
{ACAD_REACTORS
330
2958
102
}
330
2958
100
AcDbXrecord
280
     1
270
     1
271
     1
  0
XRECORD
  5
295B
102
{ACAD_REACTORS
330
2958
102
}
330
2958
100
AcDbXrecord
280
     1
270
     1
271
     1
  0
XRECORD
  5
296A
102
{ACAD_REACTORS
330
2968
102
}
330
2968
100
AcDbXrecord
280
     1
270
     1
271
     1
  0
XRECORD
  5
2969
102
{ACAD_REACTORS
330
2968
102
}
330
2968
100
AcDbXrecord
280
     1
270
     1
271
     1
  0
XRECORD
  5
296D
102
{ACAD_REACTORS
330
2968
102
}
330
2968
100
AcDbXrecord
280
     1
270
     1
271
     1
  0
XRECORD
  5
296C
102
{ACAD_REACTORS
330
2968
102
}
330
2968
100
AcDbXrecord
280
     1
270
     1
271
     1
  0
XRECORD
  5
296E
102
{ACAD_REACTORS
330
2968
102
}
330
2968
100
AcDbXrecord
280
     1
270
     1
271
     1
  0
XRECORD
  5
296B
102
{ACAD_REACTORS
330
2968
102
}
330
2968
100
AcDbXrecord
280
     1
270
     1
271
     1
  0
CELLSTYLEMAP
  5
2A92
102
{ACAD_REACTORS
330
2A91
102
}
330
2A91
100
AcDbCellStyleMap
 90
        3
300
CELLSTYLE
  1
TABLEFORMAT_BEGIN
 90
        5
170
     1
 91
        0
 92
    32768
 62
   257
 93
        1
300
CONTENTFORMAT
  1
CONTENTFORMAT_BEGIN
 90
        0
 91
        0
 92
        4
 93
        0
300

 40
0.0
140
1.0
 94
        5
 62
     0
340
11
144
0.25
309
CONTENTFORMAT_END
171
     0
 94
        6
 95
        1
302
GRIDFORMAT
  1
GRIDFORMAT_BEGIN
 90
        0
 91
        1
 62
     0
 92
       -2
340
0
 93
        0
 40
0.045
309
GRIDFORMAT_END
 95
        2
302
GRIDFORMAT
  1
GRIDFORMAT_BEGIN
 90
        0
 91
        1
 62
     0
 92
       -2
340
0
 93
        0
 40
0.045
309
GRIDFORMAT_END
 95
        4
302
GRIDFORMAT
  1
GRIDFORMAT_BEGIN
 90
        0
 91
        1
 62
     0
 92
       -2
340
0
 93
        0
 40
0.045
309
GRIDFORMAT_END
 95
        8
302
GRIDFORMAT
  1
GRIDFORMAT_BEGIN
 90
        0
 91
        1
 62
     0
 92
       -2
340
0
 93
        0
 40
0.045
309
GRIDFORMAT_END
 95
       16
302
GRIDFORMAT
  1
GRIDFORMAT_BEGIN
 90
        0
 91
        1
 62
     0
 92
       -2
340
0
 93
        0
 40
0.045
309
GRIDFORMAT_END
 95
       32
302
GRIDFORMAT
  1
GRIDFORMAT_BEGIN
 90
        0
 91
        1
 62
     0
 92
       -2
340
0
 93
        0
 40
0.045
309
GRIDFORMAT_END
309
TABLEFORMAT_END
  1
CELLSTYLE_BEGIN
 90
        1
 91
        1
300
_TITLE
309
CELLSTYLE_END
300
CELLSTYLE
  1
TABLEFORMAT_BEGIN
 90
        5
170
     1
 91
        0
 92
        0
 62
   257
 93
        1
300
CONTENTFORMAT
  1
CONTENTFORMAT_BEGIN
 90
        0
 91
        0
 92
        4
 93
        0
300

 40
0.0
140
1.0
 94
        5
 62
     0
340
11
144
0.18
309
CONTENTFORMAT_END
171
     0
 94
        6
 95
        1
302
GRIDFORMAT
  1
GRIDFORMAT_BEGIN
 90
        0
 91
        1
 62
     0
 92
       -2
340
0
 93
        0
 40
0.045
309
GRIDFORMAT_END
 95
        2
302
GRIDFORMAT
  1
GRIDFORMAT_BEGIN
 90
        0
 91
        1
 62
     0
 92
       -2
340
0
 93
        0
 40
0.045
309
GRIDFORMAT_END
 95
        4
302
GRIDFORMAT
  1
GRIDFORMAT_BEGIN
 90
        0
 91
        1
 62
     0
 92
       -2
340
0
 93
        0
 40
0.045
309
GRIDFORMAT_END
 95
        8
302
GRIDFORMAT
  1
GRIDFORMAT_BEGIN
 90
        0
 91
        1
 62
     0
 92
       -2
340
0
 93
        0
 40
0.045
309
GRIDFORMAT_END
 95
       16
302
GRIDFORMAT
  1
GRIDFORMAT_BEGIN
 90
        0
 91
        1
 62
     0
 92
       -2
340
0
 93
        0
 40
0.045
309
GRIDFORMAT_END
 95
       32
302
GRIDFORMAT
  1
GRIDFORMAT_BEGIN
 90
        0
 91
        1
 62
     0
 92
       -2
340
0
 93
        0
 40
0.045
309
GRIDFORMAT_END
309
TABLEFORMAT_END
  1
CELLSTYLE_BEGIN
 90
        2
 91
        1
300
_HEADER
309
CELLSTYLE_END
300
CELLSTYLE
  1
TABLEFORMAT_BEGIN
 90
        5
170
     1
 91
        0
 92
        0
 62
   257
 93
        1
300
CONTENTFORMAT
  1
CONTENTFORMAT_BEGIN
 90
        0
 91
        0
 92
        4
 93
        0
300

 40
0.0
140
1.0
 94
        2
 62
     0
340
11
144
0.18
309
CONTENTFORMAT_END
171
     0
 94
        6
 95
        1
302
GRIDFORMAT
  1
GRIDFORMAT_BEGIN
 90
        0
 91
        1
 62
     0
 92
       -2
340
0
 93
        0
 40
0.045
309
GRIDFORMAT_END
 95
        2
302
GRIDFORMAT
  1
GRIDFORMAT_BEGIN
 90
        0
 91
        1
 62
     0
 92
       -2
340
0
 93
        0
 40
0.045
309
GRIDFORMAT_END
 95
        4
302
GRIDFORMAT
  1
GRIDFORMAT_BEGIN
 90
        0
 91
        1
 62
     0
 92
       -2
340
0
 93
        0
 40
0.045
309
GRIDFORMAT_END
 95
        8
302
GRIDFORMAT
  1
GRIDFORMAT_BEGIN
 90
        0
 91
        1
 62
     0
 92
       -2
340
0
 93
        0
 40
0.045
309
GRIDFORMAT_END
 95
       16
302
GRIDFORMAT
  1
GRIDFORMAT_BEGIN
 90
        0
 91
        1
 62
     0
 92
       -2
340
0
 93
        0
 40
0.045
309
GRIDFORMAT_END
 95
       32
302
GRIDFORMAT
  1
GRIDFORMAT_BEGIN
 90
        0
 91
        1
 62
     0
 92
       -2
340
0
 93
        0
 40
0.045
309
GRIDFORMAT_END
309
TABLEFORMAT_END
  1
CELLSTYLE_BEGIN
 90
        3
 91
        2
300
_DATA
309
CELLSTYLE_END
  0
ENDSEC
  0
SECTION
  2
ACDSDATA
 70
     2
 71
     8
  0
ACDSSCHEMA
 90
        0
  1
AcDb_Thumbnail_Schema
  2
AcDbDs::ID
280
    10
 91
        8
  2
Thumbnail_Data
280
    15
 91
        0
101
ACDSRECORD
 95
        0
 90
        1
  2
AcDbDs::TreatedAsObjectData
280
     1
291
     1
101
ACDSRECORD
 95
        0
 90
        2
  2
AcDbDs::Legacy
280
     1
291
     1
101
ACDSRECORD
  1
AcDbDs::ID
 90
        3
  2
AcDs:Indexable
280
     1
291
     1
101
ACDSRECORD
  1
AcDbDs::ID
 90
        4
  2
AcDbDs::HandleAttribute
280
     7
282
     1
  0
ACDSSCHEMA
 90
        1
  1
AcDbDs::TreatedAsObjectDataSchema
  2
AcDbDs::TreatedAsObjectData
280
     1
 91
        0
  0
ACDSSCHEMA
 90
        2
  1
AcDbDs::LegacySchema
  2
AcDbDs::Legacy
280
     1
 91
        0
  0
ACDSSCHEMA
 90
        3
  1
AcDbDs::IndexedPropertySchema
  2
AcDs:Indexable
280
     1
 91
        0
  0
ACDSSCHEMA
 90
        4
  1
AcDbDs::HandleAttributeSchema
  2
AcDbDs::HandleAttribute
280
     7
 91
        1
284
     1
  0
ACDSRECORD
 90
        0
  2
AcDbDs::ID
280
    10
320
9C
  2
Thumbnail_Data
280
    15
 94
     1519
310
89504E470D0A1A0A0000000D49484452000000630000008C08030000005FF7E7F000000300504C5445000000000000FFFFFF0000000000000000000000000000000000000000000000000000330000660000990000CC0000FF0033000033330033660033990033CC0033FF0066000066330066660066990066CC0066FF0099
310
000099330099660099990099CC0099FF00CC0000CC3300CC6600CC9900CCCC00CCFF00FF0000FF3300FF6600FF9900FFCC00FFFF3300003300333300663300993300CC3300FF3333003333333333663333993333CC3333FF3366003366333366663366993366CC3366FF3399003399333399663399993399CC3399FF33CC00
310
33CC3333CC6633CC9933CCCC33CCFF33FF0033FF3333FF6633FF9933FFCC33FFFF6600006600336600666600996600CC6600FF6633006633336633666633996633CC6633FF6666006666336666666666996666CC6666FF6699006699336699666699996699CC6699FF66CC0066CC3366CC6666CC9966CCCC66CCFF66FF0066
310
FF3366FF6666FF9966FFCC66FFFF9900009900339900669900999900CC9900FF9933009933339933669933999933CC9933FF9966009966339966669966999966CC9966FF9999009999339999669999999999CC9999FF99CC0099CC3399CC6699CC9999CCCC99CCFF99FF0099FF3399FF6699FF9999FFCC99FFFFCC0000CC00
310
33CC0066CC0099CC00CCCC00FFCC3300CC3333CC3366CC3399CC33CCCC33FFCC6600CC6633CC6666CC6699CC66CCCC66FFCC9900CC9933CC9966CC9999CC99CCCC99FFCCCC00CCCC33CCCC66CCCC99CCCCCCCCCCFFCCFF00CCFF33CCFF66CCFF99CCFFCCCCFFFFFF0000FF0033FF0066FF0099FF00CCFF00FFFF3300FF3333
310
FF3366FF3399FF33CCFF33FFFF6600FF6633FF6666FF6699FF66CCFF66FFFF9900FF9933FF9966FF9999FF99CCFF99FFFFCC00FFCC33FFCC66FFCC99FFCCCCFFCCFFFFFF00FFFF33FFFF66FFFF99FFFFCCFFFFFF0000000D0D0D1A1A1A2828283535354343435050505D5D5D6B6B6B787878868686939393A1A1A1AEAEAEBB
310
BBBBC9C9C9D6D6D6E4E4E4F1F1F1FFFFFF000000000000000000000000000000000000000000000000000000000000C11FEF66000002AA4944415468DEED9B5B9683200C866707EE7F7BD9C3FF3E73AA524042FE80D0CBC053DB93F8991B60A43F183F7E20A3C72CC66952F82D1BCAEFAC78C2183476466A59FF47A4D73B18
310
E38C8818A3C2AD301E2E54E258BE50E9F65FCDD01D5B0AA8A5E063E054C9ED321562869921416437068C42CA80518CD145E5004A55A56847502946F521B04B48A45F8ED58B18B887912B9CFE3CE6C483215E86580C5C19E26508C978C6E3764621E6C319F032F07F19DF12F3A18C593578AAD20CF87DF5550CCC6070EB0702
310
03D6FA71C95DE17C25415FFCF55167E0EB18D2C038EB7C00E3B29EB3317F578637776558CC1763311A187033D06007C8F52330E0583F62319E210D753E84A13E9F2FC69D0C7430F8D617A150E92DCDE8917D2EC36AB47530B23DC358C68AF9624CE8850B60435929B5174E140C2945F5A92BDAE2B12399ACED4D47694AF7D4
310
79D40C29B7F09385C990527C1537C06A7DF7FC4E14BBDC0C8936ACB9474B5226437B47F6160CC475A3E4EE0C86F13E31486D7FA39171B6F5F31479BE60DABF6D0A43EC78E4C99E677E14B84DB6CD9452F60C34632318CA9EA1C600C500AC3D03CB88CB5995EA8C0775270D0C2CC65BC583639073C975B501C3E0E792FA0B71
310
97943A97D41FF0BC521E3B9A184E5F4D6008150FE98B799E677D8C3CCBCBBBB82A8CB68363343D7F900C4A6AF519569F61313E9D31E35C5F72304B107AB422A5BEE88CF389D401BE6ACF217A921E31970049871C4A9D7B7AD39ED03BE3D1E72BEDF8D80DBEBA97C1F9AAA79A195FF5E715285F4DAA41D5CF49AF125ACC7179
310
7B68FA0A547C0BF128D8A1BE08A219515FED72C0B58151EEF5668C648FD7E5AB1AE3B57945172288B297CEF543B53DA476FF1A05FB04B9887F6E27FBF0CCFAD16787DCB82F01B557A9E4EE3D79F58AFA28DF61FF47D1E6C421FF9599F09F9FD1631263FCF805DA1F29798C833CAB0000000049454E44AE426082
  0
ENDSEC
  0
EOF

