  0
SECTION
  2
HEADER
  9
$ACADVER
  1
AC1032
  9
$ACADMAINTVER
 90
      159
  9
$DWGCODEPAGE
  3
ANSI_1250
  9
$LASTSAVEDBY
  1
vancura
  9
$REQUIREDVERSIONS
160
                 0
  9
$INSBASE
 10
0.0
 20
0.0
 30
0.0
  9
$EXTMIN
 10
334.1776794655556
 20
614.5939273701984
 30
0.0
  9
$EXTMAX
 10
553.5226193754813
 20
719.1754977882907
 30
0.0
  9
$LIMMIN
 10
0.0
 20
0.0
  9
$LIMMAX
 10
420.0
 20
297.0
  9
$ORTHOMODE
 70
     1
  9
$REGENMODE
 70
     1
  9
$FILLMODE
 70
     1
  9
$QTEXTMODE
 70
     0
  9
$MIRRTEXT
 70
     1
  9
$LTSCALE
 40
1.0
  9
$ATTMODE
 70
     1
  9
$TEXTSIZE
 40
2.5
  9
$TRACEWID
 40
1.0
  9
$TEXTSTYLE
  7
Standard
  9
$CLAYER
  8
0
  9
$CELTYPE
  6
ByLayer
  9
$CECOLOR
 62
   256
  9
$CELTSCALE
 40
1.0
  9
$DISPSILH
 70
     0
  9
$DIMSCALE
 40
1.0
  9
$DIMASZ
 40
2.5
  9
$DIMEXO
 40
0.625
  9
$DIMDLI
 40
3.75
  9
$DIMRND
 40
0.0
  9
$DIMDLE
 40
0.0
  9
$DIMEXE
 40
1.25
  9
$DIMTP
 40
0.0
  9
$DIMTM
 40
0.0
  9
$DIMTXT
 40
2.5
  9
$DIMCEN
 40
2.5
  9
$DIMTSZ
 40
0.0
  9
$DIMTOL
 70
     0
  9
$DIMLIM
 70
     0
  9
$DIMTIH
 70
     0
  9
$DIMTOH
 70
     0
  9
$DIMSE1
 70
     0
  9
$DIMSE2
 70
     0
  9
$DIMTAD
 70
     1
  9
$DIMZIN
 70
     8
  9
$DIMBLK
  1

  9
$DIMASO
 70
     1
  9
$DIMSHO
 70
     1
  9
$DIMPOST
  1

  9
$DIMAPOST
  1

  9
$DIMALT
 70
     0
  9
$DIMALTD
 70
     3
  9
$DIMALTF
 40
0.03937007874016
  9
$DIMLFAC
 40
1.0
  9
$DIMTOFL
 70
     1
  9
$DIMTVP
 40
0.0
  9
$DIMTIX
 70
     0
  9
$DIMSOXD
 70
     0
  9
$DIMSAH
 70
     0
  9
$DIMBLK1
  1

  9
$DIMBLK2
  1

  9
$DIMSTYLE
  2
ISO-25
  9
$DIMCLRD
 70
     0
  9
$DIMCLRE
 70
     0
  9
$DIMCLRT
 70
     0
  9
$DIMTFAC
 40
1.0
  9
$DIMGAP
 40
0.625
  9
$DIMJUST
 70
     0
  9
$DIMSD1
 70
     0
  9
$DIMSD2
 70
     0
  9
$DIMTOLJ
 70
     0
  9
$DIMTZIN
 70
     8
  9
$DIMALTZ
 70
     0
  9
$DIMALTTZ
 70
     0
  9
$DIMUPT
 70
     0
  9
$DIMDEC
 70
     2
  9
$DIMTDEC
 70
     2
  9
$DIMALTU
 70
     2
  9
$DIMALTTD
 70
     3
  9
$DIMTXSTY
  7
Standard
  9
$DIMAUNIT
 70
     0
  9
$DIMADEC
 70
     0
  9
$DIMALTRND
 40
0.0
  9
$DIMAZIN
 70
     0
  9
$DIMDSEP
 70
    44
  9
$DIMATFIT
 70
     3
  9
$DIMFRAC
 70
     0
  9
$DIMLDRBLK
  1

  9
$DIMLUNIT
 70
     2
  9
$DIMLWD
 70
    -2
  9
$DIMLWE
 70
    -2
  9
$DIMTMOVE
 70
     0
  9
$DIMFXL
 40
1.0
  9
$DIMFXLON
 70
     0
  9
$DIMJOGANG
 40
0.7853981633974483
  9
$DIMTFILL
 70
     0
  9
$DIMTFILLCLR
 70
     0
  9
$DIMARCSYM
 70
     0
  9
$DIMLTYPE
  6

  9
$DIMLTEX1
  6

  9
$DIMLTEX2
  6

  9
$DIMTXTDIRECTION
 70
     0
  9
$LUNITS
 70
     2
  9
$LUPREC
 70
     4
  9
$SKETCHINC
 40
1.0
  9
$FILLETRAD
 40
3.0
  9
$AUNITS
 70
     0
  9
$AUPREC
 70
     0
  9
$MENU
  1
.
  9
$ELEVATION
 40
0.0
  9
$PELEVATION
 40
0.0
  9
$THICKNESS
 40
0.0
  9
$LIMCHECK
 70
     0
  9
$CHAMFERA
 40
10.0
  9
$CHAMFERB
 40
10.0
  9
$CHAMFERC
 40
20.0
  9
$CHAMFERD
 40
0.0
  9
$SKPOLY
 70
     0
  9
$TDCREATE
 40
2453579.249560185
  9
$TDUCREATE
 40
2453579.166237500
  9
$TDUPDATE
 40
2459584.356539352
  9
$TDUUPDATE
 40
2459584.314872685
  9
$TDINDWG
 40
0.1484364352
  9
$TDUSRTIMER
 40
0.1484282176
  9
$USRTIMER
 70
     1
  9
$ANGBASE
 50
0.0
  9
$ANGDIR
 70
     0
  9
$PDMODE
 70
     0
  9
$PDSIZE
 40
0.0
  9
$PLINEWID
 40
0.0
  9
$SPLFRAME
 70
     0
  9
$SPLINETYPE
 70
     6
  9
$SPLINESEGS
 70
     8
  9
$HANDSEED
  5
4EB
  9
$SURFTAB1
 70
     6
  9
$SURFTAB2
 70
     6
  9
$SURFTYPE
 70
     6
  9
$SURFU
 70
     6
  9
$SURFV
 70
     6
  9
$UCSBASE
  2

  9
$UCSNAME
  2

  9
$UCSORG
 10
0.0
 20
0.0
 30
0.0
  9
$UCSXDIR
 10
1.0
 20
0.0
 30
0.0
  9
$UCSYDIR
 10
0.0
 20
1.0
 30
0.0
  9
$UCSORTHOREF
  2

  9
$UCSORTHOVIEW
 70
     0
  9
$UCSORGTOP
 10
0.0
 20
0.0
 30
0.0
  9
$UCSORGBOTTOM
 10
0.0
 20
0.0
 30
0.0
  9
$UCSORGLEFT
 10
0.0
 20
0.0
 30
0.0
  9
$UCSORGRIGHT
 10
0.0
 20
0.0
 30
0.0
  9
$UCSORGFRONT
 10
0.0
 20
0.0
 30
0.0
  9
$UCSORGBACK
 10
0.0
 20
0.0
 30
0.0
  9
$PUCSBASE
  2

  9
$PUCSNAME
  2

  9
$PUCSORG
 10
0.0
 20
0.0
 30
0.0
  9
$PUCSXDIR
 10
1.0
 20
0.0
 30
0.0
  9
$PUCSYDIR
 10
0.0
 20
1.0
 30
0.0
  9
$PUCSORTHOREF
  2

  9
$PUCSORTHOVIEW
 70
     0
  9
$PUCSORGTOP
 10
0.0
 20
0.0
 30
0.0
  9
$PUCSORGBOTTOM
 10
0.0
 20
0.0
 30
0.0
  9
$PUCSORGLEFT
 10
0.0
 20
0.0
 30
0.0
  9
$PUCSORGRIGHT
 10
0.0
 20
0.0
 30
0.0
  9
$PUCSORGFRONT
 10
0.0
 20
0.0
 30
0.0
  9
$PUCSORGBACK
 10
0.0
 20
0.0
 30
0.0
  9
$USERI1
 70
     0
  9
$USERI2
 70
     0
  9
$USERI3
 70
     0
  9
$USERI4
 70
     0
  9
$USERI5
 70
     0
  9
$USERR1
 40
0.0
  9
$USERR2
 40
0.0
  9
$USERR3
 40
0.0
  9
$USERR4
 40
0.0
  9
$USERR5
 40
0.0
  9
$WORLDVIEW
 70
     1
  9
$SHADEDGE
 70
     3
  9
$SHADEDIF
 70
    70
  9
$TILEMODE
 70
     1
  9
$MAXACTVP
 70
    64
  9
$PINSBASE
 10
0.0
 20
0.0
 30
0.0
  9
$PLIMCHECK
 70
     0
  9
$PEXTMIN
 10
0.0
 20
0.0
 30
0.0
  9
$PEXTMAX
 10
0.0
 20
0.0
 30
0.0
  9
$PLIMMIN
 10
0.0
 20
0.0
  9
$PLIMMAX
 10
12.0
 20
9.0
  9
$UNITMODE
 70
     0
  9
$VISRETAIN
 70
     1
  9
$PLINEGEN
 70
     0
  9
$PSLTSCALE
 70
     1
  9
$TREEDEPTH
 70
  3020
  9
$CMLSTYLE
  2
Standard
  9
$CMLJUST
 70
     0
  9
$CMLSCALE
 40
20.0
  9
$PROXYGRAPHICS
 70
     1
  9
$MEASUREMENT
 70
     1
  9
$CELWEIGHT
370
    -1
  9
$ENDCAPS
280
     0
  9
$JOINSTYLE
280
     0
  9
$LWDISPLAY
290
     0
  9
$INSUNITS
 70
     4
  9
$HYPERLINKBASE
  1

  9
$STYLESHEET
  1

  9
$XEDIT
290
     1
  9
$CEPSNTYPE
380
     0
  9
$PSTYLEMODE
290
     1
  9
$FINGERPRINTGUID
  2
{FDEAD578-A652-11D2-9A35-0060089B3A3F}
  9
$VERSIONGUID
  2
{CCFBBF37-A2CA-CD44-8EF7-0AFF7D493484}
  9
$EXTNAMES
290
     1
  9
$PSVPSCALE
 40
0.0
  9
$OLESTARTUP
290
     0
  9
$SORTENTS
280
   127
  9
$INDEXCTL
280
     0
  9
$HIDETEXT
280
     1
  9
$XCLIPFRAME
280
     0
  9
$HALOGAP
280
     0
  9
$OBSCOLOR
 70
   257
  9
$OBSLTYPE
280
     0
  9
$INTERSECTIONDISPLAY
280
     0
  9
$INTERSECTIONCOLOR
 70
   257
  9
$DIMASSOC
280
     2
  9
$PROJECTNAME
  1

  9
$CAMERADISPLAY
290
     0
  9
$LENSLENGTH
 40
50.0
  9
$CAMERAHEIGHT
 40
0.0
  9
$STEPSPERSEC
 40
2.0
  9
$STEPSIZE
 40
6.0
  9
$3DDWFPREC
 40
2.0
  9
$PSOLWIDTH
 40
0.25
  9
$PSOLHEIGHT
 40
4.0
  9
$LOFTANG1
 40
1.570796326794896
  9
$LOFTANG2
 40
1.570796326794896
  9
$LOFTMAG1
 40
0.0
  9
$LOFTMAG2
 40
0.0
  9
$LOFTPARAM
 70
     7
  9
$LOFTNORMALS
280
     1
  9
$LATITUDE
 40
37.795
  9
$LONGITUDE
 40
-122.394
  9
$NORTHDIRECTION
 40
0.0
  9
$TIMEZONE
 70
 -8000
  9
$LIGHTGLYPHDISPLAY
280
     1
  9
$TILEMODELIGHTSYNCH
280
     1
  9
$CMATERIAL
347
477
  9
$SOLIDHIST
280
     0
  9
$SHOWHIST
280
     1
  9
$DWFFRAME
280
     2
  9
$DGNFRAME
280
     0
  9
$REALWORLDSCALE
290
     1
  9
$INTERFERECOLOR
 62
     1
  9
$INTERFEREOBJVS
345
499
  9
$INTERFEREVPVS
346
496
  9
$CSHADOW
280
     0
  9
$SHADOWPLANELOCATION
 40
0.0
  0
ENDSEC
  0
SECTION
  2
CLASSES
  0
CLASS
  1
ACDBDICTIONARYWDFLT
  2
AcDbDictionaryWithDefault
  3
ObjectDBX Classes
 90
        0
 91
        1
280
     0
281
     0
  0
CLASS
  1
DICTIONARYVAR
  2
AcDbDictionaryVar
  3
ObjectDBX Classes
 90
        0
 91
       19
280
     0
281
     0
  0
CLASS
  1
DIMASSOC
  2
AcDbDimAssoc
  3
"AcDbDimAssoc|Product Desc:     AcDim ARX App For Dimension|Company:          Autodesk, Inc.|WEB Address:      www.autodesk.com"
 90
        0
 91
        9
280
     0
281
     0
  0
CLASS
  1
TABLESTYLE
  2
AcDbTableStyle
  3
ObjectDBX Classes
 90
     4095
 91
        1
280
     0
281
     0
  0
CLASS
  1
SORTENTSTABLE
  2
AcDbSortentsTable
  3
ObjectDBX Classes
 90
        0
 91
        1
280
     0
281
     0
  0
CLASS
  1
MATERIAL
  2
AcDbMaterial
  3
ObjectDBX Classes
 90
     1153
 91
        3
280
     0
281
     0
  0
CLASS
  1
VISUALSTYLE
  2
AcDbVisualStyle
  3
ObjectDBX Classes
 90
     4095
 91
       24
280
     0
281
     0
  0
CLASS
  1
SCALE
  2
AcDbScale
  3
ObjectDBX Classes
 90
     1153
 91
       17
280
     0
281
     0
  0
CLASS
  1
MLEADERSTYLE
  2
AcDbMLeaderStyle
  3
ACDB_MLEADERSTYLE_CLASS
 90
     4095
 91
        1
280
     0
281
     0
  0
CLASS
  1
ACDBSECTIONVIEWSTYLE
  2
AcDbSectionViewStyle
  3
ObjectDBX Classes
 90
     1025
 91
        1
280
     0
281
     0
  0
CLASS
  1
ACDBDETAILVIEWSTYLE
  2
AcDbDetailViewStyle
  3
ObjectDBX Classes
 90
     1025
 91
        1
280
     0
281
     0
  0
CLASS
  1
CELLSTYLEMAP
  2
AcDbCellStyleMap
  3
ObjectDBX Classes
 90
     1152
 91
        1
280
     0
281
     0
  0
ENDSEC
  0
SECTION
  2
TABLES
  0
TABLE
  2
VPORT
  5
8
330
0
100
AcDbSymbolTable
 70
     1
  0
VPORT
  5
474
330
8
100
AcDbSymbolTableRecord
100
AcDbViewportTableRecord
  2
*Active
 70
     0
 10
0.0
 20
0.0
 11
1.0
 21
1.0
 12
489.1141553876796
 22
667.4670427804668
 13
0.0
 23
0.0
 14
10.0
 24
10.0
 15
10.0
 25
10.0
 16
0.0
 26
0.0
 36
1.0
 17
0.0
 27
0.0
 37
0.0
 40
143.1740147944815
 41
1.900877192982456
 42
50.0
 43
0.0
 44
0.0
 50
0.0
 51
0.0
 71
     0
 72
  1000
 73
     1
 74
     3
 75
     0
 76
     0
 77
     0
 78
     0
281
     0
 65
     1
110
0.0
120
0.0
130
0.0
111
1.0
121
0.0
131
0.0
112
0.0
122
1.0
132
0.0
 79
     0
146
0.0
348
495
 60
     3
 61
     5
292
     1
282
     1
141
0.0
142
0.0
 63
   250
421
  3355443
1001
ACAD_NAV_VCDISPLAY
1070
     3
  0
ENDTAB
  0
TABLE
  2
LTYPE
  5
5
330
0
100
AcDbSymbolTable
 70
     4
  0
LTYPE
  5
14
330
5
100
AcDbSymbolTableRecord
100
AcDbLinetypeTableRecord
  2
ByBlock
 70
     0
  3

 72
    65
 73
     0
 40
0.0
  0
LTYPE
  5
15
330
5
100
AcDbSymbolTableRecord
100
AcDbLinetypeTableRecord
  2
ByLayer
 70
     0
  3

 72
    65
 73
     0
 40
0.0
  0
LTYPE
  5
16
330
5
100
AcDbSymbolTableRecord
100
AcDbLinetypeTableRecord
  2
Continuous
 70
     0
  3
Solid line
 72
    65
 73
     0
 40
0.0
  0
LTYPE
  5
A8
330
5
100
AcDbSymbolTableRecord
100
AcDbLinetypeTableRecord
  2
ACAD_ISO02W100
 70
     0
  3
ISO čárkovaná __ __ __ __ __ __ __ __ __ __ __ 
 72
    65
 73
     2
 40
15.0
 49
12.0
 74
     0
 49
-3.0
 74
     0
  0
LTYPE
  5
A9
330
5
100
AcDbSymbolTableRecord
100
AcDbLinetypeTableRecord
  2
ACAD_ISO10W100
 70
     0
  3
ISO čerchovaná __ . __ . __ . __ . __ . __ . __
 72
    65
 73
     4
 40
18.0
 49
12.0
 74
     0
 49
-3.0
 74
     0
 49
0.0
 74
     0
 49
-3.0
 74
     0
  0
ENDTAB
  0
TABLE
  2
LAYER
  5
2
330
0
100
AcDbSymbolTable
 70
     3
  0
LAYER
  5
10
102
{ACAD_XDICTIONARY
360
4DC
102
}
330
2
100
AcDbSymbolTableRecord
100
AcDbLayerTableRecord
  2
0
 70
     0
 62
     7
  6
Continuous
370
    -3
390
F
347
487
348
0
  0
LAYER
  5
AC
330
2
100
AcDbSymbolTableRecord
100
AcDbLayerTableRecord
  2
Defpoints
 70
     0
 62
     7
  6
Continuous
290
     0
370
    -3
390
F
347
487
348
0
  0
LAYER
  5
21B
102
{ACAD_XDICTIONARY
360
4DE
102
}
330
2
100
AcDbSymbolTableRecord
100
AcDbLayerTableRecord
  2
Hladina1
 70
     0
 62
     5
  6
Continuous
370
    -3
390
F
347
487
348
0
  0
ENDTAB
  0
TABLE
  2
STYLE
  5
3
330
0
100
AcDbSymbolTable
 70
     2
  0
STYLE
  5
11
330
3
100
AcDbSymbolTableRecord
100
AcDbTextStyleTableRecord
  2
Standard
 70
     0
 40
0.0
 41
1.0
 50
0.0
 71
     0
 42
2.5
  3
txt
  4

  0
STYLE
  5
A7
330
3
100
AcDbSymbolTableRecord
100
AcDbTextStyleTableRecord
  2

 70
     1
 40
0.0
 41
1.0
 50
0.0
 71
     0
 42
2.5
  3
ltypeshp.shx
  4

  0
ENDTAB
  0
TABLE
  2
VIEW
  5
6
330
0
100
AcDbSymbolTable
 70
     0
  0
ENDTAB
  0
TABLE
  2
UCS
  5
7
330
0
100
AcDbSymbolTable
 70
     0
  0
ENDTAB
  0
TABLE
  2
APPID
  5
9
330
0
100
AcDbSymbolTable
 70
     3
  0
APPID
  5
12
330
9
100
AcDbSymbolTableRecord
100
AcDbRegAppTableRecord
  2
ACAD
 70
     0
  0
APPID
  5
446
330
9
100
AcDbSymbolTableRecord
100
AcDbRegAppTableRecord
  2
ACAD_EXEMPT_FROM_CAD_STANDARDS
 70
     0
  0
APPID
  5
4C4
330
9
100
AcDbSymbolTableRecord
100
AcDbRegAppTableRecord
  2
ACAD_NAV_VCDISPLAY
 70
     0
  0
ENDTAB
  0
TABLE
  2
DIMSTYLE
  5
A
330
0
100
AcDbSymbolTable
 70
     2
100
AcDbDimStyleTable
 71
     1
340
27
  0
DIMSTYLE
105
27
102
{ACAD_REACTORS
330
2EE
330
2F1
330
2F2
330
351
330
2EB
102
}
330
A
100
AcDbSymbolTableRecord
100
AcDbDimStyleTableRecord
  2
ISO-25
 70
     0
 41
2.5
 42
0.625
 43
3.75
 44
1.25
 73
     0
 74
     0
 77
     1
 78
     8
140
2.5
141
2.5
143
0.03937007874016
147
0.625
171
     3
172
     1
271
     2
272
     2
274
     3
278
    44
283
     0
284
     8
340
11
  0
ENDTAB
  0
TABLE
  2
BLOCK_RECORD
  5
1
330
0
100
AcDbSymbolTable
 70
    28
  0
BLOCK_RECORD
  5
1F
102
{ACAD_XDICTIONARY
360
459
102
}
330
1
100
AcDbSymbolTableRecord
100
AcDbBlockTableRecord
  2
*Model_Space
340
22
 70
     0
280
     1
281
     0
  0
BLOCK_RECORD
  5
50
330
1
100
AcDbSymbolTableRecord
100
AcDbBlockTableRecord
  2
*Paper_Space
340
51
 70
     0
280
     1
281
     0
  0
BLOCK_RECORD
  5
55
330
1
100
AcDbSymbolTableRecord
100
AcDbBlockTableRecord
  2
*Paper_Space0
340
56
 70
     0
280
     1
281
     0
  0
BLOCK_RECORD
  5
AD
330
1
100
AcDbSymbolTableRecord
100
AcDbBlockTableRecord
  2
*D1
340
0
 70
     0
280
     1
281
     0
  0
BLOCK_RECORD
  5
C5
330
1
100
AcDbSymbolTableRecord
100
AcDbBlockTableRecord
  2
*D2
340
0
 70
     0
280
     1
281
     0
  0
BLOCK_RECORD
  5
DD
330
1
100
AcDbSymbolTableRecord
100
AcDbBlockTableRecord
  2
*D3
340
0
 70
     0
280
     1
281
     0
  0
BLOCK_RECORD
  5
F5
330
1
100
AcDbSymbolTableRecord
100
AcDbBlockTableRecord
  2
*D4
340
0
 70
     0
280
     1
281
     0
  0
BLOCK_RECORD
  5
10D
330
1
100
AcDbSymbolTableRecord
100
AcDbBlockTableRecord
  2
*D5
340
0
 70
     0
280
     1
281
     0
  0
BLOCK_RECORD
  5
175
330
1
100
AcDbSymbolTableRecord
100
AcDbBlockTableRecord
  2
*D6
340
0
 70
     0
280
     1
281
     0
  0
BLOCK_RECORD
  5
181
330
1
100
AcDbSymbolTableRecord
100
AcDbBlockTableRecord
  2
*D7
340
0
 70
     0
280
     1
281
     0
  0
BLOCK_RECORD
  5
18D
330
1
100
AcDbSymbolTableRecord
100
AcDbBlockTableRecord
  2
*D8
340
0
 70
     0
280
     1
281
     0
  0
BLOCK_RECORD
  5
199
330
1
100
AcDbSymbolTableRecord
100
AcDbBlockTableRecord
  2
*D9
340
0
 70
     0
280
     1
281
     0
  0
BLOCK_RECORD
  5
1A5
330
1
100
AcDbSymbolTableRecord
100
AcDbBlockTableRecord
  2
*D10
340
0
 70
     0
280
     1
281
     0
  0
BLOCK_RECORD
  5
1B1
330
1
100
AcDbSymbolTableRecord
100
AcDbBlockTableRecord
  2
*D11
340
0
 70
     0
280
     1
281
     0
  0
BLOCK_RECORD
  5
1BD
330
1
100
AcDbSymbolTableRecord
100
AcDbBlockTableRecord
  2
*D12
340
0
 70
     0
280
     1
281
     0
  0
BLOCK_RECORD
  5
1C9
330
1
100
AcDbSymbolTableRecord
100
AcDbBlockTableRecord
  2
*D13
340
0
 70
     0
280
     1
281
     0
  0
BLOCK_RECORD
  5
1D5
330
1
100
AcDbSymbolTableRecord
100
AcDbBlockTableRecord
  2
2
340
0
310
2800000020000000200000000100080000000000000400000000000000000000000000000000000000000000000080000080000000808000800000008000800080800000C0C0C000C0DCC000F0CAA6000020400000206000002080000020A0000020C0000020E00000400000004020000040400000406000004080000040A0
310
000040C0000040E00000600000006020000060400000606000006080000060A0000060C0000060E00000800000008020000080400000806000008080000080A0000080C0000080E00000A0000000A0200000A0400000A0600000A0800000A0A00000A0C00000A0E00000C0000000C0200000C0400000C0600000C0800000C0
310
A00000C0C00000C0E00000E0000000E0200000E0400000E0600000E0800000E0A00000E0C00000E0E00040000000400020004000400040006000400080004000A0004000C0004000E00040200000402020004020400040206000402080004020A0004020C0004020E000404000004040200040404000404060004040800040
310
40A0004040C0004040E00040600000406020004060400040606000406080004060A0004060C0004060E00040800000408020004080400040806000408080004080A0004080C0004080E00040A0000040A0200040A0400040A0600040A0800040A0A00040A0C00040A0E00040C0000040C0200040C0400040C0600040C08000
310
40C0A00040C0C00040C0E00040E0000040E0200040E0400040E0600040E0800040E0A00040E0C00040E0E00080000000800020008000400080006000800080008000A0008000C0008000E00080200000802020008020400080206000802080008020A0008020C0008020E00080400000804020008040400080406000804080
310
008040A0008040C0008040E00080600000806020008060400080606000806080008060A0008060C0008060E00080800000808020008080400080806000808080008080A0008080C0008080E00080A0000080A0200080A0400080A0600080A0800080A0A00080A0C00080A0E00080C0000080C0200080C0400080C0600080C0
310
800080C0A00080C0C00080C0E00080E0000080E0200080E0400080E0600080E0800080E0A00080E0C00080E0E000C0000000C0002000C0004000C0006000C0008000C000A000C000C000C000E000C0200000C0202000C0204000C0206000C0208000C020A000C020C000C020E000C0400000C0402000C0404000C0406000C0
310
408000C040A000C040C000C040E000C0600000C0602000C0604000C0606000C0608000C060A000C060C000C060E000C0800000C0802000C0804000C0806000C0808000C080A000C080C000C080E000C0A00000C0A02000C0A04000C0A06000C0A08000C0A0A000C0A0C000C0A0E000C0C00000C0C02000C0C04000C0C06000
310
C0C08000C0C0A000F0FBFF00A4A0A000808080000000FF0000FF000000FFFF00FF000000FF00FF00FFFF0000FFFFFF0000000000000000000000000000000000000000000000000000000000000000000000000000000000000000000000000000000000000000000000000000000000000000000000000000000000000000
310
0000000000000000000000000000000000000000000000FCFCFCFCFCFCFCFCFCFCFCFCFCFC000000000000000000000000000000FCFCFCFCFCFCFCFCFCFCFCFCFCFC000000FCFC000000000000000000000000FCFCFCFCFCFC0000000000000000FC00FCFCFCFC000000000000000000000000FCFCFC00FCFC000000000000
310
0000FC00FC00FCFCFC0000000000000000000000FCFC0000FCFC0000000000000000FC00FC00FCFC000000000000000000000000FCFC0000FCFC0000000000FCFCFCFC00FC0000000000000000000000000000000000FCFCFCFCFC000000FCFC0000FC0000FCFC00000000000000000000000000FCFC0000FC00FCFCFCFCFC
310
FCFCFC0000FCFCFCFC000000000000000000000000FCFCFCFCFCFC0000FCFCFCFC0000FC00FC00FCFC000000000000000000000000FCFC0000FCFCFCFC00FCFC000000FC00FC00FCFC000000000000000000000000FCFC0000FCFC00FCFCFC00000000FC00FC000000000000000000000000000000FC000000FCFC00000000
310
00000000FC00FC000000000000000000000000000000000000FCFCFC000000000000000000FCFC00000000000000000000000000000000FCFCFC00FC000000000000000000FC00FC0000000000000000000000000000FC00FCFCFCFC000000000000000000FC00FC0000000000000000000000000000FCFCFC00FCFC000000
310
000000000000FC00FC0000000000000000000000000000FCFC0000FCFCFC00000000000000FC0000FC0000000000000000000000000000FCFC0000FC0000FCFCFC0000FCFC000000FC000000000000000000000000000000000000FC00FCFCFCFCFCFCFCFCFCFCFC00FC00000000000000000000000000000000FC0000FC00
310
000000000000000000FCFCFC00000000000000FC000000000000FC0000FC00000000000000000000000000FC000000000000FCFCFC00000000FC000000FC00000000FCFCFCFCFCFCFC000000FC00FCFCFCFC00FC00000000FC000000FCFCFCFCFCFC00FCFCFCFCFC00FCFC0000FCFC0000FCFC0000000000FC00FCFCFCFCFC
310
FCFCFCFCFC000000FCFCFCFC00000000FCFC00000000000000FCFC00000000000000000000FC0000000000FCFC000000FC00000000000000000000000000000000000000FCFCFCFCFCFCFC000000FCFC00000000000000000000000000000000000000000000000000FCFCFCFCFC0000000000000000000000000000000000
310
0000000000000000000000000000000000000000000000000000000000000000000000000000000000000000000000000000000000000000
102
{BLKREFS
331
34D
102
}
 70
     4
280
     1
281
     0
  0
BLOCK_RECORD
  5
203
330
1
100
AcDbSymbolTableRecord
100
AcDbBlockTableRecord
  2
*D15
340
0
 70
     0
280
     1
281
     0
  0
BLOCK_RECORD
  5
20F
330
1
100
AcDbSymbolTableRecord
100
AcDbBlockTableRecord
  2
*D16
340
0
 70
     0
280
     1
281
     0
  0
BLOCK_RECORD
  5
352
330
1
100
AcDbSymbolTableRecord
100
AcDbBlockTableRecord
  2
*D17
340
0
 70
     0
280
     1
281
     0
  0
BLOCK_RECORD
  5
35E
330
1
100
AcDbSymbolTableRecord
100
AcDbBlockTableRecord
  2
*D18
340
0
 70
     0
280
     1
281
     0
  0
BLOCK_RECORD
  5
36A
330
1
100
AcDbSymbolTableRecord
100
AcDbBlockTableRecord
  2
*D19
340
0
 70
     0
280
     1
281
     0
  0
BLOCK_RECORD
  5
376
330
1
100
AcDbSymbolTableRecord
100
AcDbBlockTableRecord
  2
*D20
340
0
 70
     0
280
     1
281
     0
  0
BLOCK_RECORD
  5
38B
330
1
100
AcDbSymbolTableRecord
100
AcDbBlockTableRecord
  2
*D21
340
0
 70
     0
280
     1
281
     0
  0
BLOCK_RECORD
  5
3A9
330
1
100
AcDbSymbolTableRecord
100
AcDbBlockTableRecord
  2
*D22
340
0
 70
     0
280
     1
281
     0
  0
BLOCK_RECORD
  5
3B5
330
1
100
AcDbSymbolTableRecord
100
AcDbBlockTableRecord
  2
*D23
340
0
 70
     0
280
     1
281
     0
  0
BLOCK_RECORD
  5
3C1
330
1
100
AcDbSymbolTableRecord
100
AcDbBlockTableRecord
  2
*D24
340
0
 70
     0
280
     1
281
     0
  0
BLOCK_RECORD
  5
3CD
330
1
100
AcDbSymbolTableRecord
100
AcDbBlockTableRecord
  2
*D25
340
0
 70
     0
280
     1
281
     0
  0
BLOCK_RECORD
  5
3D9
330
1
100
AcDbSymbolTableRecord
100
AcDbBlockTableRecord
  2
*D26
340
0
 70
     0
280
     1
281
     0
  0
ENDTAB
  0
ENDSEC
  0
SECTION
  2
BLOCKS
  0
BLOCK
  5
20
330
1F
100
AcDbEntity
  8
0
100
AcDbBlockBegin
  2
*Model_Space
 70
     0
 10
0.0
 20
0.0
 30
0.0
  3
*Model_Space
  1

  0
ENDBLK
  5
21
330
1F
100
AcDbEntity
  8
0
100
AcDbBlockEnd
  0
BLOCK
  5
52
330
50
100
AcDbEntity
 67
     1
  8
0
100
AcDbBlockBegin
  2
*Paper_Space
 70
     0
 10
0.0
 20
0.0
 30
0.0
  3
*Paper_Space
  1

  0
ENDBLK
  5
53
330
50
100
AcDbEntity
 67
     1
  8
0
100
AcDbBlockEnd
  0
BLOCK
  5
57
330
55
100
AcDbEntity
 67
     1
  8
0
100
AcDbBlockBegin
  2
*Paper_Space0
 70
     0
 10
0.0
 20
0.0
 30
0.0
  3
*Paper_Space0
  1

  0
ENDBLK
  5
58
330
55
100
AcDbEntity
 67
     1
  8
0
100
AcDbBlockEnd
  0
BLOCK
  5
B7
330
AD
100
AcDbEntity
  8
0
100
AcDbBlockBegin
  2
*D1
 70
     1
 10
0.0
 20
0.0
 30
0.0
  3
*D1
  1

  0
LINE
  5
BA
330
AD
100
AcDbEntity
  8
0
 62
     0
370
    -2
100
AcDbLine
 10
449.0907501610388
 20
621.7988724066182
 30
0.0
 11
449.0907501610388
 21
628.1936835555391
 31
0.0
  0
LINE
  5
BB
330
AD
100
AcDbEntity
  8
0
 62
     0
370
    -2
100
AcDbLine
 10
458.0907501610392
 20
618.7988724066181
 30
0.0
 11
458.0907501610392
 21
628.1936835555391
 31
0.0
  0
LINE
  5
BC
330
AD
100
AcDbEntity
  8
0
 62
     0
370
    -2
100
AcDbLine
 10
451.590750161039
 20
626.9436835555389
 30
0.0
 11
455.590750161039
 21
626.9436835555389
 31
0.0
  0
SOLID
  5
BD
330
AD
100
AcDbEntity
  8
0
 62
     0
100
AcDbTrace
 10
451.590750161039
 20
627.3603502222057
 30
0.0
 11
451.590750161039
 21
626.5270168888725
 31
0.0
 12
449.0907501610388
 22
626.9436835555389
 32
0.0
 13
449.0907501610388
 23
626.9436835555389
 33
0.0
  0
SOLID
  5
BE
330
AD
100
AcDbEntity
  8
0
 62
     0
100
AcDbTrace
 10
455.590750161039
 20
627.3603502222057
 30
0.0
 11
455.590750161039
 21
626.5270168888725
 31
0.0
 12
458.0907501610392
 22
626.9436835555389
 32
0.0
 13
458.0907501610392
 23
626.9436835555389
 33
0.0
  0
MTEXT
  5
BF
330
AD
100
AcDbEntity
  8
0
 62
     0
100
AcDbMText
 10
453.5907501610391
 20
628.8186835555391
 30
0.0
 40
2.5
 41
0.0
 46
0.0
 71
     5
 72
     1
  1
9
 73
     1
 44
1.0
  0
POINT
  5
C0
330
AD
100
AcDbEntity
  8
Defpoints
 62
     0
100
AcDbPoint
 10
449.0907501610388
 20
621.1738724066182
 30
0.0
  0
POINT
  5
C1
330
AD
100
AcDbEntity
  8
Defpoints
 62
     0
100
AcDbPoint
 10
458.0907501610392
 20
618.1738724066182
 30
0.0
  0
POINT
  5
C2
330
AD
100
AcDbEntity
  8
Defpoints
 62
     0
100
AcDbPoint
 10
458.0907501610392
 20
626.9436835555389
 30
0.0
  0
ENDBLK
  5
B8
330
AD
100
AcDbEntity
  8
0
100
AcDbBlockEnd
  0
BLOCK
  5
CF
330
C5
100
AcDbEntity
  8
0
100
AcDbBlockBegin
  2
*D2
 70
     1
 10
0.0
 20
0.0
 30
0.0
  3
*D2
  1

  0
LINE
  5
412
330
C5
100
AcDbEntity
  8
0
 62
     0
440
 16777216
370
    -2
100
AcDbLine
 10
542.6661714648854
 20
681.3394336548252
 30
0.0
 11
553.5226193754813
 21
681.3394336548252
 31
0.0
  0
LINE
  5
413
330
C5
100
AcDbEntity
  8
0
 62
     0
440
 16777216
370
    -2
100
AcDbLine
 10
542.6661714648852
 20
651.3394336548252
 30
0.0
 11
553.5226193754813
 21
651.3394336548252
 31
0.0
  0
LINE
  5
414
330
C5
100
AcDbEntity
  8
0
 62
     0
440
 16777216
370
    -2
100
AcDbLine
 10
552.2726193754813
 20
678.8394336548252
 30
0.0
 11
552.2726193754813
 21
653.8394336548252
 31
0.0
  0
SOLID
  5
415
330
C5
100
AcDbEntity
  8
0
 62
     0
440
 16777216
100
AcDbTrace
 10
551.8559527088148
 20
678.8394336548252
 30
0.0
 11
552.6892860421479
 21
678.8394336548252
 31
0.0
 12
552.2726193754813
 22
681.3394336548252
 32
0.0
 13
552.2726193754813
 23
681.3394336548252
 33
0.0
  0
SOLID
  5
416
330
C5
100
AcDbEntity
  8
0
 62
     0
440
 16777216
100
AcDbTrace
 10
551.8559527088148
 20
653.8394336548252
 30
0.0
 11
552.6892860421479
 21
653.8394336548252
 31
0.0
 12
552.2726193754813
 22
651.3394336548252
 32
0.0
 13
552.2726193754813
 23
651.3394336548252
 33
0.0
  0
MTEXT
  5
417
330
C5
100
AcDbEntity
  8
0
 62
     0
440
 16777216
100
AcDbMText
 10
550.3976193754813
 20
666.3394336548252
 30
0.0
 40
2.5
 41
0.0
 46
0.0
 71
     5
 72
     1
  1
30
 11
0.0000000000000001
 21
1.0
 31
0.0
 73
     1
 44
1.0
  0
POINT
  5
418
330
C5
100
AcDbEntity
  8
Defpoints
 62
     0
440
 16777216
100
AcDbPoint
 10
542.0411714648854
 20
681.3394336548252
 30
0.0
  0
POINT
  5
419
330
C5
100
AcDbEntity
  8
Defpoints
 62
     0
440
 16777216
100
AcDbPoint
 10
542.0411714648852
 20
651.3394336548252
 30
0.0
  0
POINT
  5
41A
330
C5
100
AcDbEntity
  8
Defpoints
 62
     0
440
 16777216
100
AcDbPoint
 10
552.2726193754813
 20
651.3394336548252
 30
0.0
  0
ENDBLK
  5
D0
330
C5
100
AcDbEntity
  8
0
100
AcDbBlockEnd
  0
BLOCK
  5
E7
330
DD
100
AcDbEntity
  8
0
100
AcDbBlockBegin
  2
*D3
 70
     1
 10
0.0
 20
0.0
 30
0.0
  3
*D3
  1

  0
LINE
  5
41B
330
DD
100
AcDbEntity
  8
0
 62
     0
440
 16777216
370
    -2
100
AcDbLine
 10
515.0411714648852
 20
653.7144336548252
 30
0.0
 11
515.0411714648852
 21
642.2123424298237
 31
0.0
  0
LINE
  5
41C
330
DD
100
AcDbEntity
  8
0
 62
     0
440
 16777216
370
    -2
100
AcDbLine
 10
545.0411714648851
 20
653.7144336548252
 30
0.0
 11
545.0411714648851
 21
642.2123424298237
 31
0.0
  0
LINE
  5
41D
330
DD
100
AcDbEntity
  8
0
 62
     0
440
 16777216
370
    -2
100
AcDbLine
 10
517.5411714648852
 20
643.4623424298237
 30
0.0
 11
542.5411714648852
 21
643.4623424298237
 31
0.0
  0
SOLID
  5
41E
330
DD
100
AcDbEntity
  8
0
 62
     0
440
 16777216
100
AcDbTrace
 10
517.5411714648852
 20
643.8790090964904
 30
0.0
 11
517.5411714648852
 21
643.0456757631572
 31
0.0
 12
515.0411714648852
 22
643.4623424298237
 32
0.0
 13
515.0411714648852
 23
643.4623424298237
 33
0.0
  0
SOLID
  5
41F
330
DD
100
AcDbEntity
  8
0
 62
     0
440
 16777216
100
AcDbTrace
 10
542.5411714648852
 20
643.8790090964904
 30
0.0
 11
542.5411714648852
 21
643.0456757631572
 31
0.0
 12
545.0411714648851
 22
643.4623424298237
 32
0.0
 13
545.0411714648851
 23
643.4623424298237
 33
0.0
  0
MTEXT
  5
420
330
DD
100
AcDbEntity
  8
0
 62
     0
440
 16777216
100
AcDbMText
 10
530.0411714648852
 20
645.3373424298237
 30
0.0
 40
2.5
 41
0.0
 46
0.0
 71
     5
 72
     1
  1
30
 73
     1
 44
1.0
  0
POINT
  5
421
330
DD
100
AcDbEntity
  8
Defpoints
 62
     0
440
 16777216
100
AcDbPoint
 10
515.0411714648852
 20
654.3394336548252
 30
0.0
  0
POINT
  5
422
330
DD
100
AcDbEntity
  8
Defpoints
 62
     0
440
 16777216
100
AcDbPoint
 10
545.0411714648851
 20
654.3394336548252
 30
0.0
  0
POINT
  5
423
330
DD
100
AcDbEntity
  8
Defpoints
 62
     0
440
 16777216
100
AcDbPoint
 10
545.0411714648851
 20
643.4623424298237
 30
0.0
  0
ENDBLK
  5
E8
330
DD
100
AcDbEntity
  8
0
100
AcDbBlockEnd
  0
BLOCK
  5
FF
330
F5
100
AcDbEntity
  8
0
100
AcDbBlockBegin
  2
*D4
 70
     1
 10
0.0
 20
0.0
 30
0.0
  3
*D4
  1

  0
LINE
  5
102
330
F5
100
AcDbEntity
  8
0
 62
     0
370
    -2
100
AcDbLine
 10
430.4657501610391
 20
591.173872406618
 30
0.0
 11
418.6382750286056
 21
591.173872406618
 31
0.0
  0
LINE
  5
103
330
F5
100
AcDbEntity
  8
0
 62
     0
370
    -2
100
AcDbLine
 10
428.2157501610391
 20
600.1738724066182
 30
0.0
 11
418.6382750286056
 21
600.1738724066182
 31
0.0
  0
LINE
  5
104
330
F5
100
AcDbEntity
  8
0
 62
     0
370
    -2
100
AcDbLine
 10
419.8882750286056
 20
593.6738724066182
 30
0.0
 11
419.8882750286056
 21
597.6738724066182
 31
0.0
  0
SOLID
  5
105
330
F5
100
AcDbEntity
  8
0
 62
     0
100
AcDbTrace
 10
419.471608361939
 20
593.6738724066182
 30
0.0
 11
420.3049416952723
 21
593.6738724066182
 31
0.0
 12
419.8882750286056
 22
591.173872406618
 32
0.0
 13
419.8882750286056
 23
591.173872406618
 33
0.0
  0
SOLID
  5
106
330
F5
100
AcDbEntity
  8
0
 62
     0
100
AcDbTrace
 10
419.471608361939
 20
597.6738724066182
 30
0.0
 11
420.3049416952723
 21
597.6738724066182
 31
0.0
 12
419.8882750286056
 22
600.1738724066182
 32
0.0
 13
419.8882750286056
 23
600.1738724066182
 33
0.0
  0
MTEXT
  5
107
330
F5
100
AcDbEntity
  8
0
 62
     0
100
AcDbMText
 10
418.0132750286055
 20
595.6738724066182
 30
0.0
 40
2.5
 41
0.0
 46
0.0
 71
     5
 72
     1
  1
9
 11
0.0000000000000001
 21
1.0
 31
0.0
 73
     1
 44
1.0
  0
POINT
  5
108
330
F5
100
AcDbEntity
  8
Defpoints
 62
     0
100
AcDbPoint
 10
431.0907501610389
 20
591.173872406618
 30
0.0
  0
POINT
  5
109
330
F5
100
AcDbEntity
  8
Defpoints
 62
     0
100
AcDbPoint
 10
428.8407501610389
 20
600.1738724066182
 30
0.0
  0
POINT
  5
10A
330
F5
100
AcDbEntity
  8
Defpoints
 62
     0
100
AcDbPoint
 10
419.8882750286056
 20
600.1738724066182
 30
0.0
  0
ENDBLK
  5
100
330
F5
100
AcDbEntity
  8
0
100
AcDbBlockEnd
  0
BLOCK
  5
119
330
10D
100
AcDbEntity
  8
0
100
AcDbBlockBegin
  2
*D5
 70
     1
 10
0.0
 20
0.0
 30
0.0
  3
*D5
  1

  0
LINE
  5
128
330
10D
100
AcDbEntity
  8
0
 62
     0
370
    -2
100
AcDbLine
 10
421.1669908762623
 20
662.0080487910669
 30
0.0
 11
421.1669908762623
 21
668.0842186283305
 31
0.0
  0
LINE
  5
129
330
10D
100
AcDbEntity
  8
0
 62
     0
370
    -2
100
AcDbLine
 10
426.1695565216562
 20
662.0080487910669
 30
0.0
 11
426.1695565216562
 21
668.0842186283305
 31
0.0
  0
LINE
  5
12A
330
10D
100
AcDbEntity
  8
0
 62
     0
370
    -2
100
AcDbLine
 10
418.6669908762622
 20
666.8342186283305
 30
0.0
 11
416.1669908762623
 21
666.8342186283305
 31
0.0
  0
LINE
  5
12B
330
10D
100
AcDbEntity
  8
0
 62
     0
370
    -2
100
AcDbLine
 10
428.6695565216562
 20
666.8342186283305
 30
0.0
 11
431.169556521656
 21
666.8342186283305
 31
0.0
  0
LINE
  5
12C
330
10D
100
AcDbEntity
  8
0
 62
     0
370
    -2
100
AcDbLine
 10
421.1669908762623
 20
666.8342186283305
 30
0.0
 11
426.1695565216562
 21
666.8342186283305
 31
0.0
  0
SOLID
  5
12D
330
10D
100
AcDbEntity
  8
0
 62
     0
100
AcDbTrace
 10
418.6669908762622
 20
667.2508852949971
 30
0.0
 11
418.6669908762622
 21
666.4175519616637
 31
0.0
 12
421.1669908762623
 22
666.8342186283305
 32
0.0
 13
421.1669908762623
 23
666.8342186283305
 33
0.0
  0
SOLID
  5
12E
330
10D
100
AcDbEntity
  8
0
 62
     0
100
AcDbTrace
 10
428.6695565216562
 20
667.2508852949971
 30
0.0
 11
428.6695565216562
 21
666.4175519616637
 31
0.0
 12
426.1695565216562
 22
666.8342186283305
 32
0.0
 13
426.1695565216562
 23
666.8342186283305
 33
0.0
  0
MTEXT
  5
12F
330
10D
100
AcDbEntity
  8
0
 62
     0
100
AcDbMText
 10
423.6682736989592
 20
668.7092186283305
 30
0.0
 40
2.5
 41
0.0
 46
0.0
 71
     5
 72
     1
  1
5
 73
     1
 44
1.0
  0
POINT
  5
130
330
10D
100
AcDbEntity
  8
Defpoints
 62
     0
100
AcDbPoint
 10
421.1669908762623
 20
661.3830487910669
 30
0.0
  0
POINT
  5
131
330
10D
100
AcDbEntity
  8
Defpoints
 62
     0
100
AcDbPoint
 10
426.1695565216562
 20
661.3830487910669
 30
0.0
  0
POINT
  5
132
330
10D
100
AcDbEntity
  8
Defpoints
 62
     0
100
AcDbPoint
 10
426.1695565216562
 20
666.8342186283305
 30
0.0
  0
ENDBLK
  5
11A
330
10D
100
AcDbEntity
  8
0
100
AcDbBlockEnd
  0
BLOCK
  5
176
330
175
100
AcDbEntity
  8
0
100
AcDbBlockBegin
  2
*D6
 70
     1
 10
0.0
 20
0.0
 30
0.0
  3
*D6
  1

  0
LINE
  5
177
330
175
100
AcDbEntity
  8
0
 62
     0
370
    -2
100
AcDbLine
 10
460.1530182161964
 20
487.8165608996885
 30
0.0
 11
468.2800654685719
 21
487.8165608996885
 31
0.0
  0
LINE
  5
178
330
175
100
AcDbEntity
  8
0
 62
     0
370
    -2
100
AcDbLine
 10
457.1530182161965
 20
495.8165608996885
 30
0.0
 11
468.2800654685719
 21
495.8165608996885
 31
0.0
  0
LINE
  5
179
330
175
100
AcDbEntity
  8
0
 62
     0
370
    -2
100
AcDbLine
 10
467.0300654685719
 20
490.3165608996885
 30
0.0
 11
467.0300654685719
 21
493.3165608996885
 31
0.0
  0
SOLID
  5
17A
330
175
100
AcDbEntity
  8
0
 62
     0
100
AcDbTrace
 10
466.6133988019051
 20
490.3165608996885
 30
0.0
 11
467.4467321352385
 21
490.3165608996885
 31
0.0
 12
467.0300654685719
 22
487.8165608996885
 32
0.0
 13
467.0300654685719
 23
487.8165608996885
 33
0.0
  0
SOLID
  5
17B
330
175
100
AcDbEntity
  8
0
 62
     0
100
AcDbTrace
 10
466.6133988019051
 20
493.3165608996885
 30
0.0
 11
467.4467321352385
 21
493.3165608996885
 31
0.0
 12
467.0300654685719
 22
495.8165608996885
 32
0.0
 13
467.0300654685719
 23
495.8165608996885
 33
0.0
  0
MTEXT
  5
17C
330
175
100
AcDbEntity
  8
0
 62
     0
100
AcDbMText
 10
465.1550654685717
 20
491.8165608996885
 30
0.0
 40
2.5
 41
0.0
 46
0.0
 71
     5
 72
     1
  1
8
 11
0.0000000000000001
 21
1.0
 31
0.0
 73
     1
 44
1.0
  0
POINT
  5
17D
330
175
100
AcDbEntity
  8
Defpoints
 62
     0
100
AcDbPoint
 10
459.5280182161966
 20
487.8165608996885
 30
0.0
  0
POINT
  5
17E
330
175
100
AcDbEntity
  8
Defpoints
 62
     0
100
AcDbPoint
 10
456.5280182161965
 20
495.8165608996885
 30
0.0
  0
POINT
  5
17F
330
175
100
AcDbEntity
  8
Defpoints
 62
     0
100
AcDbPoint
 10
467.0300654685719
 20
495.8165608996885
 30
0.0
  0
ENDBLK
  5
180
330
175
100
AcDbEntity
  8
0
100
AcDbBlockEnd
  0
BLOCK
  5
182
330
181
100
AcDbEntity
  8
0
100
AcDbBlockBegin
  2
*D7
 70
     1
 10
0.0
 20
0.0
 30
0.0
  3
*D7
  1

  0
LINE
  5
183
330
181
100
AcDbEntity
  8
0
 62
     0
370
    -2
100
AcDbLine
 10
459.5280182161966
 20
493.4415608996883
 30
0.0
 11
459.5280182161966
 21
502.6188020380149
 31
0.0
  0
LINE
  5
184
330
181
100
AcDbEntity
  8
0
 62
     0
370
    -2
100
AcDbLine
 10
429.5280182161966
 20
493.4415608996883
 30
0.0
 11
429.5280182161966
 21
502.6188020380149
 31
0.0
  0
LINE
  5
185
330
181
100
AcDbEntity
  8
0
 62
     0
370
    -2
100
AcDbLine
 10
457.0280182161964
 20
501.3688020380149
 30
0.0
 11
432.0280182161964
 21
501.3688020380149
 31
0.0
  0
SOLID
  5
186
330
181
100
AcDbEntity
  8
0
 62
     0
100
AcDbTrace
 10
457.0280182161964
 20
501.7854687046813
 30
0.0
 11
457.0280182161964
 21
500.9521353713481
 31
0.0
 12
459.5280182161966
 22
501.3688020380149
 32
0.0
 13
459.5280182161966
 23
501.3688020380149
 33
0.0
  0
SOLID
  5
187
330
181
100
AcDbEntity
  8
0
 62
     0
100
AcDbTrace
 10
432.0280182161964
 20
501.7854687046813
 30
0.0
 11
432.0280182161964
 21
500.9521353713481
 31
0.0
 12
429.5280182161966
 22
501.3688020380149
 32
0.0
 13
429.5280182161966
 23
501.3688020380149
 33
0.0
  0
MTEXT
  5
188
330
181
100
AcDbEntity
  8
0
 62
     0
100
AcDbMText
 10
444.5280182161964
 20
503.2438020380149
 30
0.0
 40
2.5
 41
0.0
 46
0.0
 71
     5
 72
     1
  1
30
 73
     1
 44
1.0
  0
POINT
  5
189
330
181
100
AcDbEntity
  8
Defpoints
 62
     0
100
AcDbPoint
 10
459.5280182161966
 20
492.8165608996883
 30
0.0
  0
POINT
  5
18A
330
181
100
AcDbEntity
  8
Defpoints
 62
     0
100
AcDbPoint
 10
429.5280182161966
 20
492.8165608996883
 30
0.0
  0
POINT
  5
18B
330
181
100
AcDbEntity
  8
Defpoints
 62
     0
100
AcDbPoint
 10
429.5280182161966
 20
501.3688020380149
 30
0.0
  0
ENDBLK
  5
18C
330
181
100
AcDbEntity
  8
0
100
AcDbBlockEnd
  0
BLOCK
  5
18E
330
18D
100
AcDbEntity
  8
0
100
AcDbBlockBegin
  2
*D8
 70
     1
 10
0.0
 20
0.0
 30
0.0
  3
*D8
  1

  0
LINE
  5
18F
330
18D
100
AcDbEntity
  8
0
 62
     0
370
    -2
100
AcDbLine
 10
431.9030182161966
 20
495.8165608996883
 30
0.0
 11
406.0848336967159
 21
495.8165608996883
 31
0.0
  0
LINE
  5
190
330
18D
100
AcDbEntity
  8
0
 62
     0
370
    -2
100
AcDbLine
 10
427.4030182161966
 20
469.8165608996883
 30
0.0
 11
406.0848336967159
 21
469.8165608996883
 31
0.0
  0
LINE
  5
191
330
18D
100
AcDbEntity
  8
0
 62
     0
370
    -2
100
AcDbLine
 10
407.334833696716
 20
493.3165608996883
 30
0.0
 11
407.334833696716
 21
472.3165608996883
 31
0.0
  0
SOLID
  5
192
330
18D
100
AcDbEntity
  8
0
 62
     0
100
AcDbTrace
 10
406.9181670300492
 20
493.3165608996883
 30
0.0
 11
407.7515003633827
 21
493.3165608996883
 31
0.0
 12
407.334833696716
 22
495.8165608996883
 32
0.0
 13
407.334833696716
 23
495.8165608996883
 33
0.0
  0
SOLID
  5
193
330
18D
100
AcDbEntity
  8
0
 62
     0
100
AcDbTrace
 10
406.9181670300492
 20
472.3165608996883
 30
0.0
 11
407.7515003633827
 21
472.3165608996883
 31
0.0
 12
407.334833696716
 22
469.8165608996883
 32
0.0
 13
407.334833696716
 23
469.8165608996883
 33
0.0
  0
MTEXT
  5
194
330
18D
100
AcDbEntity
  8
0
 62
     0
100
AcDbMText
 10
405.4598336967157
 20
482.8165608996883
 30
0.0
 40
2.5
 41
0.0
 46
0.0
 71
     5
 72
     1
  1
26
 11
0.0000000000000001
 21
1.0
 31
0.0
 73
     1
 44
1.0
  0
POINT
  5
195
330
18D
100
AcDbEntity
  8
Defpoints
 62
     0
100
AcDbPoint
 10
432.5280182161965
 20
495.8165608996883
 30
0.0
  0
POINT
  5
196
330
18D
100
AcDbEntity
  8
Defpoints
 62
     0
100
AcDbPoint
 10
428.0280182161965
 20
469.8165608996883
 30
0.0
  0
POINT
  5
197
330
18D
100
AcDbEntity
  8
Defpoints
 62
     0
100
AcDbPoint
 10
407.334833696716
 20
469.8165608996883
 30
0.0
  0
ENDBLK
  5
198
330
18D
100
AcDbEntity
  8
0
100
AcDbBlockEnd
  0
BLOCK
  5
19A
330
199
100
AcDbEntity
  8
0
100
AcDbBlockBegin
  2
*D9
 70
     1
 10
0.0
 20
0.0
 30
0.0
  3
*D9
  1

  0
LINE
  5
19B
330
199
100
AcDbEntity
  8
0
 62
     0
370
    -2
100
AcDbLine
 10
414.5280182161966
 20
467.4415608996885
 30
0.0
 11
414.5280182161966
 21
502.6188020380149
 31
0.0
  0
LINE
  5
19C
330
199
100
AcDbEntity
  8
0
 62
     0
370
    -2
100
AcDbLine
 10
429.5280182161966
 20
493.4415608996883
 30
0.0
 11
429.5280182161966
 21
502.6188020380149
 31
0.0
  0
LINE
  5
19D
330
199
100
AcDbEntity
  8
0
 62
     0
370
    -2
100
AcDbLine
 10
417.0280182161965
 20
501.3688020380149
 30
0.0
 11
427.0280182161966
 21
501.3688020380149
 31
0.0
  0
SOLID
  5
19E
330
199
100
AcDbEntity
  8
0
 62
     0
100
AcDbTrace
 10
417.0280182161965
 20
501.7854687046813
 30
0.0
 11
417.0280182161965
 21
500.9521353713481
 31
0.0
 12
414.5280182161966
 22
501.3688020380149
 32
0.0
 13
414.5280182161966
 23
501.3688020380149
 33
0.0
  0
SOLID
  5
19F
330
199
100
AcDbEntity
  8
0
 62
     0
100
AcDbTrace
 10
427.0280182161966
 20
501.7854687046813
 30
0.0
 11
427.0280182161966
 21
500.9521353713481
 31
0.0
 12
429.5280182161966
 22
501.3688020380149
 32
0.0
 13
429.5280182161966
 23
501.3688020380149
 33
0.0
  0
MTEXT
  5
1A0
330
199
100
AcDbEntity
  8
0
 62
     0
100
AcDbMText
 10
422.0280182161966
 20
503.2438020380149
 30
0.0
 40
2.5
 41
0.0
 46
0.0
 71
     5
 72
     1
  1
15
 73
     1
 44
1.0
  0
POINT
  5
1A1
330
199
100
AcDbEntity
  8
Defpoints
 62
     0
100
AcDbPoint
 10
414.5280182161966
 20
466.8165608996885
 30
0.0
  0
POINT
  5
1A2
330
199
100
AcDbEntity
  8
Defpoints
 62
     0
100
AcDbPoint
 10
429.5280182161966
 20
492.8165608996883
 30
0.0
  0
POINT
  5
1A3
330
199
100
AcDbEntity
  8
Defpoints
 62
     0
100
AcDbPoint
 10
429.5280182161966
 20
501.3688020380149
 30
0.0
  0
ENDBLK
  5
1A4
330
199
100
AcDbEntity
  8
0
100
AcDbBlockEnd
  0
BLOCK
  5
1A6
330
1A5
100
AcDbEntity
  8
0
100
AcDbBlockBegin
  2
*D10
 70
     1
 10
0.0
 20
0.0
 30
0.0
  3
*D10
  1

  0
LINE
  5
1A7
330
1A5
100
AcDbEntity
  8
0
 62
     0
370
    -2
100
AcDbLine
 10
543.7884307384556
 20
493.4415608996885
 30
0.0
 11
543.7884307384556
 21
503.5231313177805
 31
0.0
  0
LINE
  5
1A8
330
1A5
100
AcDbEntity
  8
0
 62
     0
370
    -2
100
AcDbLine
 10
513.7884307384559
 20
493.4415608996885
 30
0.0
 11
513.7884307384559
 21
503.5231313177805
 31
0.0
  0
LINE
  5
1A9
330
1A5
100
AcDbEntity
  8
0
 62
     0
370
    -2
100
AcDbLine
 10
541.2884307384556
 20
502.2731313177806
 30
0.0
 11
516.2884307384556
 21
502.2731313177806
 31
0.0
  0
SOLID
  5
1AA
330
1A5
100
AcDbEntity
  8
0
 62
     0
100
AcDbTrace
 10
541.2884307384556
 20
502.6897979844473
 30
0.0
 11
541.2884307384556
 21
501.8564646511141
 31
0.0
 12
543.7884307384556
 22
502.2731313177806
 32
0.0
 13
543.7884307384556
 23
502.2731313177806
 33
0.0
  0
SOLID
  5
1AB
330
1A5
100
AcDbEntity
  8
0
 62
     0
100
AcDbTrace
 10
516.2884307384556
 20
502.6897979844473
 30
0.0
 11
516.2884307384556
 21
501.8564646511141
 31
0.0
 12
513.7884307384559
 22
502.2731313177806
 32
0.0
 13
513.7884307384559
 23
502.2731313177806
 33
0.0
  0
MTEXT
  5
1AC
330
1A5
100
AcDbEntity
  8
0
 62
     0
100
AcDbMText
 10
528.7884307384556
 20
504.1481313177808
 30
0.0
 40
2.5
 41
0.0
 46
0.0
 71
     5
 72
     1
  1
30
 73
     1
 44
1.0
  0
POINT
  5
1AD
330
1A5
100
AcDbEntity
  8
Defpoints
 62
     0
100
AcDbPoint
 10
543.7884307384556
 20
492.8165608996883
 30
0.0
  0
POINT
  5
1AE
330
1A5
100
AcDbEntity
  8
Defpoints
 62
     0
100
AcDbPoint
 10
513.7884307384559
 20
492.8165608996883
 30
0.0
  0
POINT
  5
1AF
330
1A5
100
AcDbEntity
  8
Defpoints
 62
     0
100
AcDbPoint
 10
513.7884307384559
 20
502.2731313177806
 30
0.0
  0
ENDBLK
  5
1B0
330
1A5
100
AcDbEntity
  8
0
100
AcDbBlockEnd
  0
BLOCK
  5
1B2
330
1B1
100
AcDbEntity
  8
0
100
AcDbBlockBegin
  2
*D11
 70
     1
 10
0.0
 20
0.0
 30
0.0
  3
*D11
  1

  0
LINE
  5
1B3
330
1B1
100
AcDbEntity
  8
0
 62
     0
370
    -2
100
AcDbLine
 10
544.4134307384556
 20
487.8165608996885
 30
0.0
 11
551.8326467527423
 21
487.8165608996885
 31
0.0
  0
LINE
  5
1B4
330
1B1
100
AcDbEntity
  8
0
 62
     0
370
    -2
100
AcDbLine
 10
541.4134307384556
 20
495.8165608996885
 30
0.0
 11
551.8326467527423
 21
495.8165608996885
 31
0.0
  0
LINE
  5
1B5
330
1B1
100
AcDbEntity
  8
0
 62
     0
370
    -2
100
AcDbLine
 10
550.5826467527423
 20
490.3165608996885
 30
0.0
 11
550.5826467527423
 21
493.3165608996885
 31
0.0
  0
SOLID
  5
1B6
330
1B1
100
AcDbEntity
  8
0
 62
     0
100
AcDbTrace
 10
550.1659800860757
 20
490.3165608996885
 30
0.0
 11
550.9993134194088
 21
490.3165608996885
 31
0.0
 12
550.5826467527423
 22
487.8165608996885
 32
0.0
 13
550.5826467527423
 23
487.8165608996885
 33
0.0
  0
SOLID
  5
1B7
330
1B1
100
AcDbEntity
  8
0
 62
     0
100
AcDbTrace
 10
550.1659800860757
 20
493.3165608996885
 30
0.0
 11
550.9993134194088
 21
493.3165608996885
 31
0.0
 12
550.5826467527423
 22
495.8165608996885
 32
0.0
 13
550.5826467527423
 23
495.8165608996885
 33
0.0
  0
MTEXT
  5
1B8
330
1B1
100
AcDbEntity
  8
0
 62
     0
100
AcDbMText
 10
548.7076467527421
 20
491.8165608996885
 30
0.0
 40
2.5
 41
0.0
 46
0.0
 71
     5
 72
     1
  1
8
 11
0.0000000000000001
 21
1.0
 31
0.0
 73
     1
 44
1.0
  0
POINT
  5
1B9
330
1B1
100
AcDbEntity
  8
Defpoints
 62
     0
100
AcDbPoint
 10
543.7884307384556
 20
487.8165608996885
 30
0.0
  0
POINT
  5
1BA
330
1B1
100
AcDbEntity
  8
Defpoints
 62
     0
100
AcDbPoint
 10
540.7884307384556
 20
495.8165608996885
 30
0.0
  0
POINT
  5
1BB
330
1B1
100
AcDbEntity
  8
Defpoints
 62
     0
100
AcDbPoint
 10
550.5826467527423
 20
495.8165608996885
 30
0.0
  0
ENDBLK
  5
1BC
330
1B1
100
AcDbEntity
  8
0
100
AcDbBlockEnd
  0
BLOCK
  5
1BE
330
1BD
100
AcDbEntity
  8
0
100
AcDbBlockBegin
  2
*D12
 70
     1
 10
0.0
 20
0.0
 30
0.0
  3
*D12
  1

  0
LINE
  5
1BF
330
1BD
100
AcDbEntity
  8
0
 62
     0
370
    -2
100
AcDbLine
 10
498.7884307384558
 20
467.4415608996883
 30
0.0
 11
498.7884307384558
 21
503.5231313177808
 31
0.0
  0
LINE
  5
1C0
330
1BD
100
AcDbEntity
  8
0
 62
     0
370
    -2
100
AcDbLine
 10
513.7884307384559
 20
494.0665608996885
 30
0.0
 11
513.7884307384559
 21
503.5231313177808
 31
0.0
  0
LINE
  5
1C1
330
1BD
100
AcDbEntity
  8
0
 62
     0
370
    -2
100
AcDbLine
 10
501.2884307384558
 20
502.2731313177808
 30
0.0
 11
511.2884307384558
 21
502.2731313177808
 31
0.0
  0
SOLID
  5
1C2
330
1BD
100
AcDbEntity
  8
0
 62
     0
100
AcDbTrace
 10
501.2884307384558
 20
502.6897979844473
 30
0.0
 11
501.2884307384558
 21
501.8564646511141
 31
0.0
 12
498.7884307384558
 22
502.2731313177808
 32
0.0
 13
498.7884307384558
 23
502.2731313177808
 33
0.0
  0
SOLID
  5
1C3
330
1BD
100
AcDbEntity
  8
0
 62
     0
100
AcDbTrace
 10
511.2884307384558
 20
502.6897979844473
 30
0.0
 11
511.2884307384558
 21
501.8564646511141
 31
0.0
 12
513.7884307384559
 22
502.2731313177808
 32
0.0
 13
513.7884307384559
 23
502.2731313177808
 33
0.0
  0
MTEXT
  5
1C4
330
1BD
100
AcDbEntity
  8
0
 62
     0
100
AcDbMText
 10
506.2884307384559
 20
504.1481313177808
 30
0.0
 40
2.5
 41
0.0
 46
0.0
 71
     5
 72
     1
  1
15
 73
     1
 44
1.0
  0
POINT
  5
1C5
330
1BD
100
AcDbEntity
  8
Defpoints
 62
     0
100
AcDbPoint
 10
498.7884307384558
 20
466.8165608996885
 30
0.0
  0
POINT
  5
1C6
330
1BD
100
AcDbEntity
  8
Defpoints
 62
     0
100
AcDbPoint
 10
513.7884307384559
 20
493.4415608996885
 30
0.0
  0
POINT
  5
1C7
330
1BD
100
AcDbEntity
  8
Defpoints
 62
     0
100
AcDbPoint
 10
513.7884307384559
 20
502.2731313177808
 30
0.0
  0
ENDBLK
  5
1C8
330
1BD
100
AcDbEntity
  8
0
100
AcDbBlockEnd
  0
BLOCK
  5
1CA
330
1C9
100
AcDbEntity
  8
0
100
AcDbBlockBegin
  2
*D13
 70
     1
 10
0.0
 20
0.0
 30
0.0
  3
*D13
  1

  0
LINE
  5
1CB
330
1C9
100
AcDbEntity
  8
0
 62
     0
370
    -2
100
AcDbLine
 10
516.1634307384556
 20
495.8165608996885
 30
0.0
 11
490.9538844887648
 21
495.8165608996885
 31
0.0
  0
LINE
  5
1CC
330
1C9
100
AcDbEntity
  8
0
 62
     0
370
    -2
100
AcDbLine
 10
500.4598559039446
 20
470.8909947544491
 30
0.0
 11
490.9538844887648
 21
470.8909947544491
 31
0.0
  0
LINE
  5
1CD
330
1C9
100
AcDbEntity
  8
0
 62
     0
370
    -2
100
AcDbLine
 10
492.2038844887648
 20
493.3165608996885
 30
0.0
 11
492.2038844887648
 21
473.3909947544491
 31
0.0
  0
SOLID
  5
1CE
330
1C9
100
AcDbEntity
  8
0
 62
     0
100
AcDbTrace
 10
491.7872178220981
 20
493.3165608996885
 30
0.0
 11
492.6205511554313
 21
493.3165608996885
 31
0.0
 12
492.2038844887648
 22
495.8165608996885
 32
0.0
 13
492.2038844887648
 23
495.8165608996885
 33
0.0
  0
SOLID
  5
1CF
330
1C9
100
AcDbEntity
  8
0
 62
     0
100
AcDbTrace
 10
491.7872178220981
 20
473.3909947544491
 30
0.0
 11
492.6205511554313
 21
473.3909947544491
 31
0.0
 12
492.2038844887648
 22
470.8909947544491
 32
0.0
 13
492.2038844887648
 23
470.8909947544491
 33
0.0
  0
MTEXT
  5
1D0
330
1C9
100
AcDbEntity
  8
0
 62
     0
100
AcDbMText
 10
490.3288844887647
 20
483.3537778270687
 30
0.0
 40
2.5
 41
0.0
 46
0.0
 71
     5
 72
     1
  1
26
 11
0.0000000000000001
 21
1.0
 31
0.0
 73
     1
 44
1.0
  0
POINT
  5
1D1
330
1C9
100
AcDbEntity
  8
Defpoints
 62
     0
100
AcDbPoint
 10
516.7884307384556
 20
495.8165608996885
 30
0.0
  0
POINT
  5
1D2
330
1C9
100
AcDbEntity
  8
Defpoints
 62
     0
100
AcDbPoint
 10
501.0848559039446
 20
470.8909947544491
 30
0.0
  0
POINT
  5
1D3
330
1C9
100
AcDbEntity
  8
Defpoints
 62
     0
100
AcDbPoint
 10
492.2038844887648
 20
470.8909947544491
 30
0.0
  0
ENDBLK
  5
1D4
330
1C9
100
AcDbEntity
  8
0
100
AcDbBlockEnd
  0
BLOCK
  5
1D6
330
1D5
100
AcDbEntity
  8
0
100
AcDbBlockBegin
  2
2
 70
     0
 10
0.0
 20
0.0
 30
0.0
  3
2
  1

  0
SPLINE
  5
1D7
330
1D5
100
AcDbEntity
  8
Hladina1
100
AcDbSpline
210
0.0
220
0.0
230
1.0
 70
  1064
 71
     3
 72
    10
 73
     6
 74
     4
 42
0.000000001
 43
0.0000000001
 44
0.0000000001
 40
0.0
 40
0.0
 40
0.0
 40
0.0
 40
3.225450419445178
 40
6.527090493113453
 40
7.920027442241737
 40
7.920027442241737
 40
7.920027442241737
 40
7.920027442241737
 10
586.5799027234193
 20
501.1999875659141
 30
0.0
 10
585.5234841714195
 20
500.8301563315066
 30
0.0
 10
583.3856929823387
 20
500.0817579312076
 30
0.0
 10
580.801330540599
 20
501.6574140114634
 30
0.0
 10
579.2908377501574
 20
501.1098869791009
 30
0.0
 10
578.8426565383079
 20
500.9474291835804
 30
0.0
 11
586.5799027234193
 21
501.1999875659141
 31
0.0
 11
583.4125894605363
 21
500.5903507042789
 31
0.0
 11
580.1890825810946
 21
501.3043749155238
 31
0.0
 11
578.8426565383079
 21
500.9474291835804
 31
0.0
  0
SPLINE
  5
1D8
330
1D5
100
AcDbEntity
  8
Hladina1
100
AcDbSpline
210
0.0
220
0.0
230
1.0
 70
  1064
 71
     3
 72
    10
 73
     6
 74
     4
 42
0.000000001
 43
0.0000000001
 44
0.0000000001
 40
0.0
 40
0.0
 40
0.0
 40
0.0
 40
4.119626230339919
 40
7.183793575730435
 40
8.991701210957558
 40
8.991701210957558
 40
8.991701210957558
 40
8.991701210957558
 10
587.175414659165
 20
502.3246115415782
 30
0.0
 10
585.8441197821674
 20
501.7533674940129
 30
0.0
 10
583.5226112156032
 20
500.7572335999108
 30
0.0
 10
580.5669564611492
 20
502.3916954012557
 30
0.0
 10
579.0141789044421
 20
501.7467594539892
 30
0.0
 10
578.4379812039246
 20
501.5074395280985
 30
0.0
 11
587.175414659165
 21
502.3246115415782
 31
0.0
 11
583.1684183597957
 21
501.3678979300173
 31
0.0
 11
580.173282660344
 21
502.0146464610768
 31
0.0
 11
578.4379812039246
 21
501.5074395280985
 31
0.0
  0
SPLINE
  5
1D9
330
1D5
100
AcDbEntity
  8
Hladina1
100
AcDbSpline
210
0.0
220
0.0
230
1.0
 70
  1064
 71
     3
 72
    10
 73
     6
 74
     4
 42
0.000000001
 43
0.0000000001
 44
0.0000000001
 40
0.0
 40
0.0
 40
0.0
 40
0.0
 40
1.120719595214306
 40
2.660177466131623
 40
4.258068310536675
 40
4.258068310536675
 40
4.258068310536675
 40
4.258068310536675
 10
582.9912092941007
 20
502.4828038448628
 30
0.0
 10
583.3539910429269
 20
502.5736294581182
 30
0.0
 10
584.2151019197889
 20
502.7892161675516
 30
0.0
 10
585.6614862193861
 20
502.7927754569231
 30
0.0
 10
586.6645445410866
 20
502.4825918981313
 30
0.0
 10
587.175414659165
 20
502.3246115415782
 30
0.0
 11
582.9912092941007
 21
502.4828038448628
 31
0.0
 11
584.0870979318542
 21
502.7174109733564
 31
0.0
 11
585.6265558027716
 21
502.7174109733564
 31
0.0
 11
587.175414659165
 21
502.3246115415782
 31
0.0
  0
SPLINE
  5
1DA
330
1D5
100
AcDbEntity
  8
Hladina1
100
AcDbSpline
210
0.0
220
0.0
230
1.0
 70
  1064
 71
     3
 72
    10
 73
     6
 74
     4
 42
0.000000001
 43
0.0000000001
 44
0.0000000001
 40
0.0
 40
0.0
 40
0.0
 40
0.0
 40
2.06561349849705
 40
4.420060440849828
 40
5.721999227124882
 40
5.721999227124882
 40
5.721999227124882
 40
5.721999227124882
 10
579.6056277115027
 20
492.4993572272692
 30
0.0
 10
580.2556934006174
 20
493.0412622100194
 30
0.0
 10
581.6467230576662
 20
494.2008464104018
 30
0.0
 10
582.9251249947102
 20
491.3653633589081
 30
0.0
 10
584.0885832849316
 20
492.1486166178753
 30
0.0
 10
584.502858907548
 20
492.4275116450989
 30
0.0
 11
579.6056277115027
 21
492.4993572272692
 31
0.0
 11
581.4677014464417
 21
493.3934716107926
 31
0.0
 11
583.3039707158102
 21
491.9198585086768
 31
0.0
 11
584.502858907548
 21
492.4275116450989
 31
0.0
  0
SPLINE
  5
1DB
330
1D5
100
AcDbEntity
  8
Hladina1
100
AcDbSpline
210
0.0
220
0.0
230
1.0
 70
  1064
 71
     3
 72
    10
 73
     6
 74
     4
 42
0.000000001
 43
0.0000000001
 44
0.0000000001
 40
0.0
 40
0.0
 40
0.0
 40
0.0
 40
2.065613498496976
 40
4.42006044084972
 40
5.721999227124818
 40
5.721999227124818
 40
5.721999227124818
 40
5.721999227124818
 10
579.6056277115027
 20
493.7144548716296
 30
0.0
 10
580.2556934006174
 20
494.2563598543797
 30
0.0
 10
581.6467230576663
 20
495.415944054762
 30
0.0
 10
582.9251249947104
 20
492.5804610032684
 30
0.0
 10
584.0885832849316
 20
493.3637142622356
 30
0.0
 10
584.502858907548
 20
493.6426092894593
 30
0.0
 11
579.6056277115027
 21
493.7144548716296
 31
0.0
 11
581.4677014464417
 21
494.6085692551529
 31
0.0
 11
583.3039707158102
 21
493.1349561530371
 31
0.0
 11
584.502858907548
 21
493.6426092894593
 31
0.0
  0
ARC
  5
1DC
330
1D5
100
AcDbEntity
  8
Hladina1
100
AcDbCircle
 10
576.8127226108622
 20
501.8251906368005
 30
0.0
 40
0.4131931418174576
100
AcDbArc
 50
113.573584959716
 51
255.2322784542627
  0
LINE
  5
1DD
330
1D5
100
AcDbEntity
  8
Hladina1
100
AcDbLine
 10
588.8615868630872
 20
500.9108499027951
 30
0.0
 11
588.8624981441696
 21
501.1762069361551
 31
0.0
  0
ARC
  5
1DE
330
1D5
100
AcDbEntity
  8
Hladina1
100
AcDbCircle
 10
582.2323996979568
 20
495.9997978923967
 30
0.0
 40
3.190805834280606
100
AcDbArc
 50
26.30718737027455
 51
145.4096035720104
  0
ARC
  5
1DF
330
1D5
100
AcDbEntity
  8
Hladina1
100
AcDbCircle
 10
582.4394920610197
 20
496.2692993959525
 30
0.0
 40
3.804399409392086
100
AcDbArc
 50
44.92450934724028
 51
128.7262185738849
  0
ARC
  5
1E0
330
1D5
100
AcDbEntity
  8
Hladina1
100
AcDbCircle
 10
572.7189574023276
 20
495.3023348260303
 30
0.0
 40
8.328672247942597
100
AcDbArc
 50
28.19394529003102
 51
42.67121992977064
  0
ARC
  5
1E1
330
1D5
100
AcDbEntity
  8
Hladina1
100
AcDbCircle
 10
588.6341025813162
 20
498.2872637271921
 30
0.0
 40
3.564224630525078
100
AcDbArc
 50
81.19889616641261
 51
169.1879473822699
  0
SPLINE
  5
1E2
330
1D5
100
AcDbEntity
  8
Hladina1
100
AcDbSpline
210
0.0
220
0.0
230
1.0
 70
  1064
 71
     3
 72
    12
 73
     8
 74
     6
 42
0.000000001
 43
0.0000000001
 44
0.0000000001
 40
0.0
 40
0.0
 40
0.0
 40
0.0
 40
0.548702404506061
 40
0.9598156116507324
 40
1.240717391112099
 40
1.514184820930574
 40
1.563476079407966
 40
1.563476079407966
 40
1.563476079407966
 40
1.563476079407966
 10
577.1484697044236
 20
494.4249778366425
 30
0.0
 10
577.1308228543406
 20
494.632134692173
 30
0.0
 10
577.0999541683882
 20
494.9945030404177
 30
0.0
 10
576.5478598947815
 20
495.0516281778615
 30
0.0
 10
576.3777071006855
 20
494.7309112030126
 30
0.0
 10
576.3955872091539
 20
494.5270653848726
 30
0.0
 10
576.4190580551157
 20
494.4221206831054
 30
0.0
 10
576.4226424901037
 20
494.4060936740481
 30
0.0
 11
577.1484697044236
 21
494.4249778366425
 31
0.0
 11
576.9660364187528
 21
494.9424644789726
 31
0.0
 11
576.5555549997973
 21
494.9652476697304
 31
0.0
 11
576.4056972219402
 21
494.7276588313555
 31
0.0
 11
576.4122136287421
 21
494.4542690517113
 31
0.0
 11
576.4226424901037
 21
494.4060936740481
 31
0.0
  0
SPLINE
  5
1E3
330
1D5
100
AcDbEntity
  8
Hladina1
100
AcDbSpline
210
0.0
220
0.0
230
1.0
 70
     8
 71
     3
 72
    13
 73
     9
 74
     0
 42
0.000000001
 43
0.0000000001
 40
0.6661205545958559
 40
0.6661205545958559
 40
0.6661205545958559
 40
0.6661205545958559
 40
0.9878869891143956
 40
1.419794567472439
 40
1.9102422773456
 40
2.418829439147268
 40
3.096989347819317
 40
3.875274942031108
 40
3.875274942031108
 40
3.875274942031108
 40
3.875274942031108
 10
578.6056277115018
 20
492.5464101620661
 30
0.0
 10
578.501860227303
 20
492.5736036018386
 30
0.0
 10
578.2449132618792
 20
492.6085782317526
 30
0.0
 10
577.8466327328832
 20
492.6981949856704
 30
0.0
 10
577.359495882097
 20
492.7659371357046
 30
0.0
 10
576.9243204464051
 20
493.1355241943178
 30
0.0
 10
576.4631059893519
 20
493.6363950137963
 30
0.0
 10
576.4367346368487
 20
494.1380321699432
 30
0.0
 10
576.4226424901037
 20
494.4060936740481
 30
0.0
  0
SPLINE
  5
1E4
330
1D5
100
AcDbEntity
  8
Hladina1
100
AcDbSpline
210
0.0
220
0.0
230
1.0
 70
  1064
 71
     3
 72
    10
 73
     6
 74
     4
 42
0.000000001
 43
0.0000000001
 44
0.0000000001
 40
0.0
 40
0.0
 40
0.0
 40
0.0
 40
0.8755136827638514
 40
1.521916528778687
 40
1.994752976798551
 40
1.994752976798551
 40
1.994752976798551
 40
1.994752976798551
 10
577.1484697044236
 20
494.4249778366425
 30
0.0
 10
577.2348930742102
 20
494.1206953901434
 30
0.0
 10
577.3851239130201
 20
493.5917573576935
 30
0.0
 10
578.0839283451834
 20
493.401535147246
 30
0.0
 10
578.4463902019081
 20
493.3386639297697
 30
0.0
 10
578.599516685038
 20
493.3121032082935
 30
0.0
 11
577.1484697044236
 21
494.4249778366425
 31
0.0
 11
577.5344648356267
 21
493.6391458142648
 31
0.0
 11
578.1348487716853
 21
493.3996134184204
 31
0.0
 11
578.599516685038
 21
493.3121032082935
 31
0.0
  0
SPLINE
  5
1E5
330
1D5
100
AcDbEntity
  8
Hladina1
100
AcDbSpline
210
0.0
220
0.0
230
1.0
 70
  1064
 71
     3
 72
    10
 73
     6
 74
     4
 42
0.000000001
 43
0.0000000001
 44
0.0000000001
 40
0.0
 40
0.0
 40
0.0
 40
0.0
 40
0.8755136827638514
 40
1.521916528778687
 40
1.99475297679853
 40
1.99475297679853
 40
1.99475297679853
 40
1.99475297679853
 10
577.1484697044236
 20
497.9038299787013
 30
0.0
 10
577.2348930742102
 20
497.5995475322021
 30
0.0
 10
577.3851239130201
 20
497.0706094997523
 30
0.0
 10
578.0839283451836
 20
496.8803872893047
 30
0.0
 10
578.4463902019081
 20
496.8175160718287
 30
0.0
 10
578.599516685038
 20
496.7909553503524
 30
0.0
 11
577.1484697044236
 21
497.9038299787013
 31
0.0
 11
577.5344648356267
 21
497.1179979563236
 31
0.0
 11
578.1348487716853
 21
496.8784655604792
 31
0.0
 11
578.599516685038
 21
496.7909553503524
 31
0.0
  0
SPLINE
  5
1E6
330
1D5
100
AcDbEntity
  8
Hladina1
100
AcDbSpline
210
0.0
220
0.0
230
1.0
 70
     8
 71
     3
 72
    13
 73
     9
 74
     0
 42
0.000000001
 43
0.0000000001
 40
0.666120554595736
 40
0.666120554595736
 40
0.666120554595736
 40
0.666120554595736
 40
0.9878869891143956
 40
1.419794567472439
 40
1.9102422773456
 40
2.418829439147268
 40
3.096989347819317
 40
3.875274942031108
 40
3.875274942031108
 40
3.875274942031108
 40
3.875274942031108
 10
578.6056277115018
 20
496.0252623041249
 30
0.0
 10
578.5018602273031
 20
496.0524557438975
 30
0.0
 10
578.2449132618796
 20
496.0874303738115
 30
0.0
 10
577.8466327328832
 20
496.1770471277293
 30
0.0
 10
577.359495882097
 20
496.2447892777633
 30
0.0
 10
576.9243204464051
 20
496.6143763363767
 30
0.0
 10
576.4631059893519
 20
497.1152471558552
 30
0.0
 10
576.4367346368487
 20
497.6168843120021
 30
0.0
 10
576.4226424901037
 20
497.8849458161073
 30
0.0
  0
SPLINE
  5
1E7
330
1D5
100
AcDbEntity
  8
Hladina1
100
AcDbSpline
210
0.0
220
0.0
230
1.0
 70
  1064
 71
     3
 72
    12
 73
     8
 74
     6
 42
0.000000001
 43
0.0000000001
 44
0.0000000001
 40
0.0
 40
0.0
 40
0.0
 40
0.0
 40
0.5487024045063826
 40
0.9598156116510477
 40
1.24071739111227
 40
1.514184820930859
 40
1.563476079408139
 40
1.563476079408139
 40
1.563476079408139
 40
1.563476079408139
 10
577.1484697044236
 20
497.9038299787013
 30
0.0
 10
577.1308228543408
 20
498.1109868342321
 30
0.0
 10
577.0999541683884
 20
498.4733551824769
 30
0.0
 10
576.5478598947814
 20
498.5304803199204
 30
0.0
 10
576.3777071006857
 20
498.2097633450718
 30
0.0
 10
576.3955872091537
 20
498.0059175269318
 30
0.0
 10
576.4190580551157
 20
497.9009728251646
 30
0.0
 10
576.4226424901037
 20
497.8849458161073
 30
0.0
 11
577.1484697044236
 21
497.9038299787013
 31
0.0
 11
576.9660364187528
 21
498.4213166210317
 31
0.0
 11
576.5555549997973
 21
498.4440998117894
 31
0.0
 11
576.4056972219402
 21
498.2065109734147
 31
0.0
 11
576.4122136287421
 21
497.9331211937704
 31
0.0
 11
576.4226424901037
 21
497.8849458161073
 31
0.0
  0
SPLINE
  5
1E8
330
1D5
100
AcDbEntity
  8
Hladina1
100
AcDbSpline
210
0.0
220
0.0
230
1.0
 70
  1064
 71
     3
 72
    12
 73
     8
 74
     6
 42
0.000000001
 43
0.0000000001
 44
0.0000000001
 40
0.0
 40
0.0
 40
0.0
 40
0.0
 40
0.5487024045062218
 40
0.9598156116508711
 40
1.240717391111997
 40
1.514184820930418
 40
1.563476079407643
 40
1.563476079407643
 40
1.563476079407643
 40
1.563476079407643
 10
577.1545807308886
 20
491.4636822450382
 30
0.0
 10
577.1369338808056
 20
491.6708391005689
 30
0.0
 10
577.1060651948531
 20
492.0332074488136
 30
0.0
 10
576.5539709212466
 20
492.0903325862568
 30
0.0
 10
576.3838181271506
 20
491.7696156114084
 30
0.0
 10
576.4016982356192
 20
491.5657697932686
 30
0.0
 10
576.4251690815808
 20
491.4608250915013
 30
0.0
 10
576.4287535165688
 20
491.4447980824441
 30
0.0
 11
577.1545807308886
 21
491.4636822450382
 31
0.0
 11
576.9721474452177
 21
491.9811688873685
 31
0.0
 11
576.5616660262622
 21
492.0039520781258
 31
0.0
 11
576.4118082484052
 21
491.7663632397513
 31
0.0
 11
576.4183246552072
 21
491.4929734601071
 31
0.0
 11
576.4287535165688
 21
491.4447980824441
 31
0.0
  0
SPLINE
  5
1E9
330
1D5
100
AcDbEntity
  8
Hladina1
100
AcDbSpline
210
0.0
220
0.0
230
1.0
 70
  1064
 71
     3
 72
    14
 73
    10
 74
     8
 42
0.000000001
 43
0.0000000001
 44
0.0000000001
 40
0.0
 40
0.0
 40
0.0
 40
0.0
 40
0.480313065724709
 40
0.9878869891141999
 40
1.419794567472311
 40
1.910242277345801
 40
2.418829439147276
 40
3.096989347819389
 40
3.875274942031161
 40
3.875274942031161
 40
3.875274942031161
 40
3.875274942031161
 10
579.1557262930539
 20
489.2186772846011
 30
0.0
 10
579.0399514277417
 20
489.3358946822241
 30
0.0
 10
578.8018307284104
 20
489.5769823191695
 30
0.0
 10
578.3105068161439
 20
489.6338985285279
 30
0.0
 10
577.852743759348
 20
489.7368993940662
 30
0.0
 10
577.3656069085618
 20
489.8046415441002
 30
0.0
 10
576.9304314728699
 20
490.1742286027135
 30
0.0
 10
576.4692170158169
 20
490.6750994221919
 30
0.0
 10
576.4428456633139
 20
491.1767365783388
 30
0.0
 10
576.4287535165688
 20
491.4447980824441
 30
0.0
 11
579.1557262930539
 21
489.2186772846011
 31
0.0
 11
578.783878217265
 21
489.5226997338347
 31
0.0
 11
578.2914310384406
 21
489.6456918627406
 31
0.0
 11
577.8673783947031
 21
489.7276888845306
 31
0.0
 11
577.3912760740008
 21
489.8454408965813
 31
0.0
 11
576.9798255149249
 21
490.1443879463835
 31
0.0
 11
576.5611145626922
 21
490.6778502226605
 31
0.0
 11
576.4287535165688
 21
491.4447980824441
 31
0.0
  0
SPLINE
  5
1EA
330
1D5
100
AcDbEntity
  8
Hladina1
100
AcDbSpline
210
0.0
220
0.0
230
1.0
 70
  1064
 71
     3
 72
    10
 73
     6
 74
     4
 42
0.000000001
 43
0.0000000001
 44
0.0000000001
 40
0.0
 40
0.0
 40
0.0
 40
0.0
 40
0.8755136827639516
 40
1.521916528778597
 40
1.99475297679838
 40
1.99475297679838
 40
1.99475297679838
 40
1.99475297679838
 10
577.1545807308886
 20
491.4636822450382
 30
0.0
 10
577.2410041006753
 20
491.1593997985391
 30
0.0
 10
577.3912349394852
 20
490.6304617660892
 30
0.0
 10
578.0900393716486
 20
490.4402395556417
 30
0.0
 10
578.4525012283729
 20
490.3773683381653
 30
0.0
 10
578.6056277115029
 20
490.350807616689
 30
0.0
 11
577.1545807308886
 21
491.4636822450382
 31
0.0
 11
577.5405758620919
 21
490.6778502226605
 31
0.0
 11
578.1409597981502
 21
490.438317826816
 31
0.0
 11
578.6056277115029
 21
490.350807616689
 31
0.0
  0
SPLINE
  5
1EB
330
1D5
100
AcDbEntity
  8
Hladina1
100
AcDbSpline
210
0.0
220
0.0
230
1.0
 70
  1064
 71
     3
 72
    13
 73
     9
 74
     7
 42
0.000000001
 43
0.0000000001
 44
0.0000000001
 40
0.0
 40
0.0
 40
0.0
 40
0.0
 40
0.6429075011031752
 40
1.23018803759427
 40
1.649993712014052
 40
2.166399721602478
 40
2.616274431678376
 40
3.151093383853986
 40
3.151093383853986
 40
3.151093383853986
 40
3.151093383853986
 10
584.8759680645596
 20
489.2669074885471
 30
0.0
 10
585.082713127558
 20
489.3239230481602
 30
0.0
 10
585.4783148321514
 20
489.4330209499148
 30
0.0
 10
586.0297398992275
 20
489.4899462483782
 30
0.0
 10
586.5112924108792
 20
489.6400456848156
 30
0.0
 10
586.946730556886
 20
489.8629341360083
 30
0.0
 10
587.1424654692463
 20
490.3464757116531
 30
0.0
 10
587.2250096449927
 20
490.6614899003156
 30
0.0
 10
587.2698420545767
 20
490.8325842870874
 30
0.0
 11
584.8759680645596
 21
489.2669074885471
 31
0.0
 11
585.5004434535068
 21
489.4197490521808
 31
0.0
 11
586.0795063069198
 21
489.5176502285703
 31
0.0
 11
586.4803942176137
 21
489.6422523446621
 31
0.0
 11
586.9169184220907
 21
489.9181541127695
 31
0.0
 11
587.1218181378227
 21
490.3186579969688
 31
0.0
 11
587.2698420545767
 21
490.8325842870874
 31
0.0
  0
SPLINE
  5
1EC
330
1D5
100
AcDbEntity
  8
Hladina1
100
AcDbSpline
210
0.0
220
0.0
230
1.0
 70
  1064
 71
     3
 72
    13
 73
     9
 74
     7
 42
0.000000001
 43
0.0000000001
 44
0.0000000001
 40
0.0
 40
0.0
 40
0.0
 40
0.0
 40
0.2246032353051721
 40
0.4343617040305123
 40
1.142630725824439
 40
2.02973577277002
 40
2.370946938459299
 40
2.889170422928264
 40
2.889170422928264
 40
2.889170422928264
 40
2.889170422928264
 10
585.5756072094607
 20
490.3243143074696
 30
0.0
 10
585.59988591596
 20
490.2415665978529
 30
0.0
 10
585.6468386693892
 20
490.0815402469193
 30
0.0
 10
586.0860402643892
 20
490.1490908575797
 30
0.0
 10
586.6241537613772
 20
490.4857597393952
 30
0.0
 10
586.5269657265733
 20
491.4155200908434
 30
0.0
 10
587.2917451393306
 20
491.3867547045021
 30
0.0
 10
587.278081176182
 20
491.0410424796417
 30
0.0
 10
587.2698420545767
 20
490.8325842870874
 30
0.0
 11
585.5756072094607
 21
490.3243143074696
 31
0.0
 11
585.6805305716814
 21
490.1257250293858
 31
0.0
 11
585.8902890404067
 21
490.1257250293858
 31
0.0
 11
586.4613279357187
 21
490.5447233435516
 31
0.0
 11
586.8122643414937
 21
491.3594619540385
 31
0.0
 11
587.1527620966124
 21
491.3374088737491
 31
0.0
 11
587.2698420545767
 21
490.8325842870874
 31
0.0
  0
SPLINE
  5
1ED
330
1D5
100
AcDbEntity
  8
Hladina1
100
AcDbSpline
210
0.0
220
0.0
230
1.0
 70
  1064
 71
     3
 72
    12
 73
     8
 74
     6
 42
0.000000001
 43
0.0000000001
 44
0.0000000001
 40
0.0
 40
0.0
 40
0.0
 40
0.0
 40
0.8682590907202168
 40
1.428020258692736
 40
2.490326501641835
 40
2.711762396106005
 40
4.07552894871755
 40
4.07552894871755
 40
4.07552894871755
 40
4.07552894871755
 10
585.5019412155107
 20
493.9196257949946
 30
0.0
 10
585.4455883735322
 20
493.5350893009105
 30
0.0
 10
585.3529052092091
 20
492.9026445506878
 30
0.0
 10
586.5485214623567
 20
493.1842309176038
 30
0.0
 10
586.0281262929554
 20
494.1732309942559
 30
0.0
 10
587.0137865851511
 20
494.4700582459427
 30
0.0
 10
586.9464552951504
 20
493.6775015233577
 30
0.0
 10
586.8885294690727
 20
492.9956565316956
 30
0.0
 11
585.5019412155107
 21
493.9196257949946
 31
0.0
 11
585.6206005129307
 21
493.0595131164728
 31
0.0
 11
586.1599775678826
 21
493.2091959737459
 31
0.0
 11
586.3661825228335
 21
494.2512967703881
 31
0.0
 11
586.5756701544212
 21
494.3230518229551
 31
0.0
 11
586.8885294690727
 21
492.9956565316956
 31
0.0
  0
ARC
  5
1EE
330
1D5
100
AcDbEntity
  8
Hladina1
100
AcDbCircle
 10
585.6749980243383
 20
493.3268435267146
 30
0.0
 40
1.257912315318324
100
AcDbArc
 50
265.4681927024809
 51
344.7350435328164
  0
LINE
  5
1EF
330
1D5
100
AcDbEntity
  8
Hladina1
100
AcDbLine
 10
584.5308236578205
 20
489.9886463635486
 30
0.0
 11
584.5059066411256
 21
492.4279862824429
 31
0.0
  0
LINE
  5
1F0
330
1D5
100
AcDbEntity
  8
Hladina1
100
AcDbLine
 10
579.6056277115027
 20
489.8389019079453
 30
0.0
 11
579.6056277115027
 21
492.4993572272692
 31
0.0
  0
ARC
  5
1F1
330
1D5
100
AcDbEntity
  8
Hladina1
100
AcDbCircle
 10
581.9575736532465
 20
493.5531939351791
 30
0.0
 40
4.396318343393376
100
AcDbArc
 50
237.6573900979629
 51
305.8255507653938
  0
LINE
  5
1F2
330
1D5
100
AcDbEntity
  8
Hladina1
100
AcDbLine
 10
579.6056277115027
 20
493.7144548716296
 30
0.0
 11
579.6056277115027
 21
497.8112367688871
 31
0.0
  0
LINE
  5
1F3
330
1D5
100
AcDbEntity
  8
Hladina1
100
AcDbLine
 10
584.502858907548
 20
493.6426092894593
 30
0.0
 11
585.0927364619208
 21
497.4139108542192
 31
0.0
  0
ARC
  5
1F4
330
1D5
100
AcDbEntity
  8
Hladina1
100
AcDbCircle
 10
582.8514655015087
 20
502.8537821189271
 30
0.0
 40
0.3964255382737756
100
AcDbArc
 50
140.0335420490604
 51
290.6408881337029
  0
ARC
  5
1F5
330
1D5
100
AcDbEntity
  8
Hladina1
100
AcDbCircle
 10
591.3374344077801
 20
500.1058872683854
 30
0.0
 40
0.3
100
AcDbArc
 50
266.2983149117772
 51
12.96565150846524
  0
ARC
  5
1F6
330
1D5
100
AcDbEntity
  8
Hladina1
100
AcDbCircle
 10
591.4114113151144
 20
500.1011012115941
 30
0.0
 40
0.3
100
AcDbArc
 50
213.4848876457069
 51
266.2983149117561
  0
ARC
  5
1F7
330
1D5
100
AcDbEntity
  8
Hladina1
100
AcDbCircle
 10
576.8034247481165
 20
499.9550254597174
 30
0.0
 40
2.254276878941726
100
AcDbArc
 50
43.52356013104826
 51
93.96684357026023
  0
LINE
  5
1F8
330
1D5
100
AcDbEntity
  8
Hladina1
100
AcDbLine
 10
591.318065910602
 20
499.8065131524082
 30
0.0
 11
591.3920428179364
 21
499.8017270956169
 31
0.0
  0
ARC
  5
1F9
330
1D5
100
AcDbEntity
  8
Hladina1
100
AcDbCircle
 10
585.4346066460602
 20
496.5226914053551
 30
0.0
 40
7.190718926246167
100
AcDbArc
 50
30.50869514896717
 51
113.6710811973435
  0
ARC
  5
1FA
330
1D5
100
AcDbEntity
  8
Hladina1
100
AcDbCircle
 10
576.4096455347287
 20
499.2452992636582
 30
0.0
 40
2.200584263834125
100
AcDbArc
 50
356.2938605224641
 51
82.22364690638018
  0
ARC
  5
1FB
330
1D5
100
AcDbEntity
  8
Hladina1
100
AcDbCircle
 10
588.8529940283091
 20
498.4086920183568
 30
0.0
 40
2.767531237123765
100
AcDbArc
 50
33.4848876457079
 51
175.8450734820557
  0
LINE
  5
1FC
330
1D5
100
AcDbEntity
  8
Hladina1
100
AcDbLine
 10
578.599516685038
 20
496.7909553503524
 30
0.0
 11
578.6056277115029
 21
499.1030551723039
 31
0.0
  0
LINE
  5
1FD
330
1D5
100
AcDbEntity
  8
Hladina1
100
AcDbLine
 10
578.599516685038
 20
493.3121032082935
 30
0.0
 11
578.6056277115029
 21
496.0252623041291
 31
0.0
  0
LINE
  5
1FE
330
1D5
100
AcDbEntity
  8
Hladina1
100
AcDbLine
 10
585.5019412155107
 20
493.9196257949946
 30
0.0
 11
586.0927364619211
 21
498.6092096376649
 31
0.0
  0
LINE
  5
1FF
330
1D5
100
AcDbEntity
  8
Hladina1
100
AcDbLine
 10
585.5756072094607
 20
490.3243143074696
 30
0.0
 11
585.5756072094609
 21
492.07286391805
 31
0.0
  0
LINE
  5
200
330
1D5
100
AcDbEntity
  8
Hladina1
100
AcDbLine
 10
578.6056277115029
 20
490.350807616689
 30
0.0
 11
578.6056277115029
 21
492.5464101620701
 31
0.0
  0
ARC
  5
201
330
1D5
100
AcDbEntity
  8
Hladina1
100
AcDbCircle
 10
581.9792589433252
 20
493.5822630050248
 30
0.0
 40
5.19742407030961
100
AcDbArc
 50
237.0944238147139
 51
303.8717317294514
  0
ENDBLK
  5
202
330
1D5
100
AcDbEntity
  8
0
100
AcDbBlockEnd
  0
BLOCK
  5
204
330
203
100
AcDbEntity
  8
0
100
AcDbBlockBegin
  2
*D15
 70
     1
 10
0.0
 20
0.0
 30
0.0
  3
*D15
  1

  0
LINE
  5
205
330
203
100
AcDbEntity
  8
0
 62
     0
370
    -2
100
AcDbLine
 10
431.9030182161966
 20
469.8165608996883
 30
0.0
 11
406.0848336967159
 21
469.8165608996883
 31
0.0
  0
LINE
  5
206
330
203
100
AcDbEntity
  8
0
 62
     0
370
    -2
100
AcDbLine
 10
420.2208927910583
 20
400.8165608996883
 30
0.0
 11
406.0848336967159
 21
400.8165608996883
 31
0.0
  0
LINE
  5
207
330
203
100
AcDbEntity
  8
0
 62
     0
370
    -2
100
AcDbLine
 10
407.334833696716
 20
467.3165608996883
 30
0.0
 11
407.334833696716
 21
403.3165608996883
 31
0.0
  0
SOLID
  5
208
330
203
100
AcDbEntity
  8
0
 62
     0
100
AcDbTrace
 10
406.9181670300492
 20
467.3165608996883
 30
0.0
 11
407.7515003633827
 21
467.3165608996883
 31
0.0
 12
407.334833696716
 22
469.8165608996883
 32
0.0
 13
407.334833696716
 23
469.8165608996883
 33
0.0
  0
SOLID
  5
209
330
203
100
AcDbEntity
  8
0
 62
     0
100
AcDbTrace
 10
406.9181670300492
 20
403.3165608996883
 30
0.0
 11
407.7515003633827
 21
403.3165608996883
 31
0.0
 12
407.334833696716
 22
400.8165608996883
 32
0.0
 13
407.334833696716
 23
400.8165608996883
 33
0.0
  0
MTEXT
  5
20A
330
203
100
AcDbEntity
  8
0
 62
     0
100
AcDbMText
 10
405.4598336967157
 20
435.3165608996885
 30
0.0
 40
2.5
 41
0.0
 46
0.0
 71
     5
 72
     1
  1
40
 11
0.0000000000000001
 21
1.0
 31
0.0
 73
     1
 44
1.0
  0
POINT
  5
20B
330
203
100
AcDbEntity
  8
Defpoints
 62
     0
100
AcDbPoint
 10
432.5280182161965
 20
469.8165608996883
 30
0.0
  0
POINT
  5
20C
330
203
100
AcDbEntity
  8
Defpoints
 62
     0
100
AcDbPoint
 10
420.8458927910585
 20
400.8165608996883
 30
0.0
  0
POINT
  5
20D
330
203
100
AcDbEntity
  8
Defpoints
 62
     0
100
AcDbPoint
 10
407.334833696716
 20
400.8165608996883
 30
0.0
  0
ENDBLK
  5
20E
330
203
100
AcDbEntity
  8
0
100
AcDbBlockEnd
  0
BLOCK
  5
210
330
20F
100
AcDbEntity
  8
0
100
AcDbBlockBegin
  2
*D16
 70
     1
 10
0.0
 20
0.0
 30
0.0
  3
*D16
  1

  0
LINE
  5
211
330
20F
100
AcDbEntity
  8
0
 62
     0
370
    -2
100
AcDbLine
 10
516.7720690082453
 20
470.8909947544491
 30
0.0
 11
490.9538844887648
 21
470.8909947544491
 31
0.0
  0
LINE
  5
212
330
20F
100
AcDbEntity
  8
0
 62
     0
370
    -2
100
AcDbLine
 10
510.6817925151303
 20
400.8165608996883
 30
0.0
 11
490.9538844887648
 21
400.8165608996883
 31
0.0
  0
LINE
  5
213
330
20F
100
AcDbEntity
  8
0
 62
     0
370
    -2
100
AcDbLine
 10
492.2038844887648
 20
468.3909947544491
 30
0.0
 11
492.2038844887648
 21
403.316560899688
 31
0.0
  0
SOLID
  5
214
330
20F
100
AcDbEntity
  8
0
 62
     0
100
AcDbTrace
 10
491.7872178220981
 20
468.3909947544491
 30
0.0
 11
492.6205511554313
 21
468.3909947544491
 31
0.0
 12
492.2038844887648
 22
470.8909947544491
 32
0.0
 13
492.2038844887648
 23
470.8909947544491
 33
0.0
  0
SOLID
  5
215
330
20F
100
AcDbEntity
  8
0
 62
     0
100
AcDbTrace
 10
491.7872178220981
 20
403.316560899688
 30
0.0
 11
492.6205511554313
 21
403.316560899688
 31
0.0
 12
492.2038844887648
 22
400.8165608996883
 32
0.0
 13
492.2038844887648
 23
400.8165608996883
 33
0.0
  0
MTEXT
  5
216
330
20F
100
AcDbEntity
  8
0
 62
     0
100
AcDbMText
 10
490.3288844887646
 20
435.8537778270688
 30
0.0
 40
2.5
 41
0.0
 46
0.0
 71
     5
 72
     1
  1
40
 11
0.0000000000000001
 21
1.0
 31
0.0
 73
     1
 44
1.0
  0
POINT
  5
217
330
20F
100
AcDbEntity
  8
Defpoints
 62
     0
100
AcDbPoint
 10
517.3970690082454
 20
470.8909947544491
 30
0.0
  0
POINT
  5
218
330
20F
100
AcDbEntity
  8
Defpoints
 62
     0
100
AcDbPoint
 10
511.3067925151304
 20
400.8165608996883
 30
0.0
  0
POINT
  5
219
330
20F
100
AcDbEntity
  8
Defpoints
 62
     0
100
AcDbPoint
 10
492.2038844887648
 20
400.8165608996883
 30
0.0
  0
ENDBLK
  5
21A
330
20F
100
AcDbEntity
  8
0
100
AcDbBlockEnd
  0
BLOCK
  5
35C
330
352
100
AcDbEntity
  8
0
100
AcDbBlockBegin
  2
*D17
 70
     1
 10
0.0
 20
0.0
 30
0.0
  3
*D17
  1

  0
LINE
  5
43C
330
352
100
AcDbEntity
  8
0
 62
     0
440
 16777216
370
    -2
100
AcDbLine
 10
428.7562765072955
 20
684.4361929328933
 30
0.0
 11
428.7562765072955
 21
717.3004977882907
 31
0.0
  0
LINE
  5
43D
330
352
100
AcDbEntity
  8
0
 62
     0
440
 16777216
370
    -2
100
AcDbLine
 10
443.7562765072954
 20
707.8439273701986
 30
0.0
 11
443.7562765072954
 21
717.3004977882907
 31
0.0
  0
LINE
  5
43E
330
352
100
AcDbEntity
  8
0
 62
     0
440
 16777216
370
    -2
100
AcDbLine
 10
431.2562765072953
 20
716.0504977882907
 30
0.0
 11
441.2562765072955
 21
716.0504977882907
 31
0.0
  0
SOLID
  5
43F
330
352
100
AcDbEntity
  8
0
 62
     0
440
 16777216
100
AcDbTrace
 10
431.2562765072953
 20
716.4671644549572
 30
0.0
 11
431.2562765072953
 21
715.6338311216241
 31
0.0
 12
428.7562765072955
 22
716.0504977882907
 32
0.0
 13
428.7562765072955
 23
716.0504977882907
 33
0.0
  0
SOLID
  5
440
330
352
100
AcDbEntity
  8
0
 62
     0
440
 16777216
100
AcDbTrace
 10
441.2562765072955
 20
716.4671644549572
 30
0.0
 11
441.2562765072955
 21
715.6338311216241
 31
0.0
 12
443.7562765072954
 22
716.0504977882907
 32
0.0
 13
443.7562765072954
 23
716.0504977882907
 33
0.0
  0
MTEXT
  5
441
330
352
100
AcDbEntity
  8
0
 62
     0
440
 16777216
100
AcDbMText
 10
436.2562765072955
 20
717.9254977882907
 30
0.0
 40
2.5
 41
0.0
 46
0.0
 71
     5
 72
     1
  1
15
 73
     1
 44
1.0
  0
POINT
  5
442
330
352
100
AcDbEntity
  8
Defpoints
 62
     0
440
 16777216
100
AcDbPoint
 10
428.7562765072955
 20
683.8111929328935
 30
0.0
  0
POINT
  5
443
330
352
100
AcDbEntity
  8
Defpoints
 62
     0
440
 16777216
100
AcDbPoint
 10
443.7562765072954
 20
707.2189273701988
 30
0.0
  0
POINT
  5
444
330
352
100
AcDbEntity
  8
Defpoints
 62
     0
440
 16777216
100
AcDbPoint
 10
443.7562765072954
 20
716.0504977882907
 30
0.0
  0
ENDBLK
  5
35D
330
352
100
AcDbEntity
  8
0
100
AcDbBlockEnd
  0
BLOCK
  5
368
330
35E
100
AcDbEntity
  8
0
100
AcDbBlockBegin
  2
*D18
 70
     1
 10
0.0
 20
0.0
 30
0.0
  3
*D18
  1

  0
LINE
  5
42A
330
35E
100
AcDbEntity
  8
0
 62
     0
440
 16777216
370
    -2
100
AcDbLine
 10
348.3367717252961
 20
683.5939273701983
 30
0.0
 11
336.0526794655559
 21
683.5939273701983
 31
0.0
  0
LINE
  5
42B
330
35E
100
AcDbEntity
  8
0
 62
     0
440
 16777216
370
    -2
100
AcDbLine
 10
350.1887385598983
 20
614.5939273701984
 30
0.0
 11
336.0526794655558
 21
614.5939273701984
 31
0.0
  0
LINE
  5
42C
330
35E
100
AcDbEntity
  8
0
 62
     0
440
 16777216
370
    -2
100
AcDbLine
 10
337.3026794655558
 20
681.0939273701983
 30
0.0
 11
337.3026794655558
 21
617.0939273701983
 31
0.0
  0
SOLID
  5
42D
330
35E
100
AcDbEntity
  8
0
 62
     0
440
 16777216
100
AcDbTrace
 10
336.8860127988892
 20
681.0939273701983
 30
0.0
 11
337.7193461322225
 21
681.0939273701983
 31
0.0
 12
337.3026794655558
 22
683.5939273701983
 32
0.0
 13
337.3026794655558
 23
683.5939273701983
 33
0.0
  0
SOLID
  5
42E
330
35E
100
AcDbEntity
  8
0
 62
     0
440
 16777216
100
AcDbTrace
 10
336.8860127988891
 20
617.0939273701983
 30
0.0
 11
337.7193461322225
 21
617.0939273701983
 31
0.0
 12
337.3026794655558
 22
614.5939273701984
 32
0.0
 13
337.3026794655558
 23
614.5939273701984
 33
0.0
  0
MTEXT
  5
42F
330
35E
100
AcDbEntity
  8
0
 62
     0
440
 16777216
100
AcDbMText
 10
335.4276794655557
 20
649.0939273701983
 30
0.0
 40
2.5
 41
0.0
 46
0.0
 71
     5
 72
     1
  1
40
 11
0.0000000000000001
 21
1.0
 31
0.0
 73
     1
 44
1.0
  0
POINT
  5
430
330
35E
100
AcDbEntity
  8
Defpoints
 62
     0
440
 16777216
100
AcDbPoint
 10
348.9617717252961
 20
683.5939273701983
 30
0.0
  0
POINT
  5
431
330
35E
100
AcDbEntity
  8
Defpoints
 62
     0
440
 16777216
100
AcDbPoint
 10
350.8137385598983
 20
614.5939273701984
 30
0.0
  0
POINT
  5
432
330
35E
100
AcDbEntity
  8
Defpoints
 62
     0
440
 16777216
100
AcDbPoint
 10
337.3026794655558
 20
614.5939273701984
 30
0.0
  0
ENDBLK
  5
369
330
35E
100
AcDbEntity
  8
0
100
AcDbBlockEnd
  0
BLOCK
  5
374
330
36A
100
AcDbEntity
  8
0
100
AcDbBlockBegin
  2
*D19
 70
     1
 10
0.0
 20
0.0
 30
0.0
  3
*D19
  1

  0
LINE
  5
433
330
36A
100
AcDbEntity
  8
0
 62
     0
440
 16777216
370
    -2
100
AcDbLine
 10
430.4277016727836
 20
684.6683612249591
 30
0.0
 11
420.9217302576044
 21
684.6683612249591
 31
0.0
  0
LINE
  5
434
330
36A
100
AcDbEntity
  8
0
 62
     0
440
 16777216
370
    -2
100
AcDbLine
 10
440.6496382839701
 20
614.5939273701984
 30
0.0
 11
420.9217302576043
 21
614.5939273701984
 31
0.0
  0
LINE
  5
435
330
36A
100
AcDbEntity
  8
0
 62
     0
440
 16777216
370
    -2
100
AcDbLine
 10
422.1717302576045
 20
682.168361224959
 30
0.0
 11
422.1717302576045
 21
617.0939273701983
 31
0.0
  0
SOLID
  5
436
330
36A
100
AcDbEntity
  8
0
 62
     0
440
 16777216
100
AcDbTrace
 10
421.7550635909378
 20
682.168361224959
 30
0.0
 11
422.5883969242711
 21
682.168361224959
 31
0.0
 12
422.1717302576045
 22
684.6683612249591
 32
0.0
 13
422.1717302576045
 23
684.6683612249591
 33
0.0
  0
SOLID
  5
437
330
36A
100
AcDbEntity
  8
0
 62
     0
440
 16777216
100
AcDbTrace
 10
421.7550635909378
 20
617.0939273701983
 30
0.0
 11
422.5883969242711
 21
617.0939273701983
 31
0.0
 12
422.1717302576045
 22
614.5939273701984
 32
0.0
 13
422.1717302576045
 23
614.5939273701984
 33
0.0
  0
MTEXT
  5
438
330
36A
100
AcDbEntity
  8
0
 62
     0
440
 16777216
100
AcDbMText
 10
420.2967302576044
 20
649.6311442975787
 30
0.0
 40
2.5
 41
0.0
 46
0.0
 71
     5
 72
     1
  1
40
 11
0.0000000000000001
 21
1.0
 31
0.0
 73
     1
 44
1.0
  0
POINT
  5
439
330
36A
100
AcDbEntity
  8
Defpoints
 62
     0
440
 16777216
100
AcDbPoint
 10
431.0527016727836
 20
684.6683612249591
 30
0.0
  0
POINT
  5
43A
330
36A
100
AcDbEntity
  8
Defpoints
 62
     0
440
 16777216
100
AcDbPoint
 10
441.27463828397
 20
614.5939273701984
 30
0.0
  0
POINT
  5
43B
330
36A
100
AcDbEntity
  8
Defpoints
 62
     0
440
 16777216
100
AcDbPoint
 10
422.1717302576045
 20
614.5939273701984
 30
0.0
  0
ENDBLK
  5
375
330
36A
100
AcDbEntity
  8
0
100
AcDbBlockEnd
  0
BLOCK
  5
380
330
376
100
AcDbEntity
  8
0
100
AcDbBlockBegin
  2
*D20
 70
     1
 10
0.0
 20
0.0
 30
0.0
  3
*D20
  1

  0
LINE
  5
4D3
330
376
100
AcDbEntity
  8
0
 62
     0
440
 16777216
370
    -2
100
AcDbLine
 10
474.3812765072955
 20
699.5939273701988
 30
0.0
 11
481.8004925215823
 21
699.5939273701988
 31
0.0
  0
LINE
  5
4D4
330
376
100
AcDbEntity
  8
0
 62
     0
440
 16777216
370
    -2
100
AcDbLine
 10
471.3812765072955
 20
709.5939273701987
 30
0.0
 11
481.8004925215823
 21
709.5939273701987
 31
0.0
  0
LINE
  5
4D5
330
376
100
AcDbEntity
  8
0
 62
     0
440
 16777216
370
    -2
100
AcDbLine
 10
480.5504925215823
 20
702.0939273701988
 30
0.0
 11
480.5504925215823
 21
707.0939273701988
 31
0.0
  0
SOLID
  5
4D6
330
376
100
AcDbEntity
  8
0
 62
     0
440
 16777216
100
AcDbTrace
 10
480.1338258549156
 20
702.0939273701988
 30
0.0
 11
480.967159188249
 21
702.0939273701988
 31
0.0
 12
480.5504925215823
 22
699.5939273701988
 32
0.0
 13
480.5504925215823
 23
699.5939273701988
 33
0.0
  0
SOLID
  5
4D7
330
376
100
AcDbEntity
  8
0
 62
     0
440
 16777216
100
AcDbTrace
 10
480.1338258549156
 20
707.0939273701988
 30
0.0
 11
480.967159188249
 21
707.0939273701988
 31
0.0
 12
480.5504925215823
 22
709.5939273701987
 32
0.0
 13
480.5504925215823
 23
709.5939273701987
 33
0.0
  0
MTEXT
  5
4D8
330
376
100
AcDbEntity
  8
0
 62
     0
440
 16777216
100
AcDbMText
 10
478.6754925215824
 20
704.5939273701986
 30
0.0
 40
2.5
 41
0.0
 46
0.0
 71
     5
 72
     1
  1
10
 11
0.0000000000000001
 21
1.0
 31
0.0
 73
     1
 44
1.0
  0
POINT
  5
4D9
330
376
100
AcDbEntity
  8
Defpoints
 62
     0
440
 16777216
100
AcDbPoint
 10
473.7562765072955
 20
699.5939273701988
 30
0.0
  0
POINT
  5
4DA
330
376
100
AcDbEntity
  8
Defpoints
 62
     0
440
 16777216
100
AcDbPoint
 10
470.7562765072955
 20
709.5939273701987
 30
0.0
  0
POINT
  5
4DB
330
376
100
AcDbEntity
  8
Defpoints
 62
     0
440
 16777216
100
AcDbPoint
 10
480.5504925215823
 20
709.5939273701987
 30
0.0
  0
ENDBLK
  5
381
330
376
100
AcDbEntity
  8
0
100
AcDbBlockEnd
  0
BLOCK
  5
395
330
38B
100
AcDbEntity
  8
0
100
AcDbBlockBegin
  2
*D21
 70
     1
 10
0.0
 20
0.0
 30
0.0
  3
*D21
  1

  0
LINE
  5
38C
330
38B
100
AcDbEntity
  8
0
 62
     0
440
 16777216
370
    -2
100
AcDbLine
 10
446.1312765072951
 20
709.5939273701985
 30
0.0
 11
420.9217302576043
 21
709.5939273701985
 31
0.0
  0
LINE
  5
38D
330
38B
100
AcDbEntity
  8
0
 62
     0
440
 16777216
370
    -2
100
AcDbLine
 10
430.4277016727843
 20
684.6683612249591
 30
0.0
 11
420.9217302576043
 21
684.6683612249591
 31
0.0
  0
LINE
  5
38E
330
38B
100
AcDbEntity
  8
0
 62
     0
440
 16777216
370
    -2
100
AcDbLine
 10
422.1717302576045
 20
707.0939273701985
 30
0.0
 11
422.1717302576045
 21
687.1683612249593
 31
0.0
  0
SOLID
  5
38F
330
38B
100
AcDbEntity
  8
0
 62
     0
440
 16777216
100
AcDbTrace
 10
421.7550635909378
 20
707.0939273701985
 30
0.0
 11
422.588396924271
 21
707.0939273701985
 31
0.0
 12
422.1717302576045
 22
709.5939273701985
 32
0.0
 13
422.1717302576045
 23
709.5939273701985
 33
0.0
  0
SOLID
  5
390
330
38B
100
AcDbEntity
  8
0
 62
     0
440
 16777216
100
AcDbTrace
 10
421.7550635909378
 20
687.1683612249593
 30
0.0
 11
422.588396924271
 21
687.1683612249593
 31
0.0
 12
422.1717302576045
 22
684.6683612249591
 32
0.0
 13
422.1717302576045
 23
684.6683612249591
 33
0.0
  0
MTEXT
  5
391
330
38B
100
AcDbEntity
  8
0
 62
     0
440
 16777216
100
AcDbMText
 10
420.2967302576044
 20
697.131144297579
 30
0.0
 40
2.5
 41
0.0
 46
0.0
 71
     5
 72
     1
  1
26
 11
0.0000000000000001
 21
1.0
 31
0.0
 73
     1
 44
1.0
  0
POINT
  5
392
330
38B
100
AcDbEntity
  8
Defpoints
 62
     0
440
 16777216
100
AcDbPoint
 10
446.7562765072953
 20
709.5939273701985
 30
0.0
  0
POINT
  5
393
330
38B
100
AcDbEntity
  8
Defpoints
 62
     0
440
 16777216
100
AcDbPoint
 10
431.0527016727843
 20
684.6683612249591
 30
0.0
  0
POINT
  5
394
330
38B
100
AcDbEntity
  8
Defpoints
 62
     0
440
 16777216
100
AcDbPoint
 10
422.1717302576045
 20
684.6683612249591
 30
0.0
  0
ENDBLK
  5
396
330
38B
100
AcDbEntity
  8
0
100
AcDbBlockEnd
  0
BLOCK
  5
3B3
330
3A9
100
AcDbEntity
  8
0
100
AcDbBlockBegin
  2
*D22
 70
     1
 10
0.0
 20
0.0
 30
0.0
  3
*D22
  1

  0
LINE
  5
3AA
330
3A9
100
AcDbEntity
  8
0
 62
     0
440
 16777216
370
    -2
100
AcDbLine
 10
390.1208639850364
 20
701.5939273701985
 30
0.0
 11
398.2479112374116
 21
701.5939273701985
 31
0.0
  0
LINE
  5
3AB
330
3A9
100
AcDbEntity
  8
0
 62
     0
440
 16777216
370
    -2
100
AcDbLine
 10
387.1208639850364
 20
709.5939273701985
 30
0.0
 11
398.2479112374116
 21
709.5939273701985
 31
0.0
  0
LINE
  5
3AC
330
3A9
100
AcDbEntity
  8
0
 62
     0
440
 16777216
370
    -2
100
AcDbLine
 10
396.9979112374117
 20
704.0939273701988
 30
0.0
 11
396.9979112374117
 21
707.0939273701985
 31
0.0
  0
SOLID
  5
3AD
330
3A9
100
AcDbEntity
  8
0
 62
     0
440
 16777216
100
AcDbTrace
 10
396.581244570745
 20
704.0939273701988
 30
0.0
 11
397.4145779040783
 21
704.0939273701988
 31
0.0
 12
396.9979112374117
 22
701.5939273701985
 32
0.0
 13
396.9979112374117
 23
701.5939273701985
 33
0.0
  0
SOLID
  5
3AE
330
3A9
100
AcDbEntity
  8
0
 62
     0
440
 16777216
100
AcDbTrace
 10
396.581244570745
 20
707.0939273701985
 30
0.0
 11
397.4145779040783
 21
707.0939273701985
 31
0.0
 12
396.9979112374117
 22
709.5939273701985
 32
0.0
 13
396.9979112374117
 23
709.5939273701985
 33
0.0
  0
MTEXT
  5
3AF
330
3A9
100
AcDbEntity
  8
0
 62
     0
440
 16777216
100
AcDbMText
 10
395.1229112374115
 20
705.5939273701986
 30
0.0
 40
2.5
 41
0.0
 46
0.0
 71
     5
 72
     1
  1
8
 11
0.0000000000000001
 21
1.0
 31
0.0
 73
     1
 44
1.0
  0
POINT
  5
3B0
330
3A9
100
AcDbEntity
  8
Defpoints
 62
     0
440
 16777216
100
AcDbPoint
 10
389.4958639850364
 20
701.5939273701985
 30
0.0
  0
POINT
  5
3B1
330
3A9
100
AcDbEntity
  8
Defpoints
 62
     0
440
 16777216
100
AcDbPoint
 10
386.4958639850364
 20
709.5939273701985
 30
0.0
  0
POINT
  5
3B2
330
3A9
100
AcDbEntity
  8
Defpoints
 62
     0
440
 16777216
100
AcDbPoint
 10
396.9979112374117
 20
709.5939273701985
 30
0.0
  0
ENDBLK
  5
3B4
330
3A9
100
AcDbEntity
  8
0
100
AcDbBlockEnd
  0
BLOCK
  5
3BF
330
3B5
100
AcDbEntity
  8
0
100
AcDbBlockBegin
  2
*D23
 70
     1
 10
0.0
 20
0.0
 30
0.0
  3
*D23
  1

  0
LINE
  5
3B6
330
3B5
100
AcDbEntity
  8
0
 62
     0
440
 16777216
370
    -2
100
AcDbLine
 10
389.4958639850364
 20
707.2189273701982
 30
0.0
 11
389.4958639850364
 21
716.3961685085249
 31
0.0
  0
LINE
  5
3B7
330
3B5
100
AcDbEntity
  8
0
 62
     0
440
 16777216
370
    -2
100
AcDbLine
 10
359.4958639850363
 20
707.2189273701982
 30
0.0
 11
359.4958639850363
 21
716.3961685085249
 31
0.0
  0
LINE
  5
3B8
330
3B5
100
AcDbEntity
  8
0
 62
     0
440
 16777216
370
    -2
100
AcDbLine
 10
386.9958639850364
 20
715.146168508525
 30
0.0
 11
361.9958639850363
 21
715.146168508525
 31
0.0
  0
SOLID
  5
3B9
330
3B5
100
AcDbEntity
  8
0
 62
     0
440
 16777216
100
AcDbTrace
 10
386.9958639850364
 20
715.5628351751913
 30
0.0
 11
386.9958639850364
 21
714.7295018418581
 31
0.0
 12
389.4958639850364
 22
715.146168508525
 32
0.0
 13
389.4958639850364
 23
715.146168508525
 33
0.0
  0
SOLID
  5
3BA
330
3B5
100
AcDbEntity
  8
0
 62
     0
440
 16777216
100
AcDbTrace
 10
361.9958639850363
 20
715.5628351751913
 30
0.0
 11
361.9958639850363
 21
714.7295018418581
 31
0.0
 12
359.4958639850363
 22
715.146168508525
 32
0.0
 13
359.4958639850363
 23
715.146168508525
 33
0.0
  0
MTEXT
  5
3BB
330
3B5
100
AcDbEntity
  8
0
 62
     0
440
 16777216
100
AcDbMText
 10
374.4958639850363
 20
717.0211685085249
 30
0.0
 40
2.5
 41
0.0
 46
0.0
 71
     5
 72
     1
  1
30
 73
     1
 44
1.0
  0
POINT
  5
3BC
330
3B5
100
AcDbEntity
  8
Defpoints
 62
     0
440
 16777216
100
AcDbPoint
 10
389.4958639850364
 20
706.5939273701982
 30
0.0
  0
POINT
  5
3BD
330
3B5
100
AcDbEntity
  8
Defpoints
 62
     0
440
 16777216
100
AcDbPoint
 10
359.4958639850363
 20
706.5939273701982
 30
0.0
  0
POINT
  5
3BE
330
3B5
100
AcDbEntity
  8
Defpoints
 62
     0
440
 16777216
100
AcDbPoint
 10
359.4958639850363
 20
715.146168508525
 30
0.0
  0
ENDBLK
  5
3C0
330
3B5
100
AcDbEntity
  8
0
100
AcDbBlockEnd
  0
BLOCK
  5
3CB
330
3C1
100
AcDbEntity
  8
0
100
AcDbBlockBegin
  2
*D24
 70
     1
 10
0.0
 20
0.0
 30
0.0
  3
*D24
  1

  0
LINE
  5
3C2
330
3C1
100
AcDbEntity
  8
0
 62
     0
440
 16777216
370
    -2
100
AcDbLine
 10
361.8708639850364
 20
709.5939273701982
 30
0.0
 11
336.0526794655558
 21
709.5939273701982
 31
0.0
  0
LINE
  5
3C3
330
3C1
100
AcDbEntity
  8
0
 62
     0
440
 16777216
370
    -2
100
AcDbLine
 10
357.3708639850364
 20
683.5939273701983
 30
0.0
 11
336.0526794655558
 21
683.5939273701983
 31
0.0
  0
LINE
  5
3C4
330
3C1
100
AcDbEntity
  8
0
 62
     0
440
 16777216
370
    -2
100
AcDbLine
 10
337.3026794655558
 20
707.0939273701982
 30
0.0
 11
337.3026794655558
 21
686.0939273701983
 31
0.0
  0
SOLID
  5
3C5
330
3C1
100
AcDbEntity
  8
0
 62
     0
440
 16777216
100
AcDbTrace
 10
336.8860127988891
 20
707.0939273701982
 30
0.0
 11
337.7193461322225
 21
707.0939273701982
 31
0.0
 12
337.3026794655558
 22
709.5939273701982
 32
0.0
 13
337.3026794655558
 23
709.5939273701982
 33
0.0
  0
SOLID
  5
3C6
330
3C1
100
AcDbEntity
  8
0
 62
     0
440
 16777216
100
AcDbTrace
 10
336.8860127988891
 20
686.0939273701983
 30
0.0
 11
337.7193461322225
 21
686.0939273701983
 31
0.0
 12
337.3026794655558
 22
683.5939273701983
 32
0.0
 13
337.3026794655558
 23
683.5939273701983
 33
0.0
  0
MTEXT
  5
3C7
330
3C1
100
AcDbEntity
  8
0
 62
     0
440
 16777216
100
AcDbMText
 10
335.4276794655557
 20
696.5939273701982
 30
0.0
 40
2.5
 41
0.0
 46
0.0
 71
     5
 72
     1
  1
26
 11
0.0000000000000001
 21
1.0
 31
0.0
 73
     1
 44
1.0
  0
POINT
  5
3C8
330
3C1
100
AcDbEntity
  8
Defpoints
 62
     0
440
 16777216
100
AcDbPoint
 10
362.4958639850364
 20
709.5939273701982
 30
0.0
  0
POINT
  5
3C9
330
3C1
100
AcDbEntity
  8
Defpoints
 62
     0
440
 16777216
100
AcDbPoint
 10
357.9958639850364
 20
683.5939273701983
 30
0.0
  0
POINT
  5
3CA
330
3C1
100
AcDbEntity
  8
Defpoints
 62
     0
440
 16777216
100
AcDbPoint
 10
337.3026794655558
 20
683.5939273701983
 30
0.0
  0
ENDBLK
  5
3CC
330
3C1
100
AcDbEntity
  8
0
100
AcDbBlockEnd
  0
BLOCK
  5
3D7
330
3CD
100
AcDbEntity
  8
0
100
AcDbBlockBegin
  2
*D25
 70
     1
 10
0.0
 20
0.0
 30
0.0
  3
*D25
  1

  0
LINE
  5
3E5
330
3CD
100
AcDbEntity
  8
0
 62
     0
440
 16777216
370
    -2
100
AcDbLine
 10
344.4958639850364
 20
681.2189273701985
 30
0.0
 11
344.4958639850364
 21
716.3961685085249
 31
0.0
  0
LINE
  5
3E6
330
3CD
100
AcDbEntity
  8
0
 62
     0
440
 16777216
370
    -2
100
AcDbLine
 10
359.4958639850363
 20
707.2189273701982
 30
0.0
 11
359.4958639850363
 21
716.3961685085249
 31
0.0
  0
LINE
  5
3E7
330
3CD
100
AcDbEntity
  8
0
 62
     0
440
 16777216
370
    -2
100
AcDbLine
 10
346.9958639850364
 20
715.146168508525
 30
0.0
 11
356.9958639850363
 21
715.146168508525
 31
0.0
  0
SOLID
  5
3E8
330
3CD
100
AcDbEntity
  8
0
 62
     0
440
 16777216
100
AcDbTrace
 10
346.9958639850364
 20
715.5628351751913
 30
0.0
 11
346.9958639850364
 21
714.7295018418581
 31
0.0
 12
344.4958639850364
 22
715.146168508525
 32
0.0
 13
344.4958639850364
 23
715.146168508525
 33
0.0
  0
SOLID
  5
3E9
330
3CD
100
AcDbEntity
  8
0
 62
     0
440
 16777216
100
AcDbTrace
 10
356.9958639850363
 20
715.5628351751913
 30
0.0
 11
356.9958639850363
 21
714.7295018418581
 31
0.0
 12
359.4958639850363
 22
715.146168508525
 32
0.0
 13
359.4958639850363
 23
715.146168508525
 33
0.0
  0
MTEXT
  5
3EA
330
3CD
100
AcDbEntity
  8
0
 62
     0
440
 16777216
100
AcDbMText
 10
351.9958639850364
 20
717.0211685085249
 30
0.0
 40
2.5
 41
0.0
 46
0.0
 71
     5
 72
     1
  1
15
 73
     1
 44
1.0
  0
POINT
  5
3EB
330
3CD
100
AcDbEntity
  8
Defpoints
 62
     0
440
 16777216
100
AcDbPoint
 10
344.4958639850364
 20
680.5939273701985
 30
0.0
  0
POINT
  5
3EC
330
3CD
100
AcDbEntity
  8
Defpoints
 62
     0
440
 16777216
100
AcDbPoint
 10
359.4958639850363
 20
706.5939273701982
 30
0.0
  0
POINT
  5
3ED
330
3CD
100
AcDbEntity
  8
Defpoints
 62
     0
440
 16777216
100
AcDbPoint
 10
359.4958639850363
 20
715.146168508525
 30
0.0
  0
ENDBLK
  5
3D8
330
3CD
100
AcDbEntity
  8
0
100
AcDbBlockEnd
  0
BLOCK
  5
3E3
330
3D9
100
AcDbEntity
  8
0
100
AcDbBlockBegin
  2
*D26
 70
     1
 10
0.0
 20
0.0
 30
0.0
  3
*D26
  1

  0
LINE
  5
3DA
330
3D9
100
AcDbEntity
  8
0
 62
     0
440
 16777216
370
    -2
100
AcDbLine
 10
473.7562765072953
 20
707.2189273701982
 30
0.0
 11
473.7562765072953
 21
717.3004977882905
 31
0.0
  0
LINE
  5
3DB
330
3D9
100
AcDbEntity
  8
0
 62
     0
440
 16777216
370
    -2
100
AcDbLine
 10
443.7562765072954
 20
707.2189273701982
 30
0.0
 11
443.7562765072954
 21
717.3004977882905
 31
0.0
  0
LINE
  5
3DC
330
3D9
100
AcDbEntity
  8
0
 62
     0
440
 16777216
370
    -2
100
AcDbLine
 10
471.2562765072952
 20
716.0504977882906
 30
0.0
 11
446.2562765072956
 21
716.0504977882906
 31
0.0
  0
SOLID
  5
3DD
330
3D9
100
AcDbEntity
  8
0
 62
     0
440
 16777216
100
AcDbTrace
 10
471.2562765072952
 20
716.4671644549572
 30
0.0
 11
471.2562765072952
 21
715.633831121624
 31
0.0
 12
473.7562765072953
 22
716.0504977882906
 32
0.0
 13
473.7562765072953
 23
716.0504977882906
 33
0.0
  0
SOLID
  5
3DE
330
3D9
100
AcDbEntity
  8
0
 62
     0
440
 16777216
100
AcDbTrace
 10
446.2562765072956
 20
716.4671644549572
 30
0.0
 11
446.2562765072956
 21
715.633831121624
 31
0.0
 12
443.7562765072954
 22
716.0504977882906
 32
0.0
 13
443.7562765072954
 23
716.0504977882906
 33
0.0
  0
MTEXT
  5
3DF
330
3D9
100
AcDbEntity
  8
0
 62
     0
440
 16777216
100
AcDbMText
 10
458.7562765072955
 20
717.9254977882906
 30
0.0
 40
2.5
 41
0.0
 46
0.0
 71
     5
 72
     1
  1
30
 73
     1
 44
1.0
  0
POINT
  5
3E0
330
3D9
100
AcDbEntity
  8
Defpoints
 62
     0
440
 16777216
100
AcDbPoint
 10
473.7562765072953
 20
706.5939273701982
 30
0.0
  0
POINT
  5
3E1
330
3D9
100
AcDbEntity
  8
Defpoints
 62
     0
440
 16777216
100
AcDbPoint
 10
443.7562765072954
 20
706.5939273701982
 30
0.0
  0
POINT
  5
3E2
330
3D9
100
AcDbEntity
  8
Defpoints
 62
     0
440
 16777216
100
AcDbPoint
 10
443.7562765072954
 20
716.0504977882906
 30
0.0
  0
ENDBLK
  5
3E4
330
3D9
100
AcDbEntity
  8
0
100
AcDbBlockEnd
  0
ENDSEC
  0
SECTION
  2
ENTITIES
  0
ARC
  5
2D1
330
1F
100
AcDbEntity
  8
0
100
AcDbCircle
 10
431.7562765072954
 20
617.5939273701986
 30
0.0
 40
1.5
100
AcDbArc
 50
180.0
 51
270.0
  0
ARC
  5
2D2
330
1F
100
AcDbEntity
  8
0
100
AcDbCircle
 10
446.7562765072953
 20
706.5939273701982
 30
0.0
 40
1.5
100
AcDbArc
 50
90.0
 51
180.0
  0
LINE
  5
2D3
330
1F
100
AcDbEntity
  8
0
100
AcDbLine
 10
431.7562765072954
 20
614.5939273701984
 30
0.0
 11
445.2562765072955
 21
614.5939273701984
 31
0.0
  0
ARC
  5
2D4
330
1F
100
AcDbEntity
  8
0
100
AcDbCircle
 10
431.7562765072954
 20
617.5939273701983
 30
0.0
 40
3.0
100
AcDbArc
 50
180.0
 51
270.0
  0
ARC
  5
2D5
330
1F
100
AcDbEntity
  8
0
100
AcDbCircle
 10
446.7562765072953
 20
706.5939273701982
 30
0.0
 40
3.0
100
AcDbArc
 50
90.0
 51
180.0
  0
ARC
  5
2D6
330
1F
100
AcDbEntity
  8
0
100
AcDbCircle
 10
470.7562765072952
 20
706.5939273701982
 30
0.0
 40
3.0
100
AcDbArc
 50
0.0
 51
90.0
  0
ARC
  5
2D7
330
1F
100
AcDbEntity
  8
0
100
AcDbCircle
 10
470.7562765072952
 20
706.5939273701982
 30
0.0
 40
1.5
100
AcDbArc
 50
0.0
 51
90.0
  0
LINE
  5
2D8
330
1F
100
AcDbEntity
  8
0
100
AcDbLine
 10
431.7562765072954
 20
616.0939273701985
 30
0.0
 11
445.2562765072955
 21
616.0939273701985
 31
0.0
  0
LINE
  5
2D9
330
1F
100
AcDbEntity
  8
0
100
AcDbLine
 10
445.2562765072951
 20
706.5939273701982
 30
0.0
 11
445.2562765072955
 21
671.9821609066996
 31
0.0
  0
LINE
  5
2DA
330
1F
100
AcDbEntity
  8
0
100
AcDbLine
 10
470.7562765072952
 20
708.0939273701988
 30
0.0
 11
446.7562765072953
 21
708.0939273701988
 31
0.0
  0
LINE
  5
2DB
330
1F
100
AcDbEntity
  8
0
100
AcDbLine
 10
472.2562765072953
 20
699.5939273701985
 30
0.0
 11
472.2562765072953
 21
706.5939273701982
 31
0.0
  0
LINE
  5
2DC
330
1F
100
AcDbEntity
  8
0
100
AcDbLine
 10
473.7562765072953
 20
699.5939273701985
 30
0.0
 11
472.2562765072953
 21
699.5939273701985
 31
0.0
  0
LINE
  5
2DD
102
{ACAD_REACTORS
330
2F0
330
2F4
102
}
330
1F
100
AcDbEntity
  8
0
100
AcDbLine
 10
470.7562765072952
 20
709.5939273701985
 30
0.0
 11
446.7562765072953
 21
709.5939273701985
 31
0.0
  0
LINE
  5
2DE
102
{ACAD_REACTORS
330
2ED
330
2F0
102
}
330
1F
100
AcDbEntity
  8
0
100
AcDbLine
 10
473.7562765072953
 20
699.5939273701985
 30
0.0
 11
473.7562765072953
 21
706.5939273701982
 31
0.0
  0
DIMENSION
  5
2EB
102
{ACAD_XDICTIONARY
360
2EC
102
}
102
{ACAD_REACTORS
330
2ED
102
}
330
1F
100
AcDbEntity
  8
0
100
AcDbDimension
280
     0
  2
*D26
 10
443.7562765072954
 20
716.0504977882906
 30
0.0
 11
458.7562765072955
 21
717.9254977882906
 31
0.0
 70
    32
 71
     5
 42
29.99999999999977
 73
     0
 74
     0
 75
     0
  3
ISO-25
100
AcDbAlignedDimension
 13
473.7562765072953
 23
706.5939273701982
 33
0.0
 14
443.7562765072954
 24
706.5939273701982
 34
0.0
100
AcDbRotatedDimension
  0
DIMENSION
  5
2EE
102
{ACAD_XDICTIONARY
360
2EF
102
}
102
{ACAD_REACTORS
330
2F0
102
}
330
1F
100
AcDbEntity
  8
0
100
AcDbDimension
280
     0
  2
*D20
 10
480.5504925215823
 20
709.5939273701987
 30
0.0
 11
478.6754925215824
 21
704.5939273701986
 31
0.0
 70
    32
 71
     5
 42
10.0
 73
     0
 74
     0
 75
     0
  3
ISO-25
100
AcDbAlignedDimension
 13
473.7562765072953
 23
699.5939273701985
 33
0.0
 14
470.7562765072952
 24
709.5939273701985
 34
0.0
 50
90.0
100
AcDbRotatedDimension
  0
DIMENSION
  5
2F1
330
1F
100
AcDbEntity
  8
0
100
AcDbDimension
280
     0
  2
*D17
 10
443.7562765072954
 20
716.0504977882907
 30
0.0
 11
436.2562765072955
 21
717.9254977882907
 31
0.0
 70
    32
 71
     5
 42
15.00000000000006
 73
     0
 74
     0
 75
     0
  3
ISO-25
100
AcDbAlignedDimension
 13
428.7562765072955
 23
683.8111929328935
 33
0.0
 14
443.7562765072954
 24
707.2189273701988
 34
0.0
100
AcDbRotatedDimension
  0
DIMENSION
  5
2F2
102
{ACAD_XDICTIONARY
360
2F3
102
}
102
{ACAD_REACTORS
330
2F4
102
}
330
1F
100
AcDbEntity
  8
0
100
AcDbDimension
280
     0
  2
*D21
 10
422.1717302576045
 20
684.6683612249591
 30
0.0
 11
420.2967302576044
 21
697.131144297579
 31
0.0
 70
    32
  1
26
 71
     5
 42
24.92556614523937
 73
     0
 74
     0
 75
     0
  3
ISO-25
100
AcDbAlignedDimension
 13
446.7562765072953
 23
709.5939273701985
 33
0.0
 14
431.0527016727843
 24
684.6683612249591
 34
0.0
 50
90.0
100
AcDbRotatedDimension
  0
LINE
  5
316
330
1F
100
AcDbEntity
  8
0
100
AcDbLine
 10
428.7513642855583
 20
680.3467570258875
 30
0.0
 11
428.7562765072952
 21
617.5939273701983
 31
0.0
  0
LINE
  5
317
330
1F
100
AcDbEntity
  8
0
100
AcDbLine
 10
430.2513642855578
 20
680.343527593267
 30
0.0
 11
430.2562765072953
 21
617.5939273701986
 31
0.0
  0
LINE
  5
318
330
1F
100
AcDbEntity
  8
0
100
AcDbLine
 10
433.9562765072956
 20
668.4467570258875
 30
0.0
 11
442.2562765072952
 21
668.4467570258872
 31
0.0
  0
LINE
  5
319
330
1F
100
AcDbEntity
  8
0
100
AcDbLine
 10
445.2562765072955
 20
671.4467570258872
 30
0.0
 11
445.2562765072955
 21
682.8439273701985
 31
0.0
  0
LINE
  5
31A
330
1F
100
AcDbEntity
  8
0
100
AcDbLine
 10
443.7562765072954
 20
706.5939273701982
 30
0.0
 11
443.7562765072955
 21
671.4467570258872
 31
0.0
  0
ARC
  5
31B
330
1F
100
AcDbEntity
  8
0
100
AcDbCircle
 10
442.2562765072952
 20
671.4467570258872
 30
0.0
 40
3.0
100
AcDbArc
 50
270.0
 51
0.0
  0
ARC
  5
31C
330
1F
100
AcDbEntity
  8
0
100
AcDbCircle
 10
442.2562765072952
 20
671.4467570258872
 30
0.0
 40
1.5
100
AcDbArc
 50
270.0
 51
0.0
  0
ARC
  5
31D
330
1F
100
AcDbEntity
  8
0
100
AcDbCircle
 10
433.9562765072956
 20
671.4467570258872
 30
0.0
 40
3.0
100
AcDbArc
 50
180.0
 51
270.0
  0
ARC
  5
31E
330
1F
100
AcDbEntity
  8
0
100
AcDbCircle
 10
433.9562765072956
 20
671.4467570258872
 30
0.0
 40
1.5
100
AcDbArc
 50
180.0
 51
270.0
  0
ARC
  5
31F
330
1F
100
AcDbEntity
  8
0
100
AcDbCircle
 10
431.2513642855583
 20
680.3467570258875
 30
0.0
 40
2.500000000000028
100
AcDbArc
 50
354.5473780121888
 51
180.0
  0
ARC
  5
320
330
1F
100
AcDbEntity
  8
0
100
AcDbCircle
 10
431.2513642855583
 20
680.3467570258875
 30
0.0
 40
1.000005214603969
100
AcDbArc
 50
354.5411109718323
 51
180.1850322161394
  0
LINE
  5
321
330
1F
100
AcDbEntity
  8
0
100
AcDbLine
 10
432.2468341900586
 20
680.2516250203942
 30
0.0
 11
430.9562765072953
 21
671.4467570258872
 31
0.0
  0
LINE
  5
322
330
1F
100
AcDbEntity
  8
0
100
AcDbLine
 10
432.4562765072951
 20
671.4467570258872
 30
0.0
 11
433.7400520683636
 21
680.1092004648016
 31
0.0
  0
LINE
  5
323
330
1F
100
AcDbEntity
  8
0
100
AcDbLine
 10
442.2562765072952
 20
669.9467570258872
 30
0.0
 11
433.9562765072956
 21
669.9467570258875
 31
0.0
  0
LINE
  5
324
330
1F
100
AcDbEntity
  8
0
100
AcDbLine
 10
443.7562765072954
 20
705.1151569062929
 30
0.0
 11
445.256428910818
 21
706.6153093098152
 31
0.0
  0
LINE
  5
325
330
1F
100
AcDbEntity
  8
0
100
AcDbLine
 10
446.7348945676782
 20
708.0937749666754
 30
0.0
 11
448.235046971201
 21
709.5939273701985
 31
0.0
  0
LINE
  5
326
330
1F
100
AcDbEntity
  8
0
100
AcDbLine
 10
443.7562765072954
 20
700.6250288457582
 30
0.0
 11
445.2562765072951
 21
702.125028845758
 31
0.0
  0
LINE
  5
327
330
1F
100
AcDbEntity
  8
0
100
AcDbLine
 10
451.2251750317355
 20
708.0939273701988
 30
0.0
 11
452.7251750317356
 21
709.5939273701985
 31
0.0
  0
LINE
  5
328
330
1F
100
AcDbEntity
  8
0
100
AcDbLine
 10
428.9539301976879
 20
681.332554475616
 30
0.0
 11
430.2655668358294
 21
682.6441911137576
 31
0.0
  0
LINE
  5
329
330
1F
100
AcDbEntity
  8
0
100
AcDbLine
 10
455.7153030922703
 20
708.0939273701988
 30
0.0
 11
457.2153030922701
 21
709.5939273701985
 31
0.0
  0
LINE
  5
32A
330
1F
100
AcDbEntity
  8
0
100
AcDbLine
 10
443.7562765072954
 20
696.1349007852237
 30
0.0
 11
445.2562765072955
 21
697.6349007852237
 31
0.0
  0
LINE
  5
32B
330
1F
100
AcDbEntity
  8
0
100
AcDbLine
 10
428.7516544345841
 20
676.6401506519778
 30
0.0
 11
430.2515367815423
 21
678.1400329989359
 31
0.0
  0
LINE
  5
32C
330
1F
100
AcDbEntity
  8
0
100
AcDbLine
 10
460.2054311528048
 20
708.0939273701988
 30
0.0
 11
461.7054311528046
 21
709.5939273701985
 31
0.0
  0
LINE
  5
32D
330
1F
100
AcDbEntity
  8
0
100
AcDbLine
 10
432.2303672385216
 20
680.1188634559154
 30
0.0
 11
433.5163931787533
 21
681.4048893961468
 31
0.0
  0
LINE
  5
32E
330
1F
100
AcDbEntity
  8
0
100
AcDbLine
 10
443.7562765072954
 20
691.6447727246892
 30
0.0
 11
445.2562765072955
 21
693.1447727246887
 31
0.0
  0
LINE
  5
32F
330
1F
100
AcDbEntity
  8
0
100
AcDbLine
 10
428.7520058893051
 20
672.1503740461643
 30
0.0
 11
430.2518882543496
 21
673.6502564112087
 31
0.0
  0
LINE
  5
330
330
1F
100
AcDbEntity
  8
0
100
AcDbLine
 10
464.6955592133394
 20
708.0939273701982
 30
0.0
 11
466.1955592133393
 21
709.5939273701985
 31
0.0
  0
LINE
  5
331
330
1F
100
AcDbEntity
  8
0
100
AcDbLine
 10
431.478545804916
 20
675.0099547694292
 30
0.0
 11
433.238517966686
 21
676.7250335432452
 31
0.0
  0
LINE
  5
332
330
1F
100
AcDbEntity
  8
0
100
AcDbLine
 10
443.7562765072954
 20
687.1546446641547
 30
0.0
 11
445.2562765072955
 21
688.6546446641546
 31
0.0
  0
LINE
  5
333
330
1F
100
AcDbEntity
  8
0
100
AcDbLine
 10
428.752357344026
 20
667.6605974403506
 30
0.0
 11
430.252239727157
 21
669.1604798234816
 31
0.0
  0
LINE
  5
334
330
1F
100
AcDbEntity
  8
0
100
AcDbLine
 10
469.1856872738741
 20
708.0939273701982
 30
0.0
 11
470.6856872738739
 21
709.5939273701985
 31
0.0
  0
LINE
  5
335
330
1F
100
AcDbEntity
  8
0
100
AcDbLine
 10
431.2480244557083
 20
670.156264552033
 30
0.0
 11
432.4584167155541
 21
671.3666568118783
 31
0.0
  0
LINE
  5
336
330
1F
100
AcDbEntity
  8
0
100
AcDbLine
 10
443.7562765072955
 20
682.6645166036201
 30
0.0
 11
445.2562765072955
 21
684.1645166036197
 31
0.0
  0
LINE
  5
337
330
1F
100
AcDbEntity
  8
0
100
AcDbLine
 10
428.7527087987473
 20
663.1708208345371
 30
0.0
 11
430.2525911999643
 21
664.6707032357542
 31
0.0
  0
LINE
  5
338
330
1F
100
AcDbEntity
  8
0
100
AcDbLine
 10
472.2542257097197
 20
706.6723377455096
 30
0.0
 11
473.4651025432567
 21
707.8832145790466
 31
0.0
  0
LINE
  5
339
330
1F
100
AcDbEntity
  8
0
100
AcDbLine
 10
432.7029802228524
 20
668.7210922586425
 30
0.0
 11
433.9288949278842
 21
669.9470069636742
 31
0.0
  0
LINE
  5
33A
330
1F
100
AcDbEntity
  8
0
100
AcDbLine
 10
428.7530602534681
 20
658.6810442287235
 30
0.0
 11
430.2529426727716
 21
660.1809266480269
 31
0.0
  0
LINE
  5
33B
330
1F
100
AcDbEntity
  8
0
100
AcDbLine
 10
472.2562765072953
 20
702.1842604825508
 30
0.0
 11
473.7562765072953
 21
703.6842604825508
 31
0.0
  0
LINE
  5
33C
330
1F
100
AcDbEntity
  8
0
100
AcDbLine
 10
436.918773050632
 20
668.4467570258875
 30
0.0
 11
438.4187730506321
 21
669.9467570258872
 31
0.0
  0
LINE
  5
33D
330
1F
100
AcDbEntity
  8
0
100
AcDbLine
 10
428.753411708189
 20
654.1912676229099
 30
0.0
 11
430.253294145579
 21
655.6911500602997
 31
0.0
  0
LINE
  5
33E
330
1F
100
AcDbEntity
  8
0
100
AcDbLine
 10
441.4089011111665
 20
668.4467570258872
 30
0.0
 11
445.2562765072955
 21
672.2941324220162
 31
0.0
  0
LINE
  5
33F
330
1F
100
AcDbEntity
  8
0
100
AcDbLine
 10
428.7537631629097
 20
649.7014910170962
 30
0.0
 11
430.2536456183863
 21
651.2013734725726
 31
0.0
  0
LINE
  5
340
330
1F
100
AcDbEntity
  8
0
100
AcDbLine
 10
428.754114617631
 20
645.2117144112825
 30
0.0
 11
430.2539970911936
 21
646.7115968848452
 31
0.0
  0
LINE
  5
341
330
1F
100
AcDbEntity
  8
0
100
AcDbLine
 10
428.7544660723522
 20
640.7219378054691
 30
0.0
 11
430.2543485640008
 21
642.2218202971182
 31
0.0
  0
LINE
  5
342
330
1F
100
AcDbEntity
  8
0
100
AcDbLine
 10
428.7548175270731
 20
636.2321611996556
 30
0.0
 11
430.2547000368083
 21
637.7320437093906
 31
0.0
  0
LINE
  5
343
330
1F
100
AcDbEntity
  8
0
100
AcDbLine
 10
428.7551689817941
 20
631.7423845938417
 30
0.0
 11
430.2550515096156
 21
633.2422671216636
 31
0.0
  0
LINE
  5
344
330
1F
100
AcDbEntity
  8
0
100
AcDbLine
 10
428.7555204365149
 20
627.2526079880281
 30
0.0
 11
430.2554029824229
 21
628.7524905339362
 31
0.0
  0
LINE
  5
345
330
1F
100
AcDbEntity
  8
0
100
AcDbLine
 10
428.7558718912357
 20
622.7628313822147
 30
0.0
 11
430.2557544552302
 21
624.2627139462086
 31
0.0
  0
LINE
  5
346
330
1F
100
AcDbEntity
  8
0
100
AcDbLine
 10
428.7562233459571
 20
618.2730547764012
 30
0.0
 11
430.2561059280376
 21
619.7729373584817
 31
0.0
  0
LINE
  5
347
330
1F
100
AcDbEntity
  8
0
100
AcDbLine
 10
430.079542041124
 20
615.1062454110338
 30
0.0
 11
431.1816527887906
 21
616.2083561587004
 31
0.0
  0
LINE
  5
348
330
1F
100
AcDbEntity
  8
0
100
AcDbLine
 10
434.0573520608232
 20
614.5939273701984
 30
0.0
 11
435.5573520608232
 21
616.0939273701988
 31
0.0
  0
LINE
  5
349
330
1F
100
AcDbEntity
  8
0
100
AcDbLine
 10
438.5474801213581
 20
614.5939273701984
 30
0.0
 11
440.047480121358
 21
616.0939273701985
 31
0.0
  0
LINE
  5
34A
330
1F
100
AcDbEntity
  8
0
100
AcDbLine
 10
443.0376081818926
 20
614.5939273701984
 30
0.0
 11
444.5376081818928
 21
616.0939273701985
 31
0.0
  0
LINE
  5
34B
330
1F
100
AcDbEntity
  8
0
100
AcDbLine
 10
443.7562765072955
 20
674.9722889672342
 30
0.0
 11
445.2562765072955
 21
676.4722889672341
 31
0.0
  0
LINE
  5
34C
330
1F
100
AcDbEntity
  8
0
100
AcDbLine
 10
443.7562765072955
 20
679.4624170277686
 30
0.0
 11
445.2562765072955
 21
680.9624170277686
 31
0.0
  0
INSERT
  5
34D
330
1F
100
AcDbEntity
  8
0
100
AcDbBlockReference
  2
2
 10
1020.112951148645
 20
181.9359071230923
 30
0.0
 41
-1.0
  0
LINE
  5
34F
330
1F
100
AcDbEntity
  8
0
100
AcDbLine
 10
445.2562765072955
 20
616.0939273701985
 30
0.0
 11
445.2562765072955
 21
614.5939273701984
 31
0.0
  0
DIMENSION
  5
351
330
1F
100
AcDbEntity
  8
0
100
AcDbDimension
280
     0
  2
*D19
 10
422.1717302576045
 20
614.5939273701984
 30
0.0
 11
420.2967302576044
 21
649.6311442975787
 31
0.0
 70
    32
  1
40
 71
     5
 42
70.07443385476074
 73
     0
 74
     0
 75
     0
  3
ISO-25
100
AcDbAlignedDimension
 13
431.0527016727836
 23
684.6683612249591
 33
0.0
 14
441.27463828397
 24
614.5939273701984
 34
0.0
 50
90.0
100
AcDbRotatedDimension
  0
HATCH
  5
45E
330
1F
100
AcDbEntity
  8
0
100
AcDbHatch
 10
0.0
 20
0.0
 30
0.0
210
0.0
220
0.0
230
1.0
  2
ANSI38
 70
     0
 71
     1
 91
        1
 92
        1
 93
        8
 72
     1
 10
461.1207035354054
 20
641.7039644803727
 11
461.7798572715546
 21
642.1999971212137
 72
     1
 10
461.7798572715546
 20
642.1999971212137
 11
446.7739952777043
 21
668.1909125059279
 72
     2
 10
449.3720714890574
 20
669.6909125059281
 40
3.0
 50
149.9999999999984
 51
180.0
 73
     0
 72
     1
 10
446.3720714890576
 20
669.6909125059281
 11
446.3720714890576
 21
680.0182974069207
 72
     1
 10
446.3720714890576
 20
680.0182974069207
 11
445.6138632962908
 21
680.0182974069207
 72
     1
 10
445.6138632962908
 20
680.0182974069207
 11
445.6138632962908
 21
669.3664472166657
 72
     2
 10
448.6138632962908
 20
669.3664472166657
 40
3.0
 50
180.0
 51
210.0000000000001
 73
     1
 72
     1
 10
446.0157870849375
 20
667.8664472166659
 11
461.1207035354052
 21
641.7039644803727
 97
        8
330
465
330
463
330
464
330
462
330
466
330
45F
330
461
330
460
 75
     0
 76
     1
 52
0.0
 41
0.5
 77
     0
 78
     2
 53
45.0
 43
84.26041252225894
 44
-13.64717034431112
 45
-1.122532015133643
 46
1.122532015133643
 79
     0
 53
135.0
 43
84.26041252225894
 44
-13.64717034431112
 45
-3.367596045400931
 46
1.122532015133643
 79
     2
 49
3.96875
 49
-2.38125
 98
        1
 10
84.26041252225894
 20
-13.64717034431112
1001
ACAD
1010
0.0
1020
0.0
1030
0.0
  0
LINE
  5
45F
102
{ACAD_REACTORS
330
45E
102
}
330
1F
100
AcDbEntity
  8
0
100
AcDbLine
 10
445.6138632962908
 20
680.0182974069207
 30
0.0
 11
445.6138632962908
 21
669.3664472166657
 31
0.0
  0
LINE
  5
460
102
{ACAD_REACTORS
330
45E
102
}
330
1F
100
AcDbEntity
  8
0
100
AcDbLine
 10
446.0157870849375
 20
667.8664472166659
 30
0.0
 11
461.1207035354052
 21
641.7039644803727
 31
0.0
  0
ARC
  5
461
102
{ACAD_REACTORS
330
45E
102
}
330
1F
100
AcDbEntity
  8
0
100
AcDbCircle
 10
448.6138632962908
 20
669.3664472166657
 30
0.0
 40
3.0
100
AcDbArc
 50
180.0
 51
210.0000000000001
  0
LINE
  5
462
102
{ACAD_REACTORS
330
45E
102
}
330
1F
100
AcDbEntity
  8
0
100
AcDbLine
 10
446.3720714890576
 20
680.0182974069207
 30
0.0
 11
446.3720714890576
 21
669.6909125059281
 31
0.0
  0
LINE
  5
463
102
{ACAD_REACTORS
330
45E
102
}
330
1F
100
AcDbEntity
  8
0
100
AcDbLine
 10
446.7739952777043
 20
668.1909125059279
 30
0.0
 11
461.7798572715546
 21
642.1999971212137
 31
0.0
  0
ARC
  5
464
102
{ACAD_REACTORS
330
45E
102
}
330
1F
100
AcDbEntity
  8
0
100
AcDbCircle
 10
449.3720714890574
 20
669.6909125059281
 30
0.0
 40
3.0
100
AcDbArc
 50
180.0
 51
210.0000000000016
  0
LINE
  5
465
102
{ACAD_REACTORS
330
45E
102
}
330
1F
100
AcDbEntity
  8
0
100
AcDbLine
 10
461.1207035354054
 20
641.7039644803727
 30
0.0
 11
461.7798572715546
 21
642.1999971212137
 31
0.0
  0
LINE
  5
466
102
{ACAD_REACTORS
330
45E
102
}
330
1F
100
AcDbEntity
  8
0
100
AcDbLine
 10
446.3720714890576
 20
680.0182974069207
 30
0.0
 11
445.6138632962908
 21
680.0182974069207
 31
0.0
  0
ENDSEC
  0
SECTION
  2
OBJECTS
  0
DICTIONARY
  5
C
330
0
100
AcDbDictionary
281
     1
  3
ACAD_CIP_PREVIOUS_PRODUCT_INFO
350
4C3
  3
ACAD_COLOR
350
6B
  3
ACAD_DETAILVIEWSTYLE
350
4BE
  3
ACAD_GROUP
350
D
  3
ACAD_LAYOUT
350
1A
  3
ACAD_MATERIAL
350
6A
  3
ACAD_MLEADERSTYLE
350
4BA
  3
ACAD_MLINESTYLE
350
17
  3
ACAD_PLOTSETTINGS
350
19
  3
ACAD_PLOTSTYLENAME
350
E
  3
ACAD_SCALELIST
350
4A8
  3
ACAD_SECTIONVIEWSTYLE
350
4BC
  3
ACAD_TABLESTYLE
350
166
  3
ACAD_VISUALSTYLE
350
48F
  3
AcadDim
350
14B
  3
ACDB_RECOMPOSE_DATA
350
4EA
  3
AcDbVariableDictionary
350
5E
  0
DICTIONARY
  5
4DC
330
10
100
AcDbDictionary
280
     1
281
     1
  3
ADSK_XREC_LAYER_RECONCILED
360
4DD
  0
DICTIONARY
  5
4DE
330
21B
100
AcDbDictionary
280
     1
281
     1
  3
ADSK_XREC_LAYER_RECONCILED
360
4DF
  0
DICTIONARY
  5
459
330
1F
100
AcDbDictionary
280
     1
281
     1
  3
ACAD_SORTENTS
360
45A
  0
DICTIONARY
  5
2EC
330
2EB
100
AcDbDictionary
280
     1
281
     1
  3
ACAD_DIMASSOC
360
2ED
  0
DICTIONARY
  5
2EF
330
2EE
100
AcDbDictionary
280
     1
281
     1
  3
ACAD_DIMASSOC
360
2F0
  0
DICTIONARY
  5
2F3
330
2F2
100
AcDbDictionary
280
     1
281
     1
  3
ACAD_DIMASSOC
360
2F4
  0
XRECORD
  5
4C3
102
{ACAD_REACTORS
330
C
102
}
330
C
100
AcDbXrecord
280
     1
300
ACDLT
300
2020
300
ACDLT_F_S
  0
DICTIONARY
  5
6B
102
{ACAD_REACTORS
330
C
102
}
330
C
100
AcDbDictionary
281
     1
  0
DICTIONARY
  5
4BE
102
{ACAD_REACTORS
330
C
102
}
330
C
100
AcDbDictionary
281
     1
  3
Metric50
350
4BF
  0
DICTIONARY
  5
D
102
{ACAD_REACTORS
330
C
102
}
330
C
100
AcDbDictionary
281
     1
  0
DICTIONARY
  5
1A
102
{ACAD_REACTORS
330
C
102
}
330
C
100
AcDbDictionary
281
     1
  3
Model
350
22
  3
Rozvržení1
350
51
  3
Rozvržení2
350
56
  0
DICTIONARY
  5
6A
102
{ACAD_REACTORS
330
C
102
}
330
C
100
AcDbDictionary
281
     1
  3
ByBlock
350
47F
  3
ByLayer
350
477
  3
Global
350
487
  0
DICTIONARY
  5
4BA
102
{ACAD_REACTORS
330
C
102
}
330
C
100
AcDbDictionary
281
     1
  3
Standard
350
4BB
  0
DICTIONARY
  5
17
102
{ACAD_REACTORS
330
C
102
}
330
C
100
AcDbDictionary
281
     1
  3
Standard
350
18
  0
DICTIONARY
  5
19
102
{ACAD_REACTORS
330
C
102
}
330
C
100
AcDbDictionary
281
     1
  0
ACDBDICTIONARYWDFLT
  5
E
102
{ACAD_REACTORS
330
C
102
}
330
C
100
AcDbDictionary
281
     1
  3
Normal
350
F
100
AcDbDictionaryWithDefault
340
F
  0
DICTIONARY
  5
4A8
102
{ACAD_REACTORS
330
C
102
}
330
C
100
AcDbDictionary
281
     1
  3
A0
350
4A9
  3
A1
350
4AA
  3
A2
350
4AB
  3
A3
350
4AC
  3
A4
350
4AD
  3
A5
350
4AE
  3
A6
350
4AF
  3
A7
350
4B0
  3
A8
350
4B1
  3
A9
350
4B2
  3
B0
350
4B3
  3
B1
350
4B4
  3
B2
350
4B5
  3
B3
350
4B6
  3
B4
350
4B7
  3
B5
350
4B8
  3
B6
350
4B9
  0
DICTIONARY
  5
4BC
102
{ACAD_REACTORS
330
C
102
}
330
C
100
AcDbDictionary
281
     1
  3
Metric50
350
4BD
  0
DICTIONARY
  5
166
102
{ACAD_REACTORS
330
C
102
}
330
C
100
AcDbDictionary
281
     1
  3
Standard
350
167
  0
DICTIONARY
  5
48F
102
{ACAD_REACTORS
330
C
102
}
330
C
100
AcDbDictionary
281
     1
  3
2dWireframe
350
495
  3
Basic
350
494
  3
Brighten
350
49B
  3
ColorChange
350
49F
  3
Conceptual
350
498
  3
Dim
350
49A
  3
EdgeColorOff
350
4A7
  3
Facepattern
350
49E
  3
Flat
350
490
  3
FlatWithEdges
350
491
  3
Gouraud
350
492
  3
GouraudWithEdges
350
493
  3
Hidden
350
497
  3
JitterOff
350
4A5
  3
Linepattern
350
49D
  3
OverhangOff
350
4A6
  3
Realistic
350
499
  3
Shaded
350
4A4
  3
Shaded with edges
350
4A3
  3
Shades of Gray
350
4A0
  3
Sketchy
350
4A1
  3
Thicken
350
49C
  3
Wireframe
350
496
  3
X-Ray
350
4A2
  0
XRECORD
  5
14B
102
{ACAD_REACTORS
330
C
102
}
330
C
100
AcDbXrecord
280
     1
 90
   990106
  3

 60
     0
 61
     0
 62
     1
 63
     3
 64
     0
 65
     0
 66
     0
 67
     3
 68
     1
 69
     0
 70
     0
 71
     0
 72
     0
 40
0.0
170
     0
340
156
  0
XRECORD
  5
4EA
102
{ACAD_REACTORS
330
C
102
}
330
C
100
AcDbXrecord
280
     1
 90
        1
330
167
  0
DICTIONARY
  5
5E
102
{ACAD_REACTORS
330
C
102
}
330
C
100
AcDbDictionary
281
     1
  3
CANNOSCALE
350
4E4
  3
CMLEADERSTYLE
350
4E0
  3
CTABLESTYLE
350
16E
  3
CVIEWDETAILSTYLE
350
4E1
  3
CVIEWSECTIONSTYLE
350
4E2
  3
DIMASSOC
350
5F
  3
HIDETEXT
350
63
  3
LAYEREVAL
350
4E6
  3
LAYERNOTIFY
350
4E7
  3
LIGHTINGUNITS
350
4E5
  3
MSLTSCALE
350
4E3
  0
XRECORD
  5
4DD
102
{ACAD_REACTORS
330
4DC
102
}
330
4DC
100
AcDbXrecord
280
     1
290
     1
  0
XRECORD
  5
4DF
102
{ACAD_REACTORS
330
4DE
102
}
330
4DE
100
AcDbXrecord
280
     1
290
     1
  0
SORTENTSTABLE
  5
45A
102
{ACAD_REACTORS
330
459
102
}
330
459
100
AcDbSortentsTable
330
1F
  0
DIMASSOC
  5
2ED
102
{ACAD_REACTORS
330
2EC
102
}
330
2EC
100
AcDbDimAssoc
330
2EB
 90
        1
 70
     0
 71
     0
  1
AcDbOsnapPointRef
 72
     1
331
2DE
 73
     2
 91
        0
 40
1.0
 10
0.0
 20
0.0
 30
2.000000000000000E+50
 75
     0
  0
DIMASSOC
  5
2F0
102
{ACAD_REACTORS
330
2EF
102
}
330
2EF
100
AcDbDimAssoc
330
2EE
 90
        3
 70
     0
 71
     0
  1
AcDbOsnapPointRef
 72
    13
331
2DE
 73
     2
 91
        0
 40
0.0
 10
0.0
 20
0.0
 30
2.000000000000000E+50
 75
     0
  1
AcDbOsnapPointRef
 72
    13
331
2DD
 73
     2
 91
        0
 40
0.0
 10
0.0
 20
0.0
 30
2.000000000000000E+50
 75
     0
  0
DIMASSOC
  5
2F4
102
{ACAD_REACTORS
330
2F3
102
}
330
2F3
100
AcDbDimAssoc
330
2F2
 90
        1
 70
     0
 71
     0
  1
AcDbOsnapPointRef
 72
     1
331
2DD
 73
     2
 91
        0
 40
1.0
 10
0.0
 20
0.0
 30
2.000000000000000E+50
 75
     0
  0
ACDBDETAILVIEWSTYLE
  5
4BF
102
{ACAD_REACTORS
330
4BE
102
}
330
4BE
100
AcDbModelDocViewStyle
 70
     0
  3
Metric50
290
     0
300
Metric50
 90
        0
100
AcDbDetailViewStyle
 70
     0
 71
     0
 90
        3
 71
     1
340
11
 62
   256
 40
5.0
340
0
 62
   256
 40
5.0
300

 40
0.0
280
     1
 71
     2
340
16
 90
       25
 62
   256
 71
     3
340
11
 62
   256
 40
5.0
 90
        0
 40
15.0
 90
        1
300
%<\AcVar ViewDetailId>% (%<\AcVar ViewScale \f "%sn">%)
 71
     4
340
16
 90
       25
 62
   256
340
16
 90
       25
 62
   256
280
     0
  0
LAYOUT
  5
22
102
{ACAD_REACTORS
330
1A
102
}
330
1A
100
AcDbPlotSettings
  1

  2
HP LaserJet 2000
  4
A4
  6

 40
5.873749732971191
 41
6.297076702117919
 42
8.41375732421875
 43
7.14373779296875
 44
210.0579986572266
 45
296.9259948730469
 46
0.0
 47
16.48
 48
345.6618479924638
 49
565.7349051916201
140
521.4786944881452
141
703.1303565461278
142
1.0
143
0.7018190036280326
 70
 11956
 72
     1
 73
     1
 74
     4
  7

 75
     0
147
1.42486879783894
 76
     0
 77
     2
 78
   150
148
-345.6618479924638
149
-565.7349051916201
100
AcDbLayout
  1
Model
 70
     1
 71
     0
 10
0.0
 20
0.0
 11
12.0
 21
9.0
 12
0.0
 22
0.0
 32
0.0
 14
0.0
 24
0.0
 34
0.0
 15
0.0
 25
0.0
 35
0.0
146
0.0
 13
0.0
 23
0.0
 33
0.0
 16
1.0
 26
0.0
 36
0.0
 17
0.0
 27
1.0
 37
0.0
 76
     0
330
1F
331
474
  0
LAYOUT
  5
51
102
{ACAD_REACTORS
330
1A
102
}
330
1A
100
AcDbPlotSettings
  1

  2
None
  4

  6

 40
0.0
 41
0.0
 42
0.0
 43
0.0
 44
0.0
 45
0.0
 46
0.0
 47
0.0
 48
0.0
 49
0.0
140
0.0
141
0.0
142
1.0
143
1.0
 70
   688
 72
     0
 73
     0
 74
     5
  7

 75
    16
147
1.0
 76
     0
 77
     2
 78
   300
148
0.0
149
0.0
100
AcDbLayout
  1
Rozvržení1
 70
     1
 71
     1
 10
0.0
 20
0.0
 11
12.0
 21
9.0
 12
0.0
 22
0.0
 32
0.0
 14
0.0
 24
0.0
 34
0.0
 15
0.0
 25
0.0
 35
0.0
146
0.0
 13
0.0
 23
0.0
 33
0.0
 16
1.0
 26
0.0
 36
0.0
 17
0.0
 27
1.0
 37
0.0
 76
     0
330
50
  0
LAYOUT
  5
56
102
{ACAD_REACTORS
330
1A
102
}
330
1A
100
AcDbPlotSettings
  1

  2
None
  4

  6

 40
0.0
 41
0.0
 42
0.0
 43
0.0
 44
0.0
 45
0.0
 46
0.0
 47
0.0
 48
0.0
 49
0.0
140
0.0
141
0.0
142
1.0
143
1.0
 70
   688
 72
     0
 73
     0
 74
     5
  7

 75
    16
147
1.0
 76
     0
 77
     2
 78
   300
148
0.0
149
0.0
100
AcDbLayout
  1
Rozvržení2
 70
     1
 71
     2
 10
0.0
 20
0.0
 11
12.0
 21
9.0
 12
0.0
 22
0.0
 32
0.0
 14
0.0
 24
0.0
 34
0.0
 15
0.0
 25
0.0
 35
0.0
146
0.0
 13
0.0
 23
0.0
 33
0.0
 16
1.0
 26
0.0
 36
0.0
 17
0.0
 27
1.0
 37
0.0
 76
     0
330
55
  0
MATERIAL
  5
47F
102
{ACAD_XDICTIONARY
360
480
102
}
102
{ACAD_REACTORS
330
6A
102
}
330
6A
100
AcDbMaterial
  1
ByBlock
 72
     0
 43
0.0008202099737533
 43
0.0
 43
0.0
 43
0.0
 43
0.0
 43
0.0008202099737533
 43
0.0
 43
0.0
 43
0.0
 43
0.0
 43
1.0
 43
0.0
 43
0.0
 43
0.0
 43
0.0
 43
1.0
 77
     0
 47
0.0008202099737533
 47
0.0
 47
0.0
 47
0.0
 47
0.0
 47
0.0008202099737533
 47
0.0
 47
0.0
 47
0.0
 47
0.0
 47
1.0
 47
0.0
 47
0.0
 47
0.0
 47
0.0
 47
1.0
171
     0
 49
0.0008202099737533
 49
0.0
 49
0.0
 49
0.0
 49
0.0
 49
0.0008202099737533
 49
0.0
 49
0.0
 49
0.0
 49
0.0
 49
1.0
 49
0.0
 49
0.0
 49
0.0
 49
0.0
 49
1.0
175
     0
142
0.0008202099737533
142
0.0
142
0.0
142
0.0
142
0.0
142
0.0008202099737533
142
0.0
142
0.0
142
0.0
142
0.0
142
1.0
142
0.0
142
0.0
142
0.0
142
0.0
142
1.0
179
     0
144
0.0008202099737533
144
0.0
144
0.0
144
0.0
144
0.0
144
0.0008202099737533
144
0.0
144
0.0
144
0.0
144
0.0
144
1.0
144
0.0
144
0.0
144
0.0
144
0.0
144
1.0
147
0.0008202099737533
147
0.0
147
0.0
147
0.0
147
0.0
147
0.0008202099737533
147
0.0
147
0.0
147
0.0
147
0.0
147
1.0
147
0.0
147
0.0
147
0.0
147
0.0
147
1.0
  0
MATERIAL
  5
477
102
{ACAD_XDICTIONARY
360
478
102
}
102
{ACAD_REACTORS
330
6A
102
}
330
6A
100
AcDbMaterial
  1
ByLayer
 72
     0
 43
0.0008202099737533
 43
0.0
 43
0.0
 43
0.0
 43
0.0
 43
0.0008202099737533
 43
0.0
 43
0.0
 43
0.0
 43
0.0
 43
1.0
 43
0.0
 43
0.0
 43
0.0
 43
0.0
 43
1.0
 77
     0
 47
0.0008202099737533
 47
0.0
 47
0.0
 47
0.0
 47
0.0
 47
0.0008202099737533
 47
0.0
 47
0.0
 47
0.0
 47
0.0
 47
1.0
 47
0.0
 47
0.0
 47
0.0
 47
0.0
 47
1.0
171
     0
 49
0.0008202099737533
 49
0.0
 49
0.0
 49
0.0
 49
0.0
 49
0.0008202099737533
 49
0.0
 49
0.0
 49
0.0
 49
0.0
 49
1.0
 49
0.0
 49
0.0
 49
0.0
 49
0.0
 49
1.0
175
     0
142
0.0008202099737533
142
0.0
142
0.0
142
0.0
142
0.0
142
0.0008202099737533
142
0.0
142
0.0
142
0.0
142
0.0
142
1.0
142
0.0
142
0.0
142
0.0
142
0.0
142
1.0
179
     0
144
0.0008202099737533
144
0.0
144
0.0
144
0.0
144
0.0
144
0.0008202099737533
144
0.0
144
0.0
144
0.0
144
0.0
144
1.0
144
0.0
144
0.0
144
0.0
144
0.0
144
1.0
147
0.0008202099737533
147
0.0
147
0.0
147
0.0
147
0.0
147
0.0008202099737533
147
0.0
147
0.0
147
0.0
147
0.0
147
1.0
147
0.0
147
0.0
147
0.0
147
0.0
147
1.0
  0
MATERIAL
  5
487
102
{ACAD_XDICTIONARY
360
488
102
}
102
{ACAD_REACTORS
330
6A
102
}
330
6A
100
AcDbMaterial
  1
Global
 72
     0
 43
0.0008202099737533
 43
0.0
 43
0.0
 43
0.0
 43
0.0
 43
0.0008202099737533
 43
0.0
 43
0.0
 43
0.0
 43
0.0
 43
1.0
 43
0.0
 43
0.0
 43
0.0
 43
0.0
 43
1.0
 77
     0
 47
0.0008202099737533
 47
0.0
 47
0.0
 47
0.0
 47
0.0
 47
0.0008202099737533
 47
0.0
 47
0.0
 47
0.0
 47
0.0
 47
1.0
 47
0.0
 47
0.0
 47
0.0
 47
0.0
 47
1.0
171
     0
 49
0.0008202099737533
 49
0.0
 49
0.0
 49
0.0
 49
0.0
 49
0.0008202099737533
 49
0.0
 49
0.0
 49
0.0
 49
0.0
 49
1.0
 49
0.0
 49
0.0
 49
0.0
 49
0.0
 49
1.0
175
     0
142
0.0008202099737533
142
0.0
142
0.0
142
0.0
142
0.0
142
0.0008202099737533
142
0.0
142
0.0
142
0.0
142
0.0
142
1.0
142
0.0
142
0.0
142
0.0
142
0.0
142
1.0
179
     0
144
0.0008202099737533
144
0.0
144
0.0
144
0.0
144
0.0
144
0.0008202099737533
144
0.0
144
0.0
144
0.0
144
0.0
144
1.0
144
0.0
144
0.0
144
0.0
144
0.0
144
1.0
147
0.0008202099737533
147
0.0
147
0.0
147
0.0
147
0.0
147
0.0008202099737533
147
0.0
147
0.0
147
0.0
147
0.0
147
1.0
147
0.0
147
0.0
147
0.0
147
0.0
147
1.0
  0
MLEADERSTYLE
  5
4BB
102
{ACAD_REACTORS
330
4BA
102
}
330
4BA
100
AcDbMLeaderStyle
179
     2
170
     2
171
     1
172
     0
 90
        2
 40
0.0
 41
0.0
173
     1
 91
-1056964608
340
14
 92
       -2
290
     1
 42
2.0
291
     1
 43
0.36
  3
Standard
 44
4.0
300

342
11
174
     1
178
     6
175
     1
176
     0
 93
-1056964608
 45
4.0
292
     0
297
     0
 46
4.0
 94
-1056964608
 47
1.0
 49
1.0
140
1.0
293
     1
141
0.0
294
     1
177
     0
142
1.0
295
     0
296
     0
143
0.125
271
     0
272
     9
273
     9
298
     0
  0
MLINESTYLE
  5
18
102
{ACAD_REACTORS
330
17
102
}
330
17
100
AcDbMlineStyle
  2
STANDARD
 70
     0
  3

 62
   256
 51
90.0
 52
90.0
 71
     2
 49
0.5
 62
   256
  6
BYLAYER
 49
-0.5
 62
   256
  6
BYLAYER
  0
ACDBPLACEHOLDER
  5
F
102
{ACAD_REACTORS
330
E
102
}
330
E
  0
SCALE
  5
4A9
102
{ACAD_REACTORS
330
4A8
102
}
330
4A8
100
AcDbScale
 70
     0
300
1:1
140
1.0
141
1.0
290
     1
  0
SCALE
  5
4AA
102
{ACAD_REACTORS
330
4A8
102
}
330
4A8
100
AcDbScale
 70
     0
300
1:2
140
1.0
141
2.0
290
     0
  0
SCALE
  5
4AB
102
{ACAD_REACTORS
330
4A8
102
}
330
4A8
100
AcDbScale
 70
     0
300
1:4
140
1.0
141
4.0
290
     0
  0
SCALE
  5
4AC
102
{ACAD_REACTORS
330
4A8
102
}
330
4A8
100
AcDbScale
 70
     0
300
1:5
140
1.0
141
5.0
290
     0
  0
SCALE
  5
4AD
102
{ACAD_REACTORS
330
4A8
102
}
330
4A8
100
AcDbScale
 70
     0
300
1:8
140
1.0
141
8.0
290
     0
  0
SCALE
  5
4AE
102
{ACAD_REACTORS
330
4A8
102
}
330
4A8
100
AcDbScale
 70
     0
300
1:10
140
1.0
141
10.0
290
     0
  0
SCALE
  5
4AF
102
{ACAD_REACTORS
330
4A8
102
}
330
4A8
100
AcDbScale
 70
     0
300
1:16
140
1.0
141
16.0
290
     0
  0
SCALE
  5
4B0
102
{ACAD_REACTORS
330
4A8
102
}
330
4A8
100
AcDbScale
 70
     0
300
1:20
140
1.0
141
20.0
290
     0
  0
SCALE
  5
4B1
102
{ACAD_REACTORS
330
4A8
102
}
330
4A8
100
AcDbScale
 70
     0
300
1:30
140
1.0
141
30.0
290
     0
  0
SCALE
  5
4B2
102
{ACAD_REACTORS
330
4A8
102
}
330
4A8
100
AcDbScale
 70
     0
300
1:40
140
1.0
141
40.0
290
     0
  0
SCALE
  5
4B3
102
{ACAD_REACTORS
330
4A8
102
}
330
4A8
100
AcDbScale
 70
     0
300
1:50
140
1.0
141
50.0
290
     0
  0
SCALE
  5
4B4
102
{ACAD_REACTORS
330
4A8
102
}
330
4A8
100
AcDbScale
 70
     0
300
1:100
140
1.0
141
100.0
290
     0
  0
SCALE
  5
4B5
102
{ACAD_REACTORS
330
4A8
102
}
330
4A8
100
AcDbScale
 70
     0
300
2:1
140
2.0
141
1.0
290
     0
  0
SCALE
  5
4B6
102
{ACAD_REACTORS
330
4A8
102
}
330
4A8
100
AcDbScale
 70
     0
300
4:1
140
4.0
141
1.0
290
     0
  0
SCALE
  5
4B7
102
{ACAD_REACTORS
330
4A8
102
}
330
4A8
100
AcDbScale
 70
     0
300
8:1
140
8.0
141
1.0
290
     0
  0
SCALE
  5
4B8
102
{ACAD_REACTORS
330
4A8
102
}
330
4A8
100
AcDbScale
 70
     0
300
10:1
140
10.0
141
1.0
290
     0
  0
SCALE
  5
4B9
102
{ACAD_REACTORS
330
4A8
102
}
330
4A8
100
AcDbScale
 70
     0
300
100:1
140
100.0
141
1.0
290
     0
  0
ACDBSECTIONVIEWSTYLE
  5
4BD
102
{ACAD_REACTORS
330
4BC
102
}
330
4BC
100
AcDbModelDocViewStyle
 70
     0
  3
Metric50
290
     0
300
Metric50
 90
        0
100
AcDbSectionViewStyle
 70
     0
 71
     0
 90
      102
 71
     1
340
11
 62
   256
 40
5.0
340
0
340
0
 62
   256
 40
5.0
300
I, O, Q, S, X, Z
 40
10.0
 90
        0
 40
2.5
 90
        0
 71
     2
340
16
 90
       25
 62
   256
340
16
 90
       50
 62
   256
 40
5.0
 40
2.5
 40
5.0
 71
     3
340
11
 62
   256
 40
5.0
 90
        0
 40
15.0
 90
        1
300
%<\AcVar ViewSectionStartId>%-%<\AcVar ViewSectionEndId>% (%<\AcVar ViewScale \f "%sn">%)
 71
     4
 62
   256
 62
   257
300
ANSI31
 40
1.0
 90
        0
290
     0
290
     0
 90
        6
 40
0.0
 40
1.570796326794896
 40
0.2617993877991494
 40
1.308996938995747
 40
-0.2617993877991494
 40
1.832595714594046
  0
TABLESTYLE
  5
167
102
{ACAD_XDICTIONARY
360
4E8
102
}
102
{ACAD_REACTORS
330
166
102
}
330
166
100
AcDbTableStyle
280
     0
  3
Standard
 70
     0
 71
     0
 40
1.5
 41
1.5
280
     0
281
     0
  7
Standard
140
4.5
170
     2
 62
     0
 63
     7
283
     0
 90
        4
 91
        0
  1

274
    -2
284
     1
 64
     0
275
    -2
285
     1
 65
     0
276
    -2
286
     1
 66
     0
277
    -2
287
     1
 67
     0
278
    -2
288
     1
 68
     0
279
    -2
289
     1
 69
     0
  7
Standard
140
6.0
170
     5
 62
     0
 63
     7
283
     0
 90
        4
 91
        0
  1

274
    -2
284
     1
 64
     0
275
    -2
285
     1
 65
     0
276
    -2
286
     1
 66
     0
277
    -2
287
     1
 67
     0
278
    -2
288
     1
 68
     0
279
    -2
289
     1
 69
     0
  7
Standard
140
4.5
170
     5
 62
     0
 63
     7
283
     0
 90
        4
 91
        0
  1

274
    -2
284
     1
 64
     0
275
    -2
285
     1
 65
     0
276
    -2
286
     1
 66
     0
277
    -2
287
     1
 67
     0
278
    -2
288
     1
 68
     0
279
    -2
289
     1
 69
     0
  0
VISUALSTYLE
  5
495
102
{ACAD_REACTORS
330
48F
102
}
330
48F
100
AcDbVisualStyle
  2
2dWireframe
 70
     4
177
     3
291
     0
 70
    58
 90
        0
176
     1
 90
        2
176
     1
 90
        0
176
     1
 90
        0
176
     1
 40
0.6
176
     1
 40
30.0
176
     1
 62
     7
420
 16777215
176
     1
 90
        1
176
     1
 90
        4
176
     1
 62
     7
176
     1
 62
   257
176
     1
 90
        1
176
     1
 90
        1
176
     1
 40
1.0
176
     1
 90
        0
176
     1
 62
   257
176
     1
 40
1.0
176
     1
 90
        1
176
     1
 90
        6
176
     1
 90
        2
176
     1
 62
     7
176
     1
 90
        5
176
     1
 90
        0
176
     1
 90
        0
176
     1
290
     0
176
     1
 90
        1
176
     1
 40
0.0
176
     1
 90
        0
176
     1
290
     1
176
     1
290
     1
176
     1
290
     0
176
     1
290
     0
176
     1
290
     0
176
     1
290
     0
176
     1
290
     0
176
     1
290
     0
176
     1
290
     0
176
     1
 90
       50
176
     1
 40
0.0
176
     1
 40
1.0
176
     1
 90
        0
176
     1
 62
    18
420
        0
176
     1
 90
       50
176
     1
 90
        3
176
     1
 62
     5
420
      255
176
     1
290
     0
176
     1
 90
       50
176
     1
 90
       50
176
     1
 90
       50
176
     1
290
     0
176
     1
 90
       50
176
     1
 62
   256
176
     0
 40
1.0
176
     0
 90
        2
176
     1
  1
strokes_ogs.tif
176
     1
290
     0
176
     1
 40
1.0
176
     1
 40
1.0
176
     1
  0
VISUALSTYLE
  5
494
102
{ACAD_REACTORS
330
48F
102
}
330
48F
100
AcDbVisualStyle
  2
Basic
 70
     7
177
     3
291
     1
 70
    58
 90
        1
176
     1
 90
        0
176
     1
 90
        1
176
     1
 90
        0
176
     1
 40
0.6
176
     1
 40
30.0
176
     1
 62
     7
420
 16777215
176
     1
 90
        0
176
     1
 90
        4
176
     1
 62
     7
176
     1
 62
   257
176
     1
 90
        1
176
     1
 90
        1
176
     1
 40
1.0
176
     1
 90
        8
176
     1
 62
     7
176
     1
 40
1.0
176
     1
 90
        1
176
     1
 90
        6
176
     1
 90
        2
176
     1
 62
     7
176
     1
 90
        5
176
     1
 90
        0
176
     1
 90
        0
176
     1
290
     0
176
     1
 90
        1
176
     1
 40
0.0
176
     1
 90
        0
176
     1
290
     0
176
     1
290
     1
176
     1
290
     1
176
     1
290
     0
176
     1
290
     0
176
     1
290
     0
176
     1
290
     0
176
     1
290
     0
176
     1
290
     0
176
     1
 90
       50
176
     1
 40
0.0
176
     1
 40
1.0
176
     1
 90
        0
176
     1
 62
    18
420
        0
176
     1
 90
       50
176
     1
 90
        3
176
     1
 62
     5
420
      255
176
     1
290
     0
176
     1
 90
       50
176
     1
 90
       50
176
     1
 90
       50
176
     1
290
     0
176
     1
 90
       50
176
     1
 62
   256
176
     0
 40
1.0
176
     0
 90
        2
176
     1
  1
strokes_ogs.tif
176
     1
290
     0
176
     1
 40
1.0
176
     1
 40
1.0
176
     1
  0
VISUALSTYLE
  5
49B
102
{ACAD_REACTORS
330
48F
102
}
330
48F
100
AcDbVisualStyle
  2
Brighten
 70
    12
177
     3
291
     1
 70
    58
 90
        2
176
     1
 90
        2
176
     1
 90
        0
176
     1
 90
        0
176
     1
 40
0.6
176
     1
 40
30.0
176
     1
 62
     7
420
 16777215
176
     1
 90
        1
176
     1
 90
        4
176
     1
 62
     7
176
     1
 62
   257
176
     1
 90
        1
176
     1
 90
        1
176
     1
 40
1.0
176
     1
 90
        8
176
     1
 62
     7
176
     1
 40
1.0
176
     1
 90
        1
176
     1
 90
        6
176
     1
 90
        2
176
     1
 62
     7
176
     1
 90
        5
176
     1
 90
        0
176
     1
 90
        0
176
     1
290
     0
176
     1
 90
        1
176
     1
 40
50.0
176
     1
 90
        0
176
     1
290
     0
176
     1
290
     1
176
     1
290
     1
176
     1
290
     0
176
     1
290
     0
176
     1
290
     0
176
     1
290
     0
176
     1
290
     0
176
     1
290
     0
176
     1
 90
       50
176
     1
 40
0.0
176
     1
 40
1.0
176
     1
 90
        0
176
     1
 62
    18
420
        0
176
     1
 90
       50
176
     1
 90
        3
176
     1
 62
     5
420
      255
176
     1
290
     0
176
     1
 90
       50
176
     1
 90
       50
176
     1
 90
       50
176
     1
290
     0
176
     1
 90
       50
176
     1
 62
   256
176
     0
 40
1.0
176
     0
 90
        2
176
     1
  1
strokes_ogs.tif
176
     1
290
     0
176
     1
 40
1.0
176
     1
 40
1.0
176
     1
  0
VISUALSTYLE
  5
49F
102
{ACAD_REACTORS
330
48F
102
}
330
48F
100
AcDbVisualStyle
  2
ColorChange
 70
    16
177
     3
291
     1
 70
    58
 90
        2
176
     1
 90
        2
176
     1
 90
        3
176
     1
 90
        0
176
     1
 40
0.6
176
     1
 40
30.0
176
     1
 62
     8
420
  8421504
176
     1
 90
        1
176
     1
 90
        4
176
     1
 62
     7
176
     1
 62
   257
176
     1
 90
        1
176
     1
 90
        1
176
     1
 40
1.0
176
     1
 90
        8
176
     1
 62
     8
420
  8421504
176
     1
 40
1.0
176
     1
 90
        1
176
     1
 90
        6
176
     1
 90
        2
176
     1
 62
     7
176
     1
 90
        5
176
     1
 90
        0
176
     1
 90
        0
176
     1
290
     0
176
     1
 90
        1
176
     1
 40
0.0
176
     1
 90
        0
176
     1
290
     0
176
     1
290
     1
176
     1
290
     1
176
     1
290
     0
176
     1
290
     0
176
     1
290
     0
176
     1
290
     0
176
     1
290
     0
176
     1
290
     0
176
     1
 90
       50
176
     1
 40
0.0
176
     1
 40
1.0
176
     1
 90
        0
176
     1
 62
    18
420
        0
176
     1
 90
       50
176
     1
 90
        3
176
     1
 62
     5
420
      255
176
     1
290
     0
176
     1
 90
       50
176
     1
 90
       50
176
     1
 90
       50
176
     1
290
     0
176
     1
 90
       50
176
     1
 62
   256
176
     0
 40
1.0
176
     0
 90
        2
176
     1
  1
strokes_ogs.tif
176
     1
290
     0
176
     1
 40
1.0
176
     1
 40
1.0
176
     1
  0
VISUALSTYLE
  5
498
102
{ACAD_REACTORS
330
48F
102
}
330
48F
100
AcDbVisualStyle
  2
Conceptual
 70
     9
177
     3
291
     0
 70
    58
 90
        3
176
     1
 90
        2
176
     1
 90
        0
176
     1
 90
        0
176
     1
 40
0.6
176
     1
 40
30.0
176
     1
 62
     7
420
 16777215
176
     1
 90
        2
176
     1
 90
        2
176
     1
 62
     7
176
     1
 62
   257
176
     1
 90
        1
176
     1
 90
        1
176
     1
 40
179.0
176
     1
 90
        8
176
     1
 62
     7
176
     1
 40
1.0
176
     1
 90
        1
176
     1
 90
        6
176
     1
 90
        2
176
     1
 62
     7
176
     1
 90
        3
176
     1
 90
        0
176
     1
 90
        0
176
     1
290
     0
176
     1
 90
        1
176
     1
 40
0.0
176
     1
 90
        0
176
     1
290
     0
176
     1
290
     1
176
     1
290
     1
176
     1
290
     0
176
     1
290
     0
176
     1
290
     0
176
     1
290
     0
176
     1
290
     0
176
     1
290
     0
176
     1
 90
       50
176
     1
 40
0.0
176
     1
 40
1.0
176
     1
 90
        0
176
     1
 62
    18
420
        0
176
     1
 90
       50
176
     1
 90
        3
176
     1
 62
     5
420
      255
176
     1
290
     0
176
     1
 90
       50
176
     1
 90
       50
176
     1
 90
       50
176
     1
290
     0
176
     1
 90
       50
176
     1
 62
   256
176
     0
 40
1.0
176
     0
 90
        2
176
     1
  1
strokes_ogs.tif
176
     1
290
     0
176
     1
 40
1.0
176
     1
 40
1.0
176
     1
  0
VISUALSTYLE
  5
49A
102
{ACAD_REACTORS
330
48F
102
}
330
48F
100
AcDbVisualStyle
  2
Dim
 70
    11
177
     3
291
     1
 70
    58
 90
        2
176
     1
 90
        2
176
     1
 90
        0
176
     1
 90
        0
176
     1
 40
0.6
176
     1
 40
30.0
176
     1
 62
     7
420
 16777215
176
     1
 90
        1
176
     1
 90
        4
176
     1
 62
     7
176
     1
 62
   257
176
     1
 90
        1
176
     1
 90
        1
176
     1
 40
1.0
176
     1
 90
        8
176
     1
 62
     7
176
     1
 40
1.0
176
     1
 90
        1
176
     1
 90
        6
176
     1
 90
        2
176
     1
 62
     7
176
     1
 90
        5
176
     1
 90
        0
176
     1
 90
        0
176
     1
290
     0
176
     1
 90
        1
176
     1
 40
-50.0
176
     1
 90
        0
176
     1
290
     0
176
     1
290
     1
176
     1
290
     1
176
     1
290
     0
176
     1
290
     0
176
     1
290
     0
176
     1
290
     0
176
     1
290
     0
176
     1
290
     0
176
     1
 90
       50
176
     1
 40
0.0
176
     1
 40
1.0
176
     1
 90
        0
176
     1
 62
    18
420
        0
176
     1
 90
       50
176
     1
 90
        3
176
     1
 62
     5
420
      255
176
     1
290
     0
176
     1
 90
       50
176
     1
 90
       50
176
     1
 90
       50
176
     1
290
     0
176
     1
 90
       50
176
     1
 62
   256
176
     0
 40
1.0
176
     0
 90
        2
176
     1
  1
strokes_ogs.tif
176
     1
290
     0
176
     1
 40
1.0
176
     1
 40
1.0
176
     1
  0
VISUALSTYLE
  5
4A7
102
{ACAD_REACTORS
330
48F
102
}
330
48F
100
AcDbVisualStyle
  2
EdgeColorOff
 70
    22
177
     3
291
     1
 70
    58
 90
        2
176
     0
 90
        2
176
     0
 90
        0
176
     0
 90
        0
176
     0
 40
0.6
176
     0
 40
30.0
176
     0
 62
     7
420
 16777215
176
     0
 90
        1
176
     0
 90
        4
176
     0
 62
     7
176
     0
 62
   257
176
     0
 90
        1
176
     0
 90
        1
176
     0
 40
1.0
176
     0
 90
        8
176
     2
 62
     7
176
     0
 40
1.0
176
     0
 90
        1
176
     0
 90
        6
176
     0
 90
        2
176
     0
 62
     7
176
     0
 90
        5
176
     0
 90
        0
176
     0
 90
        0
176
     0
290
     0
176
     0
 90
        1
176
     0
 40
0.0
176
     0
 90
        0
176
     0
290
     0
176
     1
290
     1
176
     1
290
     1
176
     1
290
     0
176
     1
290
     0
176
     1
290
     0
176
     1
290
     0
176
     1
290
     0
176
     1
290
     0
176
     1
 90
       50
176
     0
 40
0.0
176
     0
 40
1.0
176
     0
 90
        0
176
     0
 62
    18
420
        0
176
     0
 90
       50
176
     0
 90
        3
176
     0
 62
     5
420
      255
176
     0
290
     0
176
     1
 90
       50
176
     0
 90
       50
176
     0
 90
       50
176
     0
290
     0
176
     1
 90
       50
176
     0
 62
   256
176
     0
 40
1.0
176
     0
 90
        2
176
     0
  1
strokes_ogs.tif
176
     0
290
     0
176
     1
 40
1.0
176
     0
 40
1.0
176
     0
  0
VISUALSTYLE
  5
49E
102
{ACAD_REACTORS
330
48F
102
}
330
48F
100
AcDbVisualStyle
  2
Facepattern
 70
    15
177
     3
291
     1
 70
    58
 90
        2
176
     1
 90
        2
176
     1
 90
        0
176
     1
 90
        0
176
     1
 40
0.6
176
     1
 40
30.0
176
     1
 62
     7
420
 16777215
176
     1
 90
        1
176
     1
 90
        4
176
     1
 62
     7
176
     1
 62
   257
176
     1
 90
        1
176
     1
 90
        1
176
     1
 40
1.0
176
     1
 90
        8
176
     1
 62
     7
176
     1
 40
1.0
176
     1
 90
        1
176
     1
 90
        6
176
     1
 90
        2
176
     1
 62
     7
176
     1
 90
        5
176
     1
 90
        0
176
     1
 90
        0
176
     1
290
     0
176
     1
 90
        1
176
     1
 40
0.0
176
     1
 90
        0
176
     1
290
     0
176
     1
290
     1
176
     1
290
     1
176
     1
290
     0
176
     1
290
     0
176
     1
290
     0
176
     1
290
     0
176
     1
290
     0
176
     1
290
     0
176
     1
 90
       50
176
     1
 40
0.0
176
     1
 40
1.0
176
     1
 90
        0
176
     1
 62
    18
420
        0
176
     1
 90
       50
176
     1
 90
        3
176
     1
 62
     5
420
      255
176
     1
290
     0
176
     1
 90
       50
176
     1
 90
       50
176
     1
 90
       50
176
     1
290
     0
176
     1
 90
       50
176
     1
 62
   256
176
     0
 40
1.0
176
     0
 90
        2
176
     1
  1
strokes_ogs.tif
176
     1
290
     0
176
     1
 40
1.0
176
     1
 40
1.0
176
     1
  0
VISUALSTYLE
  5
490
102
{ACAD_REACTORS
330
48F
102
}
330
48F
100
AcDbVisualStyle
  2
Flat
 70
     0
177
     3
291
     1
 70
    58
 90
        2
176
     1
 90
        1
176
     1
 90
        1
176
     1
 90
        2
176
     1
 40
0.6
176
     1
 40
30.0
176
     1
 62
     7
420
 16777215
176
     1
 90
        0
176
     1
 90
        0
176
     1
 62
     7
176
     1
 62
   257
176
     1
 90
        1
176
     1
 90
        1
176
     1
 40
1.0
176
     1
 90
        8
176
     1
 62
     7
176
     1
 40
1.0
176
     1
 90
        1
176
     1
 90
        6
176
     1
 90
        2
176
     1
 62
     7
176
     1
 90
        5
176
     1
 90
        0
176
     1
 90
        0
176
     1
290
     0
176
     1
 90
       13
176
     1
 40
0.0
176
     1
 90
        0
176
     1
290
     0
176
     1
290
     1
176
     1
290
     1
176
     1
290
     0
176
     1
290
     0
176
     1
290
     0
176
     1
290
     0
176
     1
290
     0
176
     1
290
     0
176
     1
 90
       50
176
     1
 40
0.0
176
     1
 40
1.0
176
     1
 90
        0
176
     1
 62
    18
420
        0
176
     1
 90
       50
176
     1
 90
        3
176
     1
 62
     5
420
      255
176
     1
290
     0
176
     1
 90
       50
176
     1
 90
       50
176
     1
 90
       50
176
     1
290
     0
176
     1
 90
       50
176
     1
 62
   256
176
     0
 40
1.0
176
     0
 90
        2
176
     1
  1
strokes_ogs.tif
176
     1
290
     0
176
     1
 40
1.0
176
     1
 40
1.0
176
     1
  0
VISUALSTYLE
  5
491
102
{ACAD_REACTORS
330
48F
102
}
330
48F
100
AcDbVisualStyle
  2
FlatWithEdges
 70
     1
177
     3
291
     1
 70
    58
 90
        2
176
     1
 90
        1
176
     1
 90
        1
176
     1
 90
        2
176
     1
 40
0.6
176
     1
 40
30.0
176
     1
 62
     7
420
 16777215
176
     1
 90
        1
176
     1
 90
        0
176
     1
 62
     7
176
     1
 62
   257
176
     1
 90
        1
176
     1
 90
        1
176
     1
 40
1.0
176
     1
 90
        0
176
     1
 62
   257
176
     1
 40
1.0
176
     1
 90
        1
176
     1
 90
        6
176
     1
 90
        2
176
     1
 62
     7
176
     1
 90
        5
176
     1
 90
        0
176
     1
 90
        0
176
     1
290
     0
176
     1
 90
       13
176
     1
 40
0.0
176
     1
 90
        0
176
     1
290
     0
176
     1
290
     1
176
     1
290
     1
176
     1
290
     0
176
     1
290
     0
176
     1
290
     0
176
     1
290
     0
176
     1
290
     0
176
     1
290
     0
176
     1
 90
       50
176
     1
 40
0.0
176
     1
 40
1.0
176
     1
 90
        0
176
     1
 62
    18
420
        0
176
     1
 90
       50
176
     1
 90
        3
176
     1
 62
     5
420
      255
176
     1
290
     0
176
     1
 90
       50
176
     1
 90
       50
176
     1
 90
       50
176
     1
290
     0
176
     1
 90
       50
176
     1
 62
   256
176
     0
 40
1.0
176
     0
 90
        2
176
     1
  1
strokes_ogs.tif
176
     1
290
     0
176
     1
 40
1.0
176
     1
 40
1.0
176
     1
  0
VISUALSTYLE
  5
492
102
{ACAD_REACTORS
330
48F
102
}
330
48F
100
AcDbVisualStyle
  2
Gouraud
 70
     2
177
     3
291
     1
 70
    58
 90
        2
176
     1
 90
        2
176
     1
 90
        1
176
     1
 90
        2
176
     1
 40
0.6
176
     1
 40
30.0
176
     1
 62
     7
420
 16777215
176
     1
 90
        0
176
     1
 90
        0
176
     1
 62
     7
176
     1
 62
   257
176
     1
 90
        1
176
     1
 90
        1
176
     1
 40
1.0
176
     1
 90
        0
176
     1
 62
     7
176
     1
 40
1.0
176
     1
 90
        1
176
     1
 90
        6
176
     1
 90
        2
176
     1
 62
     7
176
     1
 90
        5
176
     1
 90
        0
176
     1
 90
        0
176
     1
290
     0
176
     1
 90
       13
176
     1
 40
0.0
176
     1
 90
        0
176
     1
290
     0
176
     1
290
     1
176
     1
290
     1
176
     1
290
     0
176
     1
290
     0
176
     1
290
     0
176
     1
290
     0
176
     1
290
     0
176
     1
290
     0
176
     1
 90
       50
176
     1
 40
0.0
176
     1
 40
1.0
176
     1
 90
        0
176
     1
 62
    18
420
        0
176
     1
 90
       50
176
     1
 90
        3
176
     1
 62
     5
420
      255
176
     1
290
     0
176
     1
 90
       50
176
     1
 90
       50
176
     1
 90
       50
176
     1
290
     0
176
     1
 90
       50
176
     1
 62
   256
176
     0
 40
1.0
176
     0
 90
        2
176
     1
  1
strokes_ogs.tif
176
     1
290
     0
176
     1
 40
1.0
176
     1
 40
1.0
176
     1
  0
VISUALSTYLE
  5
493
102
{ACAD_REACTORS
330
48F
102
}
330
48F
100
AcDbVisualStyle
  2
GouraudWithEdges
 70
     3
177
     3
291
     1
 70
    58
 90
        2
176
     1
 90
        2
176
     1
 90
        1
176
     1
 90
        2
176
     1
 40
0.6
176
     1
 40
30.0
176
     1
 62
     7
420
 16777215
176
     1
 90
        1
176
     1
 90
        0
176
     1
 62
     7
176
     1
 62
   257
176
     1
 90
        1
176
     1
 90
        1
176
     1
 40
1.0
176
     1
 90
        0
176
     1
 62
   257
176
     1
 40
1.0
176
     1
 90
        1
176
     1
 90
        6
176
     1
 90
        2
176
     1
 62
     7
176
     1
 90
        5
176
     1
 90
        0
176
     1
 90
        0
176
     1
290
     0
176
     1
 90
       13
176
     1
 40
0.0
176
     1
 90
        0
176
     1
290
     0
176
     1
290
     1
176
     1
290
     1
176
     1
290
     0
176
     1
290
     0
176
     1
290
     0
176
     1
290
     0
176
     1
290
     0
176
     1
290
     0
176
     1
 90
       50
176
     1
 40
0.0
176
     1
 40
1.0
176
     1
 90
        0
176
     1
 62
    18
420
        0
176
     1
 90
       50
176
     1
 90
        3
176
     1
 62
     5
420
      255
176
     1
290
     0
176
     1
 90
       50
176
     1
 90
       50
176
     1
 90
       50
176
     1
290
     0
176
     1
 90
       50
176
     1
 62
   256
176
     0
 40
1.0
176
     0
 90
        2
176
     1
  1
strokes_ogs.tif
176
     1
290
     0
176
     1
 40
1.0
176
     1
 40
1.0
176
     1
  0
VISUALSTYLE
  5
497
102
{ACAD_REACTORS
330
48F
102
}
330
48F
100
AcDbVisualStyle
  2
Hidden
 70
     6
177
     3
291
     0
 70
    58
 90
        1
176
     1
 90
        2
176
     1
 90
        2
176
     1
 90
        0
176
     1
 40
0.6
176
     1
 40
30.0
176
     1
 62
     7
420
 16777215
176
     1
 90
        2
176
     1
 90
        2
176
     1
 62
     7
176
     1
 62
   257
176
     1
 90
        2
176
     1
 90
        1
176
     1
 40
40.0
176
     1
 90
        0
176
     1
 62
   257
176
     1
 40
1.0
176
     1
 90
        1
176
     1
 90
        6
176
     1
 90
        2
176
     1
 62
     7
176
     1
 90
        3
176
     1
 90
        0
176
     1
 90
        0
176
     1
290
     0
176
     1
 90
        1
176
     1
 40
0.0
176
     1
 90
        0
176
     1
290
     0
176
     1
290
     1
176
     1
290
     1
176
     1
290
     0
176
     1
290
     0
176
     1
290
     0
176
     1
290
     0
176
     1
290
     0
176
     1
290
     0
176
     1
 90
       50
176
     1
 40
0.0
176
     1
 40
1.0
176
     1
 90
        0
176
     1
 62
    18
420
        0
176
     1
 90
       50
176
     1
 90
        3
176
     1
 62
     5
420
      255
176
     1
290
     0
176
     1
 90
       50
176
     1
 90
       50
176
     1
 90
       50
176
     1
290
     0
176
     1
 90
       50
176
     1
 62
   256
176
     0
 40
1.0
176
     0
 90
        2
176
     1
  1
strokes_ogs.tif
176
     1
290
     0
176
     1
 40
1.0
176
     1
 40
1.0
176
     1
  0
VISUALSTYLE
  5
4A5
102
{ACAD_REACTORS
330
48F
102
}
330
48F
100
AcDbVisualStyle
  2
JitterOff
 70
    20
177
     3
291
     1
 70
    58
 90
        2
176
     0
 90
        2
176
     0
 90
        0
176
     0
 90
        0
176
     0
 40
0.6
176
     0
 40
30.0
176
     0
 62
     7
420
 16777215
176
     0
 90
        1
176
     0
 90
        4
176
     0
 62
     7
176
     0
 62
   257
176
     0
 90
        1
176
     0
 90
        1
176
     0
 40
1.0
176
     0
 90
       10
176
     2
 62
     7
176
     0
 40
1.0
176
     0
 90
        1
176
     0
 90
        6
176
     0
 90
        2
176
     0
 62
     7
176
     0
 90
        5
176
     0
 90
        0
176
     0
 90
        0
176
     0
290
     0
176
     0
 90
        1
176
     0
 40
0.0
176
     0
 90
        0
176
     0
290
     0
176
     1
290
     1
176
     1
290
     1
176
     1
290
     0
176
     1
290
     0
176
     1
290
     0
176
     1
290
     0
176
     1
290
     0
176
     1
290
     0
176
     1
 90
       50
176
     0
 40
0.0
176
     0
 40
1.0
176
     0
 90
        0
176
     0
 62
    18
420
        0
176
     0
 90
       50
176
     0
 90
        3
176
     0
 62
     5
420
      255
176
     0
290
     0
176
     1
 90
       50
176
     0
 90
       50
176
     0
 90
       50
176
     0
290
     0
176
     1
 90
       50
176
     0
 62
   256
176
     0
 40
1.0
176
     0
 90
        2
176
     0
  1
strokes_ogs.tif
176
     0
290
     0
176
     1
 40
1.0
176
     0
 40
1.0
176
     0
  0
VISUALSTYLE
  5
49D
102
{ACAD_REACTORS
330
48F
102
}
330
48F
100
AcDbVisualStyle
  2
Linepattern
 70
    14
177
     3
291
     1
 70
    58
 90
        2
176
     1
 90
        2
176
     1
 90
        0
176
     1
 90
        0
176
     1
 40
0.6
176
     1
 40
30.0
176
     1
 62
     7
420
 16777215
176
     1
 90
        1
176
     1
 90
        4
176
     1
 62
     7
176
     1
 62
   257
176
     1
 90
        7
176
     1
 90
        7
176
     1
 40
1.0
176
     1
 90
        8
176
     1
 62
     7
176
     1
 40
1.0
176
     1
 90
        1
176
     1
 90
        6
176
     1
 90
        2
176
     1
 62
     7
176
     1
 90
        5
176
     1
 90
        0
176
     1
 90
        0
176
     1
290
     0
176
     1
 90
        1
176
     1
 40
0.0
176
     1
 90
        0
176
     1
290
     0
176
     1
290
     1
176
     1
290
     1
176
     1
290
     0
176
     1
290
     0
176
     1
290
     0
176
     1
290
     0
176
     1
290
     0
176
     1
290
     0
176
     1
 90
       50
176
     1
 40
0.0
176
     1
 40
1.0
176
     1
 90
        0
176
     1
 62
    18
420
        0
176
     1
 90
       50
176
     1
 90
        3
176
     1
 62
     5
420
      255
176
     1
290
     0
176
     1
 90
       50
176
     1
 90
       50
176
     1
 90
       50
176
     1
290
     0
176
     1
 90
       50
176
     1
 62
   256
176
     0
 40
1.0
176
     0
 90
        2
176
     1
  1
strokes_ogs.tif
176
     1
290
     0
176
     1
 40
1.0
176
     1
 40
1.0
176
     1
  0
VISUALSTYLE
  5
4A6
102
{ACAD_REACTORS
330
48F
102
}
330
48F
100
AcDbVisualStyle
  2
OverhangOff
 70
    21
177
     3
291
     1
 70
    58
 90
        2
176
     0
 90
        2
176
     0
 90
        0
176
     0
 90
        0
176
     0
 40
0.6
176
     0
 40
30.0
176
     0
 62
     7
420
 16777215
176
     0
 90
        1
176
     0
 90
        4
176
     0
 62
     7
176
     0
 62
   257
176
     0
 90
        1
176
     0
 90
        1
176
     0
 40
1.0
176
     0
 90
        9
176
     2
 62
     7
176
     0
 40
1.0
176
     0
 90
        1
176
     0
 90
        6
176
     0
 90
        2
176
     0
 62
     7
176
     0
 90
        5
176
     0
 90
        0
176
     0
 90
        0
176
     0
290
     0
176
     0
 90
        1
176
     0
 40
0.0
176
     0
 90
        0
176
     0
290
     0
176
     1
290
     1
176
     1
290
     1
176
     1
290
     0
176
     1
290
     0
176
     1
290
     0
176
     1
290
     0
176
     1
290
     0
176
     1
290
     0
176
     1
 90
       50
176
     0
 40
0.0
176
     0
 40
1.0
176
     0
 90
        0
176
     0
 62
    18
420
        0
176
     0
 90
       50
176
     0
 90
        3
176
     0
 62
     5
420
      255
176
     0
290
     0
176
     1
 90
       50
176
     0
 90
       50
176
     0
 90
       50
176
     0
290
     0
176
     1
 90
       50
176
     0
 62
   256
176
     0
 40
1.0
176
     0
 90
        2
176
     0
  1
strokes_ogs.tif
176
     0
290
     0
176
     1
 40
1.0
176
     0
 40
1.0
176
     0
  0
VISUALSTYLE
  5
499
102
{ACAD_REACTORS
330
48F
102
}
330
48F
100
AcDbVisualStyle
  2
Realistic
 70
     8
177
     3
291
     0
 70
    58
 90
        2
176
     1
 90
        3
176
     1
 90
        0
176
     1
 90
        2
176
     1
 40
0.6
176
     1
 40
30.0
176
     1
 62
     7
420
 16777215
176
     1
 90
        0
176
     1
 90
        0
176
     1
 62
     7
176
     1
 62
   257
176
     1
 90
        1
176
     1
 90
        1
176
     1
 40
1.0
176
     1
 90
        8
176
     1
 62
   257
176
     1
 40
1.0
176
     1
 90
        1
176
     1
 90
        6
176
     1
 90
        2
176
     1
 62
     7
176
     1
 90
        3
176
     1
 90
        0
176
     1
 90
        0
176
     1
290
     0
176
     1
 90
       13
176
     1
 40
0.0
176
     1
 90
        0
176
     1
290
     0
176
     1
290
     1
176
     1
290
     1
176
     1
290
     0
176
     1
290
     0
176
     1
290
     0
176
     1
290
     0
176
     1
290
     0
176
     1
290
     0
176
     1
 90
       50
176
     1
 40
0.0
176
     1
 40
1.0
176
     1
 90
        0
176
     1
 62
    18
420
        0
176
     1
 90
       50
176
     1
 90
        3
176
     1
 62
     5
420
      255
176
     1
290
     0
176
     1
 90
       50
176
     1
 90
       50
176
     1
 90
       50
176
     1
290
     0
176
     1
 90
       50
176
     1
 62
   256
176
     0
 40
1.0
176
     0
 90
        2
176
     1
  1
strokes_ogs.tif
176
     1
290
     0
176
     1
 40
1.0
176
     1
 40
1.0
176
     1
  0
VISUALSTYLE
  5
4A4
102
{ACAD_REACTORS
330
48F
102
}
330
48F
100
AcDbVisualStyle
  2
Shaded
 70
    27
177
     3
291
     0
 70
    58
 90
        2
176
     1
 90
        2
176
     1
 90
        1
176
     1
 90
        2
176
     1
 40
0.6
176
     1
 40
30.0
176
     1
 62
     7
420
 16777215
176
     1
 90
        0
176
     1
 90
        4
176
     1
 62
     7
176
     1
 62
   257
176
     1
 90
        1
176
     1
 90
        1
176
     1
 40
1.0
176
     1
 90
        8
176
     1
 62
   257
176
     1
 40
1.0
176
     1
 90
        1
176
     1
 90
        6
176
     1
 90
        2
176
     1
 62
     8
420
  7895160
176
     1
 90
        3
176
     1
 90
        0
176
     1
 90
        0
176
     1
290
     0
176
     1
 90
        5
176
     1
 40
0.0
176
     1
 90
        0
176
     1
290
     0
176
     1
290
     1
176
     1
290
     1
176
     1
290
     0
176
     1
290
     0
176
     1
290
     0
176
     1
290
     0
176
     1
290
     0
176
     1
290
     0
176
     1
 90
       50
176
     1
 40
0.0
176
     1
 40
1.0
176
     1
 90
        0
176
     1
 62
    18
420
        0
176
     1
 90
       50
176
     1
 90
        3
176
     1
 62
     5
420
      255
176
     1
290
     0
176
     1
 90
       50
176
     1
 90
       50
176
     1
 90
       50
176
     1
290
     0
176
     1
 90
       50
176
     1
 62
   256
176
     0
 40
1.0
176
     0
 90
        2
176
     1
  1
strokes_ogs.tif
176
     1
290
     0
176
     1
 40
1.0
176
     1
 40
1.0
176
     1
  0
VISUALSTYLE
  5
4A3
102
{ACAD_REACTORS
330
48F
102
}
330
48F
100
AcDbVisualStyle
  2
Shaded with edges
 70
    26
177
     3
291
     0
 70
    58
 90
        2
176
     1
 90
        2
176
     1
 90
        1
176
     1
 90
        2
176
     1
 40
0.6
176
     1
 40
30.0
176
     1
 62
     7
420
 16777215
176
     1
 90
        1
176
     1
 90
        2
176
     1
 62
     7
176
     1
 62
   257
176
     1
 90
        2
176
     1
 90
        1
176
     1
 40
1.0
176
     1
 90
        8
176
     1
 62
   257
176
     1
 40
1.0
176
     1
 90
        1
176
     1
 90
        6
176
     1
 90
        2
176
     1
 62
     7
176
     1
 90
        3
176
     1
 90
        0
176
     1
 90
        0
176
     1
290
     0
176
     1
 90
        5
176
     1
 40
0.0
176
     1
 90
        0
176
     1
290
     0
176
     1
290
     1
176
     1
290
     1
176
     1
290
     0
176
     1
290
     0
176
     1
290
     0
176
     1
290
     0
176
     1
290
     0
176
     1
290
     0
176
     1
 90
       50
176
     1
 40
0.0
176
     1
 40
1.0
176
     1
 90
        0
176
     1
 62
    18
420
        0
176
     1
 90
       50
176
     1
 90
        3
176
     1
 62
     5
420
      255
176
     1
290
     0
176
     1
 90
       50
176
     1
 90
       50
176
     1
 90
       50
176
     1
290
     0
176
     1
 90
       50
176
     1
 62
   256
176
     0
 40
1.0
176
     0
 90
        2
176
     1
  1
strokes_ogs.tif
176
     1
290
     0
176
     1
 40
1.0
176
     1
 40
1.0
176
     1
  0
VISUALSTYLE
  5
4A0
102
{ACAD_REACTORS
330
48F
102
}
330
48F
100
AcDbVisualStyle
  2
Shades of Gray
 70
    23
177
     3
291
     0
 70
    58
 90
        2
176
     1
 90
        2
176
     1
 90
        3
176
     1
 90
        0
176
     1
 40
0.6
176
     1
 40
30.0
176
     1
 62
     7
420
 16777215
176
     1
 90
        2
176
     1
 90
        2
176
     1
 62
     7
176
     1
 62
     7
176
     1
 90
        1
176
     1
 90
        1
176
     1
 40
40.0
176
     1
 90
        8
176
     1
 62
     7
176
     1
 40
1.0
176
     1
 90
        1
176
     1
 90
        6
176
     1
 90
        2
176
     1
 62
     7
176
     1
 90
        3
176
     1
 90
        0
176
     1
 90
        0
176
     1
290
     0
176
     1
 90
        1
176
     1
 40
0.0
176
     1
 90
        0
176
     1
290
     0
176
     1
290
     1
176
     1
290
     1
176
     1
290
     0
176
     1
290
     0
176
     1
290
     0
176
     1
290
     0
176
     1
290
     0
176
     1
290
     0
176
     1
 90
       50
176
     1
 40
0.0
176
     1
 40
1.0
176
     1
 90
        0
176
     1
 62
    18
420
        0
176
     1
 90
       50
176
     1
 90
        3
176
     1
 62
     5
420
      255
176
     1
290
     0
176
     1
 90
       50
176
     1
 90
       50
176
     1
 90
       50
176
     1
290
     0
176
     1
 90
       50
176
     1
 62
   256
176
     0
 40
1.0
176
     0
 90
        2
176
     1
  1
strokes_ogs.tif
176
     1
290
     0
176
     1
 40
1.0
176
     1
 40
1.0
176
     1
  0
VISUALSTYLE
  5
4A1
102
{ACAD_REACTORS
330
48F
102
}
330
48F
100
AcDbVisualStyle
  2
Sketchy
 70
    24
177
     3
291
     0
 70
    58
 90
        1
176
     1
 90
        2
176
     1
 90
        2
176
     1
 90
        0
176
     1
 40
0.6
176
     1
 40
30.0
176
     1
 62
     7
420
 16777215
176
     1
 90
        2
176
     1
 90
        2
176
     1
 62
     7
176
     1
 62
     7
176
     1
 90
        1
176
     1
 90
        1
176
     1
 40
40.0
176
     1
 90
       11
176
     1
 62
     7
176
     1
 40
1.0
176
     1
 90
        1
176
     1
 90
        6
176
     1
 90
        2
176
     1
 62
     7
176
     1
 90
        6
176
     1
 90
        0
176
     1
 90
        0
176
     1
290
     0
176
     1
 90
        1
176
     1
 40
0.0
176
     1
 90
        0
176
     1
290
     0
176
     1
290
     1
176
     1
290
     1
176
     1
290
     0
176
     1
290
     0
176
     1
290
     0
176
     1
290
     0
176
     1
290
     0
176
     1
290
     0
176
     1
 90
       50
176
     1
 40
0.0
176
     1
 40
1.0
176
     1
 90
        0
176
     1
 62
    18
420
        0
176
     1
 90
       50
176
     1
 90
        3
176
     1
 62
     5
420
      255
176
     1
290
     0
176
     1
 90
       50
176
     1
 90
       50
176
     1
 90
       50
176
     1
290
     0
176
     1
 90
       50
176
     1
 62
   256
176
     0
 40
1.0
176
     0
 90
        2
176
     1
  1
strokes_ogs.tif
176
     1
290
     0
176
     1
 40
1.0
176
     1
 40
1.0
176
     1
  0
VISUALSTYLE
  5
49C
102
{ACAD_REACTORS
330
48F
102
}
330
48F
100
AcDbVisualStyle
  2
Thicken
 70
    13
177
     3
291
     1
 70
    58
 90
        2
176
     1
 90
        2
176
     1
 90
        0
176
     1
 90
        0
176
     1
 40
0.6
176
     1
 40
30.0
176
     1
 62
     7
420
 16777215
176
     1
 90
        1
176
     1
 90
        4
176
     1
 62
     7
176
     1
 62
   257
176
     1
 90
        1
176
     1
 90
        1
176
     1
 40
1.0
176
     1
 90
       12
176
     1
 62
     7
176
     1
 40
1.0
176
     1
 90
        1
176
     1
 90
        6
176
     1
 90
        2
176
     1
 62
     7
176
     1
 90
        5
176
     1
 90
        0
176
     1
 90
        0
176
     1
290
     0
176
     1
 90
        1
176
     1
 40
0.0
176
     1
 90
        0
176
     1
290
     0
176
     1
290
     1
176
     1
290
     1
176
     1
290
     0
176
     1
290
     0
176
     1
290
     0
176
     1
290
     0
176
     1
290
     0
176
     1
290
     0
176
     1
 90
       50
176
     1
 40
0.0
176
     1
 40
1.0
176
     1
 90
        0
176
     1
 62
    18
420
        0
176
     1
 90
       50
176
     1
 90
        3
176
     1
 62
     5
420
      255
176
     1
290
     0
176
     1
 90
       50
176
     1
 90
       50
176
     1
 90
       50
176
     1
290
     0
176
     1
 90
       50
176
     1
 62
   256
176
     0
 40
1.0
176
     0
 90
        2
176
     1
  1
strokes_ogs.tif
176
     1
290
     0
176
     1
 40
1.0
176
     1
 40
1.0
176
     1
  0
VISUALSTYLE
  5
496
102
{ACAD_REACTORS
330
48F
102
}
330
48F
100
AcDbVisualStyle
  2
Wireframe
 70
     5
177
     3
291
     0
 70
    58
 90
        0
176
     1
 90
        2
176
     1
 90
        0
176
     1
 90
        0
176
     1
 40
0.6
176
     1
 40
30.0
176
     1
 62
     7
420
 16777215
176
     1
 90
        1
176
     1
 90
        4
176
     1
 62
     7
176
     1
 62
   257
176
     1
 90
        1
176
     1
 90
        1
176
     1
 40
1.0
176
     1
 90
        0
176
     1
 62
   257
176
     1
 40
1.0
176
     1
 90
        1
176
     1
 90
        6
176
     1
 90
        2
176
     1
 62
     7
176
     1
 90
        3
176
     1
 90
        0
176
     1
 90
        0
176
     1
290
     0
176
     1
 90
        1
176
     1
 40
0.0
176
     1
 90
        0
176
     1
290
     0
176
     1
290
     1
176
     1
290
     1
176
     1
290
     0
176
     1
290
     0
176
     1
290
     0
176
     1
290
     0
176
     1
290
     0
176
     1
290
     0
176
     1
 90
       50
176
     1
 40
0.0
176
     1
 40
1.0
176
     1
 90
        0
176
     1
 62
    18
420
        0
176
     1
 90
       50
176
     1
 90
        3
176
     1
 62
     5
420
      255
176
     1
290
     0
176
     1
 90
       50
176
     1
 90
       50
176
     1
 90
       50
176
     1
290
     0
176
     1
 90
       50
176
     1
 62
   256
176
     0
 40
1.0
176
     0
 90
        2
176
     1
  1
strokes_ogs.tif
176
     1
290
     0
176
     1
 40
1.0
176
     1
 40
1.0
176
     1
  0
VISUALSTYLE
  5
4A2
102
{ACAD_REACTORS
330
48F
102
}
330
48F
100
AcDbVisualStyle
  2
X-Ray
 70
    25
177
     3
291
     0
 70
    58
 90
        2
176
     1
 90
        2
176
     1
 90
        1
176
     1
 90
        1
176
     1
 40
0.5
176
     1
 40
30.0
176
     1
 62
     7
420
 16777215
176
     1
 90
        1
176
     1
 90
        0
176
     1
 62
     7
176
     1
 62
   257
176
     1
 90
        1
176
     1
 90
        1
176
     1
 40
1.0
176
     1
 90
        8
176
     1
 62
     7
176
     1
 40
1.0
176
     1
 90
        1
176
     1
 90
        6
176
     1
 90
        2
176
     1
 62
     7
176
     1
 90
        3
176
     1
 90
        0
176
     1
 90
        0
176
     1
290
     0
176
     1
 90
       13
176
     1
 40
0.0
176
     1
 90
        0
176
     1
290
     0
176
     1
290
     1
176
     1
290
     1
176
     1
290
     0
176
     1
290
     0
176
     1
290
     0
176
     1
290
     0
176
     1
290
     0
176
     1
290
     0
176
     1
 90
       50
176
     1
 40
0.0
176
     1
 40
1.0
176
     1
 90
        0
176
     1
 62
    18
420
        0
176
     1
 90
       50
176
     1
 90
        3
176
     1
 62
     5
420
      255
176
     1
290
     0
176
     1
 90
       50
176
     1
 90
       50
176
     1
 90
       50
176
     1
290
     0
176
     1
 90
       50
176
     1
 62
   256
176
     0
 40
1.0
176
     0
 90
        2
176
     1
  1
strokes_ogs.tif
176
     1
290
     0
176
     1
 40
1.0
176
     1
 40
1.0
176
     1
  0
DICTIONARYVAR
  5
4E4
102
{ACAD_REACTORS
330
5E
102
}
330
5E
100
DictionaryVariables
280
     0
  1
1:1
  0
DICTIONARYVAR
  5
4E0
102
{ACAD_REACTORS
330
5E
102
}
330
5E
100
DictionaryVariables
280
     0
  1
STANDARD
  0
DICTIONARYVAR
  5
16E
102
{ACAD_REACTORS
330
5E
102
}
330
5E
100
DictionaryVariables
280
     0
  1
STANDARD
  0
DICTIONARYVAR
  5
4E1
102
{ACAD_REACTORS
330
5E
102
}
330
5E
100
DictionaryVariables
280
     0
  1
Metric50
  0
DICTIONARYVAR
  5
4E2
102
{ACAD_REACTORS
330
5E
102
}
330
5E
100
DictionaryVariables
280
     0
  1
Metric50
  0
DICTIONARYVAR
  5
5F
102
{ACAD_REACTORS
330
5E
102
}
330
5E
100
DictionaryVariables
280
     0
  1
2
  0
DICTIONARYVAR
  5
63
102
{ACAD_REACTORS
330
5E
102
}
330
5E
100
DictionaryVariables
280
     0
  1
1
  0
DICTIONARYVAR
  5
4E6
102
{ACAD_REACTORS
330
5E
102
}
330
5E
100
DictionaryVariables
280
     0
  1
1
  0
DICTIONARYVAR
  5
4E7
102
{ACAD_REACTORS
330
5E
102
}
330
5E
100
DictionaryVariables
280
     0
  1
15
  0
DICTIONARYVAR
  5
4E5
102
{ACAD_REACTORS
330
5E
102
}
330
5E
100
DictionaryVariables
280
     0
  1
0
  0
DICTIONARYVAR
  5
4E3
102
{ACAD_REACTORS
330
5E
102
}
330
5E
100
DictionaryVariables
280
     0
  1
0
  0
DICTIONARY
  5
480
330
47F
100
AcDbDictionary
280
     1
281
     1
  3
BUMPTILE
360
482
  3
DIFFUSETILE
360
481
  3
OPACITYTILE
360
485
  3
REFLECTIONTILE
360
484
  3
REFRACTIONTILE
360
486
  3
SPECULARTILE
360
483
  0
DICTIONARY
  5
478
330
477
100
AcDbDictionary
280
     1
281
     1
  3
BUMPTILE
360
47A
  3
DIFFUSETILE
360
479
  3
OPACITYTILE
360
47D
  3
REFLECTIONTILE
360
47C
  3
REFRACTIONTILE
360
47E
  3
SPECULARTILE
360
47B
  0
DICTIONARY
  5
488
330
487
100
AcDbDictionary
280
     1
281
     1
  3
BUMPTILE
360
48A
  3
DIFFUSETILE
360
489
  3
OPACITYTILE
360
48D
  3
REFLECTIONTILE
360
48C
  3
REFRACTIONTILE
360
48E
  3
SPECULARTILE
360
48B
  0
DICTIONARY
  5
4E8
330
167
100
AcDbDictionary
280
     1
281
     1
  3
ACAD_ROUNDTRIP_2008_TABLESTYLE_CELLSTYLEMAP
360
4E9
  0
XRECORD
  5
482
102
{ACAD_REACTORS
330
480
102
}
330
480
100
AcDbXrecord
280
     1
270
     1
271
     1
  0
XRECORD
  5
481
102
{ACAD_REACTORS
330
480
102
}
330
480
100
AcDbXrecord
280
     1
270
     1
271
     1
  0
XRECORD
  5
485
102
{ACAD_REACTORS
330
480
102
}
330
480
100
AcDbXrecord
280
     1
270
     1
271
     1
  0
XRECORD
  5
484
102
{ACAD_REACTORS
330
480
102
}
330
480
100
AcDbXrecord
280
     1
270
     1
271
     1
  0
XRECORD
  5
486
102
{ACAD_REACTORS
330
480
102
}
330
480
100
AcDbXrecord
280
     1
270
     1
271
     1
  0
XRECORD
  5
483
102
{ACAD_REACTORS
330
480
102
}
330
480
100
AcDbXrecord
280
     1
270
     1
271
     1
  0
XRECORD
  5
47A
102
{ACAD_REACTORS
330
478
102
}
330
478
100
AcDbXrecord
280
     1
270
     1
271
     1
  0
XRECORD
  5
479
102
{ACAD_REACTORS
330
478
102
}
330
478
100
AcDbXrecord
280
     1
270
     1
271
     1
  0
XRECORD
  5
47D
102
{ACAD_REACTORS
330
478
102
}
330
478
100
AcDbXrecord
280
     1
270
     1
271
     1
  0
XRECORD
  5
47C
102
{ACAD_REACTORS
330
478
102
}
330
478
100
AcDbXrecord
280
     1
270
     1
271
     1
  0
XRECORD
  5
47E
102
{ACAD_REACTORS
330
478
102
}
330
478
100
AcDbXrecord
280
     1
270
     1
271
     1
  0
XRECORD
  5
47B
102
{ACAD_REACTORS
330
478
102
}
330
478
100
AcDbXrecord
280
     1
270
     1
271
     1
  0
XRECORD
  5
48A
102
{ACAD_REACTORS
330
488
102
}
330
488
100
AcDbXrecord
280
     1
270
     1
271
     1
  0
XRECORD
  5
489
102
{ACAD_REACTORS
330
488
102
}
330
488
100
AcDbXrecord
280
     1
270
     1
271
     1
  0
XRECORD
  5
48D
102
{ACAD_REACTORS
330
488
102
}
330
488
100
AcDbXrecord
280
     1
270
     1
271
     1
  0
XRECORD
  5
48C
102
{ACAD_REACTORS
330
488
102
}
330
488
100
AcDbXrecord
280
     1
270
     1
271
     1
  0
XRECORD
  5
48E
102
{ACAD_REACTORS
330
488
102
}
330
488
100
AcDbXrecord
280
     1
270
     1
271
     1
  0
XRECORD
  5
48B
102
{ACAD_REACTORS
330
488
102
}
330
488
100
AcDbXrecord
280
     1
270
     1
271
     1
  0
CELLSTYLEMAP
  5
4E9
102
{ACAD_REACTORS
330
4E8
102
}
330
4E8
100
AcDbCellStyleMap
 90
        3
300
CELLSTYLE
  1
TABLEFORMAT_BEGIN
 90
        5
170
     1
 91
        0
 92
    32768
 62
   257
 93
        1
300
CONTENTFORMAT
  1
CONTENTFORMAT_BEGIN
 90
        0
 91
        0
 92
        4
 93
        0
300

 40
0.0
140
1.0
 94
        5
 62
     0
340
11
144
6.0
309
CONTENTFORMAT_END
171
     1
301
MARGIN
  1
CELLMARGIN_BEGIN
 40
1.5
 40
1.5
 40
1.5
 40
1.5
 40
0.18
 40
0.18
309
CELLMARGIN_END
 94
        6
 95
        1
302
GRIDFORMAT
  1
GRIDFORMAT_BEGIN
 90
        0
 91
        1
 62
     0
 92
       -2
340
0
 93
        0
 40
0.045
309
GRIDFORMAT_END
 95
        2
302
GRIDFORMAT
  1
GRIDFORMAT_BEGIN
 90
        0
 91
        1
 62
     0
 92
       -2
340
0
 93
        0
 40
0.045
309
GRIDFORMAT_END
 95
        4
302
GRIDFORMAT
  1
GRIDFORMAT_BEGIN
 90
        0
 91
        1
 62
     0
 92
       -2
340
0
 93
        0
 40
0.045
309
GRIDFORMAT_END
 95
        8
302
GRIDFORMAT
  1
GRIDFORMAT_BEGIN
 90
        0
 91
        1
 62
     0
 92
       -2
340
0
 93
        0
 40
0.045
309
GRIDFORMAT_END
 95
       16
302
GRIDFORMAT
  1
GRIDFORMAT_BEGIN
 90
        0
 91
        1
 62
     0
 92
       -2
340
0
 93
        0
 40
0.045
309
GRIDFORMAT_END
 95
       32
302
GRIDFORMAT
  1
GRIDFORMAT_BEGIN
 90
        0
 91
        1
 62
     0
 92
       -2
340
0
 93
        0
 40
0.045
309
GRIDFORMAT_END
309
TABLEFORMAT_END
  1
CELLSTYLE_BEGIN
 90
        1
 91
        1
300
_TITLE
309
CELLSTYLE_END
300
CELLSTYLE
  1
TABLEFORMAT_BEGIN
 90
        5
170
     1
 91
        0
 92
        0
 62
   257
 93
        1
300
CONTENTFORMAT
  1
CONTENTFORMAT_BEGIN
 90
        0
 91
        0
 92
        4
 93
        0
300

 40
0.0
140
1.0
 94
        5
 62
     0
340
11
144
4.5
309
CONTENTFORMAT_END
171
     1
301
MARGIN
  1
CELLMARGIN_BEGIN
 40
1.5
 40
1.5
 40
1.5
 40
1.5
 40
0.18
 40
0.18
309
CELLMARGIN_END
 94
        6
 95
        1
302
GRIDFORMAT
  1
GRIDFORMAT_BEGIN
 90
        0
 91
        1
 62
     0
 92
       -2
340
0
 93
        0
 40
0.045
309
GRIDFORMAT_END
 95
        2
302
GRIDFORMAT
  1
GRIDFORMAT_BEGIN
 90
        0
 91
        1
 62
     0
 92
       -2
340
0
 93
        0
 40
0.045
309
GRIDFORMAT_END
 95
        4
302
GRIDFORMAT
  1
GRIDFORMAT_BEGIN
 90
        0
 91
        1
 62
     0
 92
       -2
340
0
 93
        0
 40
0.045
309
GRIDFORMAT_END
 95
        8
302
GRIDFORMAT
  1
GRIDFORMAT_BEGIN
 90
        0
 91
        1
 62
     0
 92
       -2
340
0
 93
        0
 40
0.045
309
GRIDFORMAT_END
 95
       16
302
GRIDFORMAT
  1
GRIDFORMAT_BEGIN
 90
        0
 91
        1
 62
     0
 92
       -2
340
0
 93
        0
 40
0.045
309
GRIDFORMAT_END
 95
       32
302
GRIDFORMAT
  1
GRIDFORMAT_BEGIN
 90
        0
 91
        1
 62
     0
 92
       -2
340
0
 93
        0
 40
0.045
309
GRIDFORMAT_END
309
TABLEFORMAT_END
  1
CELLSTYLE_BEGIN
 90
        2
 91
        1
300
_HEADER
309
CELLSTYLE_END
300
CELLSTYLE
  1
TABLEFORMAT_BEGIN
 90
        5
170
     1
 91
        0
 92
        0
 62
   257
 93
        1
300
CONTENTFORMAT
  1
CONTENTFORMAT_BEGIN
 90
        0
 91
        0
 92
        4
 93
        0
300

 40
0.0
140
1.0
 94
        2
 62
     0
340
11
144
4.5
309
CONTENTFORMAT_END
171
     1
301
MARGIN
  1
CELLMARGIN_BEGIN
 40
1.5
 40
1.5
 40
1.5
 40
1.5
 40
0.18
 40
0.18
309
CELLMARGIN_END
 94
        6
 95
        1
302
GRIDFORMAT
  1
GRIDFORMAT_BEGIN
 90
        0
 91
        1
 62
     0
 92
       -2
340
0
 93
        0
 40
0.045
309
GRIDFORMAT_END
 95
        2
302
GRIDFORMAT
  1
GRIDFORMAT_BEGIN
 90
        0
 91
        1
 62
     0
 92
       -2
340
0
 93
        0
 40
0.045
309
GRIDFORMAT_END
 95
        4
302
GRIDFORMAT
  1
GRIDFORMAT_BEGIN
 90
        0
 91
        1
 62
     0
 92
       -2
340
0
 93
        0
 40
0.045
309
GRIDFORMAT_END
 95
        8
302
GRIDFORMAT
  1
GRIDFORMAT_BEGIN
 90
        0
 91
        1
 62
     0
 92
       -2
340
0
 93
        0
 40
0.045
309
GRIDFORMAT_END
 95
       16
302
GRIDFORMAT
  1
GRIDFORMAT_BEGIN
 90
        0
 91
        1
 62
     0
 92
       -2
340
0
 93
        0
 40
0.045
309
GRIDFORMAT_END
 95
       32
302
GRIDFORMAT
  1
GRIDFORMAT_BEGIN
 90
        0
 91
        1
 62
     0
 92
       -2
340
0
 93
        0
 40
0.045
309
GRIDFORMAT_END
309
TABLEFORMAT_END
  1
CELLSTYLE_BEGIN
 90
        3
 91
        2
300
_DATA
309
CELLSTYLE_END
  0
ENDSEC
  0
EOF

