  0
SECTION
  2
HEADER
  9
$ACADVER
  1
AC1032
  9
$ACADMAINTVER
 90
      159
  9
$DWGCODEPAGE
  3
ANSI_1250
  9
$LASTSAVEDBY
  1
vancura
  9
$REQUIREDVERSIONS
160
                 0
  9
$INSBASE
 10
0.0
 20
0.0
 30
0.0
  9
$EXTMIN
 10
464.3344319514475
 20
614.5939273701984
 30
0.0
  9
$EXTMAX
 10
757.1718316779993
 20
1354.370237420912
 30
0.0
  9
$LIMMIN
 10
0.0
 20
0.0
  9
$LIMMAX
 10
420.0
 20
297.0
  9
$ORTHOMODE
 70
     1
  9
$REGENMODE
 70
     1
  9
$FILLMODE
 70
     1
  9
$QTEXTMODE
 70
     0
  9
$MIRRTEXT
 70
     1
  9
$LTSCALE
 40
1.0
  9
$ATTMODE
 70
     1
  9
$TEXTSIZE
 40
2.5
  9
$TRACEWID
 40
1.0
  9
$TEXTSTYLE
  7
Standard
  9
$CLAYER
  8
0
  9
$CELTYPE
  6
ByLayer
  9
$CECOLOR
 62
     6
  9
$CELTSCALE
 40
1.0
  9
$DISPSILH
 70
     0
  9
$DIMSCALE
 40
1.0
  9
$DIMASZ
 40
2.5
  9
$DIMEXO
 40
0.625
  9
$DIMDLI
 40
3.75
  9
$DIMRND
 40
0.0
  9
$DIMDLE
 40
0.0
  9
$DIMEXE
 40
1.25
  9
$DIMTP
 40
0.0
  9
$DIMTM
 40
0.0
  9
$DIMTXT
 40
2.5
  9
$DIMCEN
 40
2.5
  9
$DIMTSZ
 40
0.0
  9
$DIMTOL
 70
     0
  9
$DIMLIM
 70
     0
  9
$DIMTIH
 70
     0
  9
$DIMTOH
 70
     0
  9
$DIMSE1
 70
     0
  9
$DIMSE2
 70
     0
  9
$DIMTAD
 70
     1
  9
$DIMZIN
 70
     8
  9
$DIMBLK
  1

  9
$DIMASO
 70
     1
  9
$DIMSHO
 70
     1
  9
$DIMPOST
  1

  9
$DIMAPOST
  1

  9
$DIMALT
 70
     0
  9
$DIMALTD
 70
     3
  9
$DIMALTF
 40
0.03937007874016
  9
$DIMLFAC
 40
1.0
  9
$DIMTOFL
 70
     1
  9
$DIMTVP
 40
0.0
  9
$DIMTIX
 70
     0
  9
$DIMSOXD
 70
     0
  9
$DIMSAH
 70
     0
  9
$DIMBLK1
  1

  9
$DIMBLK2
  1

  9
$DIMSTYLE
  2
ISO-25
  9
$DIMCLRD
 70
     0
  9
$DIMCLRE
 70
     0
  9
$DIMCLRT
 70
     0
  9
$DIMTFAC
 40
1.0
  9
$DIMGAP
 40
0.625
  9
$DIMJUST
 70
     0
  9
$DIMSD1
 70
     0
  9
$DIMSD2
 70
     0
  9
$DIMTOLJ
 70
     0
  9
$DIMTZIN
 70
     8
  9
$DIMALTZ
 70
     0
  9
$DIMALTTZ
 70
     0
  9
$DIMUPT
 70
     0
  9
$DIMDEC
 70
     2
  9
$DIMTDEC
 70
     2
  9
$DIMALTU
 70
     2
  9
$DIMALTTD
 70
     3
  9
$DIMTXSTY
  7
Standard
  9
$DIMAUNIT
 70
     0
  9
$DIMADEC
 70
     0
  9
$DIMALTRND
 40
0.0
  9
$DIMAZIN
 70
     0
  9
$DIMDSEP
 70
    44
  9
$DIMATFIT
 70
     3
  9
$DIMFRAC
 70
     0
  9
$DIMLDRBLK
  1

  9
$DIMLUNIT
 70
     2
  9
$DIMLWD
 70
    -2
  9
$DIMLWE
 70
    -2
  9
$DIMTMOVE
 70
     0
  9
$DIMFXL
 40
1.0
  9
$DIMFXLON
 70
     0
  9
$DIMJOGANG
 40
0.7853981633974483
  9
$DIMTFILL
 70
     0
  9
$DIMTFILLCLR
 70
     0
  9
$DIMARCSYM
 70
     0
  9
$DIMLTYPE
  6

  9
$DIMLTEX1
  6

  9
$DIMLTEX2
  6

  9
$DIMTXTDIRECTION
 70
     0
  9
$LUNITS
 70
     2
  9
$LUPREC
 70
     4
  9
$SKETCHINC
 40
1.0
  9
$FILLETRAD
 40
1.0
  9
$AUNITS
 70
     0
  9
$AUPREC
 70
     0
  9
$MENU
  1
.
  9
$ELEVATION
 40
0.0
  9
$PELEVATION
 40
0.0
  9
$THICKNESS
 40
0.0
  9
$LIMCHECK
 70
     0
  9
$CHAMFERA
 40
10.0
  9
$CHAMFERB
 40
10.0
  9
$CHAMFERC
 40
20.0
  9
$CHAMFERD
 40
0.0
  9
$SKPOLY
 70
     0
  9
$TDCREATE
 40
2453579.249560185
  9
$TDUCREATE
 40
2453579.166237500
  9
$TDUPDATE
 40
2459584.427962963
  9
$TDUUPDATE
 40
2459584.386296297
  9
$TDINDWG
 40
0.2134290278
  9
$TDUSRTIMER
 40
0.2134208102
  9
$USRTIMER
 70
     1
  9
$ANGBASE
 50
0.0
  9
$ANGDIR
 70
     0
  9
$PDMODE
 70
     0
  9
$PDSIZE
 40
0.0
  9
$PLINEWID
 40
0.0
  9
$SPLFRAME
 70
     0
  9
$SPLINETYPE
 70
     6
  9
$SPLINESEGS
 70
     8
  9
$HANDSEED
  5
78E
  9
$SURFTAB1
 70
     6
  9
$SURFTAB2
 70
     6
  9
$SURFTYPE
 70
     6
  9
$SURFU
 70
     6
  9
$SURFV
 70
     6
  9
$UCSBASE
  2

  9
$UCSNAME
  2

  9
$UCSORG
 10
0.0
 20
0.0
 30
0.0
  9
$UCSXDIR
 10
1.0
 20
0.0
 30
0.0
  9
$UCSYDIR
 10
0.0
 20
1.0
 30
0.0
  9
$UCSORTHOREF
  2

  9
$UCSORTHOVIEW
 70
     0
  9
$UCSORGTOP
 10
0.0
 20
0.0
 30
0.0
  9
$UCSORGBOTTOM
 10
0.0
 20
0.0
 30
0.0
  9
$UCSORGLEFT
 10
0.0
 20
0.0
 30
0.0
  9
$UCSORGRIGHT
 10
0.0
 20
0.0
 30
0.0
  9
$UCSORGFRONT
 10
0.0
 20
0.0
 30
0.0
  9
$UCSORGBACK
 10
0.0
 20
0.0
 30
0.0
  9
$PUCSBASE
  2

  9
$PUCSNAME
  2

  9
$PUCSORG
 10
0.0
 20
0.0
 30
0.0
  9
$PUCSXDIR
 10
1.0
 20
0.0
 30
0.0
  9
$PUCSYDIR
 10
0.0
 20
1.0
 30
0.0
  9
$PUCSORTHOREF
  2

  9
$PUCSORTHOVIEW
 70
     0
  9
$PUCSORGTOP
 10
0.0
 20
0.0
 30
0.0
  9
$PUCSORGBOTTOM
 10
0.0
 20
0.0
 30
0.0
  9
$PUCSORGLEFT
 10
0.0
 20
0.0
 30
0.0
  9
$PUCSORGRIGHT
 10
0.0
 20
0.0
 30
0.0
  9
$PUCSORGFRONT
 10
0.0
 20
0.0
 30
0.0
  9
$PUCSORGBACK
 10
0.0
 20
0.0
 30
0.0
  9
$USERI1
 70
     0
  9
$USERI2
 70
     0
  9
$USERI3
 70
     0
  9
$USERI4
 70
     0
  9
$USERI5
 70
     0
  9
$USERR1
 40
0.0
  9
$USERR2
 40
0.0
  9
$USERR3
 40
0.0
  9
$USERR4
 40
0.0
  9
$USERR5
 40
0.0
  9
$WORLDVIEW
 70
     1
  9
$SHADEDGE
 70
     3
  9
$SHADEDIF
 70
    70
  9
$TILEMODE
 70
     1
  9
$MAXACTVP
 70
    64
  9
$PINSBASE
 10
0.0
 20
0.0
 30
0.0
  9
$PLIMCHECK
 70
     0
  9
$PEXTMIN
 10
0.0
 20
0.0
 30
0.0
  9
$PEXTMAX
 10
0.0
 20
0.0
 30
0.0
  9
$PLIMMIN
 10
0.0
 20
0.0
  9
$PLIMMAX
 10
12.0
 20
9.0
  9
$UNITMODE
 70
     0
  9
$VISRETAIN
 70
     1
  9
$PLINEGEN
 70
     0
  9
$PSLTSCALE
 70
     1
  9
$TREEDEPTH
 70
  3020
  9
$CMLSTYLE
  2
Standard
  9
$CMLJUST
 70
     0
  9
$CMLSCALE
 40
20.0
  9
$PROXYGRAPHICS
 70
     1
  9
$MEASUREMENT
 70
     1
  9
$CELWEIGHT
370
    -1
  9
$ENDCAPS
280
     0
  9
$JOINSTYLE
280
     0
  9
$LWDISPLAY
290
     0
  9
$INSUNITS
 70
     4
  9
$HYPERLINKBASE
  1

  9
$STYLESHEET
  1

  9
$XEDIT
290
     1
  9
$CEPSNTYPE
380
     0
  9
$PSTYLEMODE
290
     1
  9
$FINGERPRINTGUID
  2
{FDEAD578-A652-11D2-9A35-0060089B3A3F}
  9
$VERSIONGUID
  2
{76FBF07F-B308-C146-993F-0F080F45DB69}
  9
$EXTNAMES
290
     1
  9
$PSVPSCALE
 40
0.0
  9
$OLESTARTUP
290
     0
  9
$SORTENTS
280
   127
  9
$INDEXCTL
280
     0
  9
$HIDETEXT
280
     1
  9
$XCLIPFRAME
280
     0
  9
$HALOGAP
280
     0
  9
$OBSCOLOR
 70
   257
  9
$OBSLTYPE
280
     0
  9
$INTERSECTIONDISPLAY
280
     0
  9
$INTERSECTIONCOLOR
 70
   257
  9
$DIMASSOC
280
     2
  9
$PROJECTNAME
  1

  9
$CAMERADISPLAY
290
     0
  9
$LENSLENGTH
 40
50.0
  9
$CAMERAHEIGHT
 40
0.0
  9
$STEPSPERSEC
 40
2.0
  9
$STEPSIZE
 40
6.0
  9
$3DDWFPREC
 40
2.0
  9
$PSOLWIDTH
 40
0.25
  9
$PSOLHEIGHT
 40
4.0
  9
$LOFTANG1
 40
1.570796326794896
  9
$LOFTANG2
 40
1.570796326794896
  9
$LOFTMAG1
 40
0.0
  9
$LOFTMAG2
 40
0.0
  9
$LOFTPARAM
 70
     7
  9
$LOFTNORMALS
280
     1
  9
$LATITUDE
 40
37.795
  9
$LONGITUDE
 40
-122.394
  9
$NORTHDIRECTION
 40
0.0
  9
$TIMEZONE
 70
 -8000
  9
$LIGHTGLYPHDISPLAY
280
     1
  9
$TILEMODELIGHTSYNCH
280
     1
  9
$CMATERIAL
347
6AC
  9
$SOLIDHIST
280
     0
  9
$SHOWHIST
280
     1
  9
$DWFFRAME
280
     2
  9
$DGNFRAME
280
     0
  9
$REALWORLDSCALE
290
     1
  9
$INTERFERECOLOR
 62
     1
  9
$INTERFEREOBJVS
345
6CE
  9
$INTERFEREVPVS
346
6CB
  9
$CSHADOW
280
     0
  9
$SHADOWPLANELOCATION
 40
0.0
  0
ENDSEC
  0
SECTION
  2
CLASSES
  0
CLASS
  1
ACDBDICTIONARYWDFLT
  2
AcDbDictionaryWithDefault
  3
ObjectDBX Classes
 90
        0
 91
        1
280
     0
281
     0
  0
CLASS
  1
DICTIONARYVAR
  2
AcDbDictionaryVar
  3
ObjectDBX Classes
 90
        0
 91
       11
280
     0
281
     0
  0
CLASS
  1
DIMASSOC
  2
AcDbDimAssoc
  3
"AcDbDimAssoc|Product Desc:     AcDim ARX App For Dimension|Company:          Autodesk, Inc.|WEB Address:      www.autodesk.com"
 90
        0
 91
        2
280
     0
281
     0
  0
CLASS
  1
TABLESTYLE
  2
AcDbTableStyle
  3
ObjectDBX Classes
 90
     4095
 91
        1
280
     0
281
     0
  0
CLASS
  1
SORTENTSTABLE
  2
AcDbSortentsTable
  3
ObjectDBX Classes
 90
        0
 91
        2
280
     0
281
     0
  0
CLASS
  1
MATERIAL
  2
AcDbMaterial
  3
ObjectDBX Classes
 90
     1153
 91
        3
280
     0
281
     0
  0
CLASS
  1
VISUALSTYLE
  2
AcDbVisualStyle
  3
ObjectDBX Classes
 90
     4095
 91
       24
280
     0
281
     0
  0
CLASS
  1
SCALE
  2
AcDbScale
  3
ObjectDBX Classes
 90
     1153
 91
       17
280
     0
281
     0
  0
CLASS
  1
MLEADERSTYLE
  2
AcDbMLeaderStyle
  3
ACDB_MLEADERSTYLE_CLASS
 90
     4095
 91
        1
280
     0
281
     0
  0
CLASS
  1
ACDBSECTIONVIEWSTYLE
  2
AcDbSectionViewStyle
  3
ObjectDBX Classes
 90
     1025
 91
        2
280
     0
281
     0
  0
CLASS
  1
ACDBDETAILVIEWSTYLE
  2
AcDbDetailViewStyle
  3
ObjectDBX Classes
 90
     1025
 91
        2
280
     0
281
     0
  0
CLASS
  1
CELLSTYLEMAP
  2
AcDbCellStyleMap
  3
ObjectDBX Classes
 90
     1152
 91
        2
280
     0
281
     0
  0
ENDSEC
  0
SECTION
  2
TABLES
  0
TABLE
  2
VPORT
  5
8
330
0
100
AcDbSymbolTable
 70
     1
  0
VPORT
  5
6A9
330
8
100
AcDbSymbolTableRecord
100
AcDbViewportTableRecord
  2
*Active
 70
     0
 10
0.0
 20
0.0
 11
1.0
 21
1.0
 12
543.0662579105548
 22
662.1137684662178
 13
0.0
 23
0.0
 14
10.0
 24
10.0
 15
10.0
 25
10.0
 16
0.0
 26
0.0
 36
1.0
 17
0.0
 27
0.0
 37
0.0
 40
207.8205252564233
 41
1.900877192982456
 42
50.0
 43
0.0
 44
0.0
 50
0.0
 51
0.0
 71
     0
 72
  1000
 73
     1
 74
     3
 75
     0
 76
     0
 77
     0
 78
     0
281
     0
 65
     1
110
0.0
120
0.0
130
0.0
111
1.0
121
0.0
131
0.0
112
0.0
122
1.0
132
0.0
 79
     0
146
0.0
348
6CA
 60
     3
 61
     5
292
     1
282
     1
141
0.0
142
0.0
 63
   250
421
  3355443
1001
ACAD_NAV_VCDISPLAY
1070
     3
  0
ENDTAB
  0
TABLE
  2
LTYPE
  5
5
330
0
100
AcDbSymbolTable
 70
     4
  0
LTYPE
  5
14
330
5
100
AcDbSymbolTableRecord
100
AcDbLinetypeTableRecord
  2
ByBlock
 70
     0
  3

 72
    65
 73
     0
 40
0.0
  0
LTYPE
  5
15
330
5
100
AcDbSymbolTableRecord
100
AcDbLinetypeTableRecord
  2
ByLayer
 70
     0
  3

 72
    65
 73
     0
 40
0.0
  0
LTYPE
  5
16
330
5
100
AcDbSymbolTableRecord
100
AcDbLinetypeTableRecord
  2
Continuous
 70
     0
  3
Solid line
 72
    65
 73
     0
 40
0.0
  0
LTYPE
  5
A8
330
5
100
AcDbSymbolTableRecord
100
AcDbLinetypeTableRecord
  2
ACAD_ISO02W100
 70
     0
  3
ISO čárkovaná __ __ __ __ __ __ __ __ __ __ __ 
 72
    65
 73
     2
 40
15.0
 49
12.0
 74
     0
 49
-3.0
 74
     0
  0
LTYPE
  5
A9
330
5
100
AcDbSymbolTableRecord
100
AcDbLinetypeTableRecord
  2
ACAD_ISO10W100
 70
     0
  3
ISO čerchovaná __ . __ . __ . __ . __ . __ . __
 72
    65
 73
     4
 40
18.0
 49
12.0
 74
     0
 49
-3.0
 74
     0
 49
0.0
 74
     0
 49
-3.0
 74
     0
  0
ENDTAB
  0
TABLE
  2
LAYER
  5
2
102
{ACAD_XDICTIONARY
360
513
102
}
330
0
100
AcDbSymbolTable
 70
     4
  0
LAYER
  5
10
102
{ACAD_XDICTIONARY
360
770
102
}
330
2
100
AcDbSymbolTableRecord
100
AcDbLayerTableRecord
  2
0
 70
     0
 62
     7
  6
Continuous
370
    -3
390
F
347
6BC
348
0
  0
LAYER
  5
AC
330
2
100
AcDbSymbolTableRecord
100
AcDbLayerTableRecord
  2
Defpoints
 70
     0
 62
     7
  6
Continuous
290
     0
370
    -3
390
F
347
6BC
348
0
  0
LAYER
  5
21B
102
{ACAD_XDICTIONARY
360
772
102
}
330
2
100
AcDbSymbolTableRecord
100
AcDbLayerTableRecord
  2
Hladina1
 70
     0
 62
     5
  6
Continuous
370
    -3
390
F
347
6BC
348
0
  0
LAYER
  5
715
102
{ACAD_XDICTIONARY
360
716
102
}
330
2
100
AcDbSymbolTableRecord
100
AcDbLayerTableRecord
  2
BEMASSUNG
 70
     0
 62
     7
  6
Continuous
370
     0
390
F
347
6BC
348
0
1001
TCAD
1000
TCW_LAYER_ORDER
1002
{
1071
        0
1002
}
  0
ENDTAB
  0
TABLE
  2
STYLE
  5
3
330
0
100
AcDbSymbolTable
 70
     3
  0
STYLE
  5
11
330
3
100
AcDbSymbolTableRecord
100
AcDbTextStyleTableRecord
  2
Standard
 70
     0
 40
0.0
 41
1.0
 50
0.0
 71
     0
 42
2.5
  3
txt
  4

  0
STYLE
  5
A7
330
3
100
AcDbSymbolTableRecord
100
AcDbTextStyleTableRecord
  2

 70
     1
 40
0.0
 41
1.0
 50
0.0
 71
     0
 42
2.5
  3
ltypeshp.shx
  4

  0
STYLE
  5
50F
330
3
100
AcDbSymbolTableRecord
100
AcDbTextStyleTableRecord
  2
ROMANS
 70
     0
 40
0.0
 41
0.8
 50
0.0
 71
     0
 42
4.0
  3
ROMANS.SHX
  4

  0
ENDTAB
  0
TABLE
  2
VIEW
  5
6
330
0
100
AcDbSymbolTable
 70
     0
  0
ENDTAB
  0
TABLE
  2
UCS
  5
7
330
0
100
AcDbSymbolTable
 70
     0
  0
ENDTAB
  0
TABLE
  2
APPID
  5
9
330
0
100
AcDbSymbolTable
 70
     7
  0
APPID
  5
12
330
9
100
AcDbSymbolTableRecord
100
AcDbRegAppTableRecord
  2
ACAD
 70
     0
  0
APPID
  5
446
330
9
100
AcDbSymbolTableRecord
100
AcDbRegAppTableRecord
  2
ACAD_EXEMPT_FROM_CAD_STANDARDS
 70
     0
  0
APPID
  5
512
330
9
100
AcDbSymbolTableRecord
100
AcDbRegAppTableRecord
  2
ACAD_PSEXT
 70
     0
  0
APPID
  5
708
330
9
100
AcDbSymbolTableRecord
100
AcDbRegAppTableRecord
  2
ACAD_NAV_VCDISPLAY
 70
     0
  0
APPID
  5
717
330
9
100
AcDbSymbolTableRecord
100
AcDbRegAppTableRecord
  2
ACAD_DSTYLE_DIMJOGGED_JOGANGLE_SYMBOL
 70
     0
  0
APPID
  5
718
330
9
100
AcDbSymbolTableRecord
100
AcDbRegAppTableRecord
  2
TCAD
 70
     0
  0
APPID
  5
75A
330
9
100
AcDbSymbolTableRecord
100
AcDbRegAppTableRecord
  2
AcadAnnoMonitorAlertIconDisabled
 70
     0
  0
ENDTAB
  0
TABLE
  2
DIMSTYLE
  5
A
330
0
100
AcDbSymbolTable
 70
     4
100
AcDbDimStyleTable
 71
     1
340
27
  0
DIMSTYLE
105
27
102
{ACAD_REACTORS
330
2F1
330
2F2
330
351
330
2EB
330
727
102
}
330
A
100
AcDbSymbolTableRecord
100
AcDbDimStyleTableRecord
  2
ISO-25
 70
     0
 41
2.5
 42
0.625
 43
3.75
 44
1.25
 73
     0
 74
     0
 77
     1
 78
     8
140
2.5
141
2.5
143
0.03937007874016
147
0.625
171
     3
172
     1
271
     2
272
     2
274
     3
278
    44
283
     0
284
     8
340
11
  0
DIMSTYLE
105
510
330
A
100
AcDbSymbolTableRecord
100
AcDbDimStyleTableRecord
  2
Standard
 70
     0
340
11
  0
DIMSTYLE
105
511
330
A
100
AcDbSymbolTableRecord
100
AcDbDimStyleTableRecord
  2
PROFI_CSN
 70
     0
 40
0.0
 41
3.0
 42
0.0
 43
8.0
 44
1.0
 73
     0
 74
     0
 77
     1
 78
     9
 79
     2
140
3.5
141
0.0
143
0.03937
144
-1.0
146
0.6
147
1.5
172
     1
176
   256
177
   256
178
   256
179
     2
271
     2
272
     2
277
     6
284
     8
285
     8
286
     8
289
     0
340
50F
341
502
342
502
343
502
344
502
  0
ENDTAB
  0
TABLE
  2
BLOCK_RECORD
  5
1
330
0
100
AcDbSymbolTable
 70
    31
  0
BLOCK_RECORD
  5
1F
102
{ACAD_XDICTIONARY
360
459
102
}
330
1
100
AcDbSymbolTableRecord
100
AcDbBlockTableRecord
  2
*Model_Space
340
22
 70
     0
280
     1
281
     0
  0
BLOCK_RECORD
  5
50
330
1
100
AcDbSymbolTableRecord
100
AcDbBlockTableRecord
  2
*Paper_Space
340
51
 70
     0
280
     1
281
     0
  0
BLOCK_RECORD
  5
55
330
1
100
AcDbSymbolTableRecord
100
AcDbBlockTableRecord
  2
*Paper_Space0
340
56
 70
     0
280
     1
281
     0
  0
BLOCK_RECORD
  5
AD
330
1
100
AcDbSymbolTableRecord
100
AcDbBlockTableRecord
  2
*D1
340
0
 70
     0
280
     1
281
     0
  0
BLOCK_RECORD
  5
C5
330
1
100
AcDbSymbolTableRecord
100
AcDbBlockTableRecord
  2
*D2
340
0
 70
     0
280
     1
281
     0
  0
BLOCK_RECORD
  5
DD
330
1
100
AcDbSymbolTableRecord
100
AcDbBlockTableRecord
  2
*D3
340
0
 70
     0
280
     1
281
     0
  0
BLOCK_RECORD
  5
F5
330
1
100
AcDbSymbolTableRecord
100
AcDbBlockTableRecord
  2
*D4
340
0
 70
     0
280
     1
281
     0
  0
BLOCK_RECORD
  5
10D
330
1
100
AcDbSymbolTableRecord
100
AcDbBlockTableRecord
  2
*D5
340
0
 70
     0
280
     1
281
     0
  0
BLOCK_RECORD
  5
175
330
1
100
AcDbSymbolTableRecord
100
AcDbBlockTableRecord
  2
*D6
340
0
 70
     0
280
     1
281
     0
  0
BLOCK_RECORD
  5
181
330
1
100
AcDbSymbolTableRecord
100
AcDbBlockTableRecord
  2
*D7
340
0
 70
     0
280
     1
281
     0
  0
BLOCK_RECORD
  5
18D
330
1
100
AcDbSymbolTableRecord
100
AcDbBlockTableRecord
  2
*D8
340
0
 70
     0
280
     1
281
     0
  0
BLOCK_RECORD
  5
199
330
1
100
AcDbSymbolTableRecord
100
AcDbBlockTableRecord
  2
*D9
340
0
 70
     0
280
     1
281
     0
  0
BLOCK_RECORD
  5
1A5
330
1
100
AcDbSymbolTableRecord
100
AcDbBlockTableRecord
  2
*D10
340
0
 70
     0
280
     1
281
     0
  0
BLOCK_RECORD
  5
1B1
330
1
100
AcDbSymbolTableRecord
100
AcDbBlockTableRecord
  2
*D11
340
0
 70
     0
280
     1
281
     0
  0
BLOCK_RECORD
  5
1BD
330
1
100
AcDbSymbolTableRecord
100
AcDbBlockTableRecord
  2
*D12
340
0
 70
     0
280
     1
281
     0
  0
BLOCK_RECORD
  5
1C9
330
1
100
AcDbSymbolTableRecord
100
AcDbBlockTableRecord
  2
*D13
340
0
 70
     0
280
     1
281
     0
  0
BLOCK_RECORD
  5
1D5
330
1
100
AcDbSymbolTableRecord
100
AcDbBlockTableRecord
  2
2
340
0
310
2800000020000000200000000100080000000000000400000000000000000000000000000000000000000000000080000080000000808000800000008000800080800000C0C0C000C0DCC000F0CAA6000020400000206000002080000020A0000020C0000020E00000400000004020000040400000406000004080000040A0
310
000040C0000040E00000600000006020000060400000606000006080000060A0000060C0000060E00000800000008020000080400000806000008080000080A0000080C0000080E00000A0000000A0200000A0400000A0600000A0800000A0A00000A0C00000A0E00000C0000000C0200000C0400000C0600000C0800000C0
310
A00000C0C00000C0E00000E0000000E0200000E0400000E0600000E0800000E0A00000E0C00000E0E00040000000400020004000400040006000400080004000A0004000C0004000E00040200000402020004020400040206000402080004020A0004020C0004020E000404000004040200040404000404060004040800040
310
40A0004040C0004040E00040600000406020004060400040606000406080004060A0004060C0004060E00040800000408020004080400040806000408080004080A0004080C0004080E00040A0000040A0200040A0400040A0600040A0800040A0A00040A0C00040A0E00040C0000040C0200040C0400040C0600040C08000
310
40C0A00040C0C00040C0E00040E0000040E0200040E0400040E0600040E0800040E0A00040E0C00040E0E00080000000800020008000400080006000800080008000A0008000C0008000E00080200000802020008020400080206000802080008020A0008020C0008020E00080400000804020008040400080406000804080
310
008040A0008040C0008040E00080600000806020008060400080606000806080008060A0008060C0008060E00080800000808020008080400080806000808080008080A0008080C0008080E00080A0000080A0200080A0400080A0600080A0800080A0A00080A0C00080A0E00080C0000080C0200080C0400080C0600080C0
310
800080C0A00080C0C00080C0E00080E0000080E0200080E0400080E0600080E0800080E0A00080E0C00080E0E000C0000000C0002000C0004000C0006000C0008000C000A000C000C000C000E000C0200000C0202000C0204000C0206000C0208000C020A000C020C000C020E000C0400000C0402000C0404000C0406000C0
310
408000C040A000C040C000C040E000C0600000C0602000C0604000C0606000C0608000C060A000C060C000C060E000C0800000C0802000C0804000C0806000C0808000C080A000C080C000C080E000C0A00000C0A02000C0A04000C0A06000C0A08000C0A0A000C0A0C000C0A0E000C0C00000C0C02000C0C04000C0C06000
310
C0C08000C0C0A000F0FBFF00A4A0A000808080000000FF0000FF000000FFFF00FF000000FF00FF00FFFF0000FFFFFF0000000000000000000000000000000000000000000000000000000000000000000000000000000000000000000000000000000000000000000000000000000000000000000000000000000000000000
310
0000000000000000000000000000000000000000000000FCFCFCFCFCFCFCFCFCFCFCFCFCFC000000000000000000000000000000FCFCFCFCFCFCFCFCFCFCFCFCFCFC000000FCFC000000000000000000000000FCFCFCFCFCFC0000000000000000FC00FCFCFCFC000000000000000000000000FCFCFC00FCFC000000000000
310
0000FC00FC00FCFCFC0000000000000000000000FCFC0000FCFC0000000000000000FC00FC00FCFC000000000000000000000000FCFC0000FCFC0000000000FCFCFCFC00FC0000000000000000000000000000000000FCFCFCFCFC000000FCFC0000FC0000FCFC00000000000000000000000000FCFC0000FC00FCFCFCFCFC
310
FCFCFC0000FCFCFCFC000000000000000000000000FCFCFCFCFCFC0000FCFCFCFC0000FC00FC00FCFC000000000000000000000000FCFC0000FCFCFCFC00FCFC000000FC00FC00FCFC000000000000000000000000FCFC0000FCFC00FCFCFC00000000FC00FC000000000000000000000000000000FC000000FCFC00000000
310
00000000FC00FC000000000000000000000000000000000000FCFCFC000000000000000000FCFC00000000000000000000000000000000FCFCFC00FC000000000000000000FC00FC0000000000000000000000000000FC00FCFCFCFC000000000000000000FC00FC0000000000000000000000000000FCFCFC00FCFC000000
310
000000000000FC00FC0000000000000000000000000000FCFC0000FCFCFC00000000000000FC0000FC0000000000000000000000000000FCFC0000FC0000FCFCFC0000FCFC000000FC000000000000000000000000000000000000FC00FCFCFCFCFCFCFCFCFCFCFC00FC00000000000000000000000000000000FC0000FC00
310
000000000000000000FCFCFC00000000000000FC000000000000FC0000FC00000000000000000000000000FC000000000000FCFCFC00000000FC000000FC00000000FCFCFCFCFCFCFC000000FC00FCFCFCFC00FC00000000FC000000FCFCFCFCFCFC00FCFCFCFCFC00FCFC0000FCFC0000FCFC0000000000FC00FCFCFCFCFC
310
FCFCFCFCFC000000FCFCFCFC00000000FCFC00000000000000FCFC00000000000000000000FC0000000000FCFC000000FC00000000000000000000000000000000000000FCFCFCFCFCFCFC000000FCFC00000000000000000000000000000000000000000000000000FCFCFCFCFC0000000000000000000000000000000000
310
0000000000000000000000000000000000000000000000000000000000000000000000000000000000000000000000000000000000000000
102
{BLKREFS
331
34D
102
}
 70
     4
280
     1
281
     0
  0
BLOCK_RECORD
  5
203
330
1
100
AcDbSymbolTableRecord
100
AcDbBlockTableRecord
  2
*D15
340
0
 70
     0
280
     1
281
     0
  0
BLOCK_RECORD
  5
20F
330
1
100
AcDbSymbolTableRecord
100
AcDbBlockTableRecord
  2
*D16
340
0
 70
     0
280
     1
281
     0
  0
BLOCK_RECORD
  5
352
330
1
100
AcDbSymbolTableRecord
100
AcDbBlockTableRecord
  2
*D17
340
0
 70
     0
280
     1
281
     0
  0
BLOCK_RECORD
  5
35E
330
1
100
AcDbSymbolTableRecord
100
AcDbBlockTableRecord
  2
*D18
340
0
 70
     0
280
     1
281
     0
  0
BLOCK_RECORD
  5
36A
330
1
100
AcDbSymbolTableRecord
100
AcDbBlockTableRecord
  2
*D19
340
0
 70
     0
280
     1
281
     0
  0
BLOCK_RECORD
  5
376
330
1
100
AcDbSymbolTableRecord
100
AcDbBlockTableRecord
  2
*D20
340
0
 70
     0
280
     1
281
     0
  0
BLOCK_RECORD
  5
38B
330
1
100
AcDbSymbolTableRecord
100
AcDbBlockTableRecord
  2
*D21
340
0
 70
     0
280
     1
281
     0
  0
BLOCK_RECORD
  5
3A9
330
1
100
AcDbSymbolTableRecord
100
AcDbBlockTableRecord
  2
*D22
340
0
 70
     0
280
     1
281
     0
  0
BLOCK_RECORD
  5
3B5
330
1
100
AcDbSymbolTableRecord
100
AcDbBlockTableRecord
  2
*D23
340
0
 70
     0
280
     1
281
     0
  0
BLOCK_RECORD
  5
3C1
330
1
100
AcDbSymbolTableRecord
100
AcDbBlockTableRecord
  2
*D24
340
0
 70
     0
280
     1
281
     0
  0
BLOCK_RECORD
  5
3CD
330
1
100
AcDbSymbolTableRecord
100
AcDbBlockTableRecord
  2
*D25
340
0
 70
     0
280
     1
281
     0
  0
BLOCK_RECORD
  5
3D9
330
1
100
AcDbSymbolTableRecord
100
AcDbBlockTableRecord
  2
*D26
340
0
 70
     0
280
     1
281
     0
  0
BLOCK_RECORD
  5
502
330
1
100
AcDbSymbolTableRecord
100
AcDbBlockTableRecord
  2
PRCLFILL
340
0
 70
     0
280
     1
281
     0
  0
BLOCK_RECORD
  5
70B
102
{ACAD_XDICTIONARY
360
711
102
}
330
1
100
AcDbSymbolTableRecord
100
AcDbBlockTableRecord
  2
A$Cbf5c47b3
340
0
 70
     1
280
     1
281
     0
  0
BLOCK_RECORD
  5
72A
330
1
100
AcDbSymbolTableRecord
100
AcDbBlockTableRecord
  2
*D29
340
0
 70
     0
280
     1
281
     0
  0
ENDTAB
  0
ENDSEC
  0
SECTION
  2
BLOCKS
  0
BLOCK
  5
20
330
1F
100
AcDbEntity
  8
0
100
AcDbBlockBegin
  2
*Model_Space
 70
     0
 10
0.0
 20
0.0
 30
0.0
  3
*Model_Space
  1

  0
ENDBLK
  5
21
330
1F
100
AcDbEntity
  8
0
100
AcDbBlockEnd
  0
BLOCK
  5
52
330
50
100
AcDbEntity
 67
     1
  8
0
100
AcDbBlockBegin
  2
*Paper_Space
 70
     0
 10
0.0
 20
0.0
 30
0.0
  3
*Paper_Space
  1

  0
ENDBLK
  5
53
330
50
100
AcDbEntity
 67
     1
  8
0
100
AcDbBlockEnd
  0
BLOCK
  5
57
330
55
100
AcDbEntity
 67
     1
  8
0
100
AcDbBlockBegin
  2
*Paper_Space0
 70
     0
 10
0.0
 20
0.0
 30
0.0
  3
*Paper_Space0
  1

  0
ENDBLK
  5
58
330
55
100
AcDbEntity
 67
     1
  8
0
100
AcDbBlockEnd
  0
BLOCK
  5
B7
330
AD
100
AcDbEntity
  8
0
100
AcDbBlockBegin
  2
*D1
 70
     1
 10
0.0
 20
0.0
 30
0.0
  3
*D1
  1

  0
LINE
  5
BA
330
AD
100
AcDbEntity
  8
0
 62
     0
370
    -2
100
AcDbLine
 10
449.0907501610388
 20
621.7988724066182
 30
0.0
 11
449.0907501610388
 21
628.1936835555391
 31
0.0
  0
LINE
  5
BB
330
AD
100
AcDbEntity
  8
0
 62
     0
370
    -2
100
AcDbLine
 10
458.0907501610392
 20
618.7988724066181
 30
0.0
 11
458.0907501610392
 21
628.1936835555391
 31
0.0
  0
LINE
  5
BC
330
AD
100
AcDbEntity
  8
0
 62
     0
370
    -2
100
AcDbLine
 10
451.590750161039
 20
626.9436835555389
 30
0.0
 11
455.590750161039
 21
626.9436835555389
 31
0.0
  0
SOLID
  5
BD
330
AD
100
AcDbEntity
  8
0
 62
     0
100
AcDbTrace
 10
451.590750161039
 20
627.3603502222057
 30
0.0
 11
451.590750161039
 21
626.5270168888725
 31
0.0
 12
449.0907501610388
 22
626.9436835555389
 32
0.0
 13
449.0907501610388
 23
626.9436835555389
 33
0.0
  0
SOLID
  5
BE
330
AD
100
AcDbEntity
  8
0
 62
     0
100
AcDbTrace
 10
455.590750161039
 20
627.3603502222057
 30
0.0
 11
455.590750161039
 21
626.5270168888725
 31
0.0
 12
458.0907501610392
 22
626.9436835555389
 32
0.0
 13
458.0907501610392
 23
626.9436835555389
 33
0.0
  0
MTEXT
  5
BF
330
AD
100
AcDbEntity
  8
0
 62
     0
100
AcDbMText
 10
453.5907501610391
 20
628.8186835555391
 30
0.0
 40
2.5
 41
0.0
 46
0.0
 71
     5
 72
     1
  1
9
 73
     1
 44
1.0
  0
POINT
  5
C0
330
AD
100
AcDbEntity
  8
Defpoints
 62
     0
100
AcDbPoint
 10
449.0907501610388
 20
621.1738724066182
 30
0.0
  0
POINT
  5
C1
330
AD
100
AcDbEntity
  8
Defpoints
 62
     0
100
AcDbPoint
 10
458.0907501610392
 20
618.1738724066182
 30
0.0
  0
POINT
  5
C2
330
AD
100
AcDbEntity
  8
Defpoints
 62
     0
100
AcDbPoint
 10
458.0907501610392
 20
626.9436835555389
 30
0.0
  0
ENDBLK
  5
B8
330
AD
100
AcDbEntity
  8
0
100
AcDbBlockEnd
  0
BLOCK
  5
CF
330
C5
100
AcDbEntity
  8
0
100
AcDbBlockBegin
  2
*D2
 70
     1
 10
0.0
 20
0.0
 30
0.0
  3
*D2
  1

  0
LINE
  5
68A
330
C5
100
AcDbEntity
  8
0
 62
     0
440
 16777216
370
    -2
100
AcDbLine
 10
662.7668602719572
 20
679.6331978925726
 30
0.0
 11
679.5335873339612
 21
679.6331978925726
 31
0.0
  0
LINE
  5
68B
330
C5
100
AcDbEntity
  8
0
 62
     0
440
 16777216
370
    -2
100
AcDbLine
 10
662.7668602719568
 20
632.3034537457426
 30
0.0
 11
679.5335873339612
 21
632.3034537457426
 31
0.0
  0
LINE
  5
68C
330
C5
100
AcDbEntity
  8
0
 62
     0
440
 16777216
370
    -2
100
AcDbLine
 10
678.2835873339612
 20
677.1331978925726
 30
0.0
 11
678.2835873339612
 21
634.8034537457427
 31
0.0
  0
SOLID
  5
68D
330
C5
100
AcDbEntity
  8
0
 62
     0
440
 16777216
100
AcDbTrace
 10
677.8669206672946
 20
677.1331978925726
 30
0.0
 11
678.7002540006279
 21
677.1331978925726
 31
0.0
 12
678.2835873339612
 22
679.6331978925726
 32
0.0
 13
678.2835873339612
 23
679.6331978925726
 33
0.0
  0
SOLID
  5
68E
330
C5
100
AcDbEntity
  8
0
 62
     0
440
 16777216
100
AcDbTrace
 10
677.8669206672946
 20
634.8034537457427
 30
0.0
 11
678.7002540006279
 21
634.8034537457427
 31
0.0
 12
678.2835873339612
 22
632.3034537457426
 32
0.0
 13
678.2835873339612
 23
632.3034537457426
 33
0.0
  0
MTEXT
  5
68F
330
C5
100
AcDbEntity
  8
0
 62
     0
440
 16777216
100
AcDbMText
 10
676.408587333961
 20
655.9683258191577
 30
0.0
 40
2.5
 41
0.0
 46
0.0
 71
     5
 72
     1
  1
30
 11
0.0000000000000001
 21
1.0
 31
0.0
 73
     1
 44
1.0
  0
POINT
  5
690
330
C5
100
AcDbEntity
  8
Defpoints
 62
     0
440
 16777216
100
AcDbPoint
 10
662.1418602719573
 20
679.6331978925726
 30
0.0
  0
POINT
  5
691
330
C5
100
AcDbEntity
  8
Defpoints
 62
     0
440
 16777216
100
AcDbPoint
 10
662.1418602719568
 20
632.3034537457426
 30
0.0
  0
POINT
  5
692
330
C5
100
AcDbEntity
  8
Defpoints
 62
     0
440
 16777216
100
AcDbPoint
 10
678.2835873339612
 20
632.3034537457426
 30
0.0
  0
ENDBLK
  5
D0
330
C5
100
AcDbEntity
  8
0
100
AcDbBlockEnd
  0
BLOCK
  5
E7
330
DD
100
AcDbEntity
  8
0
100
AcDbBlockBegin
  2
*D3
 70
     1
 10
0.0
 20
0.0
 30
0.0
  3
*D3
  1

  0
LINE
  5
698
330
DD
100
AcDbEntity
  8
0
 62
     0
440
 16777216
370
    -2
100
AcDbLine
 10
619.5450905398097
 20
636.4114281604257
 30
0.0
 11
619.5450905398097
 21
620.6091357430175
 31
0.0
  0
LINE
  5
699
330
DD
100
AcDbEntity
  8
0
 62
     0
440
 16777216
370
    -2
100
AcDbLine
 10
666.8748346866395
 20
636.4114281604257
 30
0.0
 11
666.8748346866395
 21
620.6091357430175
 31
0.0
  0
LINE
  5
69A
330
DD
100
AcDbEntity
  8
0
 62
     0
440
 16777216
370
    -2
100
AcDbLine
 10
622.04509053981
 20
621.8591357430175
 30
0.0
 11
664.3748346866398
 21
621.8591357430175
 31
0.0
  0
SOLID
  5
69B
330
DD
100
AcDbEntity
  8
0
 62
     0
440
 16777216
100
AcDbTrace
 10
622.04509053981
 20
622.2758024096841
 30
0.0
 11
622.04509053981
 21
621.4424690763507
 31
0.0
 12
619.5450905398097
 22
621.8591357430175
 32
0.0
 13
619.5450905398097
 23
621.8591357430175
 33
0.0
  0
SOLID
  5
69C
330
DD
100
AcDbEntity
  8
0
 62
     0
440
 16777216
100
AcDbTrace
 10
664.3748346866398
 20
622.2758024096841
 30
0.0
 11
664.3748346866398
 21
621.4424690763507
 31
0.0
 12
666.8748346866395
 22
621.8591357430175
 32
0.0
 13
666.8748346866395
 23
621.8591357430175
 33
0.0
  0
MTEXT
  5
69D
330
DD
100
AcDbEntity
  8
0
 62
     0
440
 16777216
100
AcDbMText
 10
637.5038558508357
 20
623.7341357430175
 30
0.0
 40
2.5
 41
0.0
 46
0.0
 71
     5
 72
     1
  1
30
 73
     1
 44
1.0
  0
POINT
  5
69E
330
DD
100
AcDbEntity
  8
Defpoints
 62
     0
440
 16777216
100
AcDbPoint
 10
619.5450905398097
 20
637.0364281604257
 30
0.0
  0
POINT
  5
69F
330
DD
100
AcDbEntity
  8
Defpoints
 62
     0
440
 16777216
100
AcDbPoint
 10
666.8748346866395
 20
637.0364281604257
 30
0.0
  0
POINT
  5
6A0
330
DD
100
AcDbEntity
  8
Defpoints
 62
     0
440
 16777216
100
AcDbPoint
 10
666.8748346866395
 20
621.8591357430175
 30
0.0
  0
ENDBLK
  5
E8
330
DD
100
AcDbEntity
  8
0
100
AcDbBlockEnd
  0
BLOCK
  5
FF
330
F5
100
AcDbEntity
  8
0
100
AcDbBlockBegin
  2
*D4
 70
     1
 10
0.0
 20
0.0
 30
0.0
  3
*D4
  1

  0
LINE
  5
102
330
F5
100
AcDbEntity
  8
0
 62
     0
370
    -2
100
AcDbLine
 10
430.4657501610391
 20
591.173872406618
 30
0.0
 11
418.6382750286056
 21
591.173872406618
 31
0.0
  0
LINE
  5
103
330
F5
100
AcDbEntity
  8
0
 62
     0
370
    -2
100
AcDbLine
 10
428.2157501610391
 20
600.1738724066182
 30
0.0
 11
418.6382750286056
 21
600.1738724066182
 31
0.0
  0
LINE
  5
104
330
F5
100
AcDbEntity
  8
0
 62
     0
370
    -2
100
AcDbLine
 10
419.8882750286056
 20
593.6738724066182
 30
0.0
 11
419.8882750286056
 21
597.6738724066182
 31
0.0
  0
SOLID
  5
105
330
F5
100
AcDbEntity
  8
0
 62
     0
100
AcDbTrace
 10
419.471608361939
 20
593.6738724066182
 30
0.0
 11
420.3049416952723
 21
593.6738724066182
 31
0.0
 12
419.8882750286056
 22
591.173872406618
 32
0.0
 13
419.8882750286056
 23
591.173872406618
 33
0.0
  0
SOLID
  5
106
330
F5
100
AcDbEntity
  8
0
 62
     0
100
AcDbTrace
 10
419.471608361939
 20
597.6738724066182
 30
0.0
 11
420.3049416952723
 21
597.6738724066182
 31
0.0
 12
419.8882750286056
 22
600.1738724066182
 32
0.0
 13
419.8882750286056
 23
600.1738724066182
 33
0.0
  0
MTEXT
  5
107
330
F5
100
AcDbEntity
  8
0
 62
     0
100
AcDbMText
 10
418.0132750286055
 20
595.6738724066182
 30
0.0
 40
2.5
 41
0.0
 46
0.0
 71
     5
 72
     1
  1
9
 11
0.0000000000000001
 21
1.0
 31
0.0
 73
     1
 44
1.0
  0
POINT
  5
108
330
F5
100
AcDbEntity
  8
Defpoints
 62
     0
100
AcDbPoint
 10
431.0907501610389
 20
591.173872406618
 30
0.0
  0
POINT
  5
109
330
F5
100
AcDbEntity
  8
Defpoints
 62
     0
100
AcDbPoint
 10
428.8407501610389
 20
600.1738724066182
 30
0.0
  0
POINT
  5
10A
330
F5
100
AcDbEntity
  8
Defpoints
 62
     0
100
AcDbPoint
 10
419.8882750286056
 20
600.1738724066182
 30
0.0
  0
ENDBLK
  5
100
330
F5
100
AcDbEntity
  8
0
100
AcDbBlockEnd
  0
BLOCK
  5
119
330
10D
100
AcDbEntity
  8
0
100
AcDbBlockBegin
  2
*D5
 70
     1
 10
0.0
 20
0.0
 30
0.0
  3
*D5
  1

  0
LINE
  5
128
330
10D
100
AcDbEntity
  8
0
 62
     0
370
    -2
100
AcDbLine
 10
421.1669908762623
 20
662.0080487910669
 30
0.0
 11
421.1669908762623
 21
668.0842186283305
 31
0.0
  0
LINE
  5
129
330
10D
100
AcDbEntity
  8
0
 62
     0
370
    -2
100
AcDbLine
 10
426.1695565216562
 20
662.0080487910669
 30
0.0
 11
426.1695565216562
 21
668.0842186283305
 31
0.0
  0
LINE
  5
12A
330
10D
100
AcDbEntity
  8
0
 62
     0
370
    -2
100
AcDbLine
 10
418.6669908762622
 20
666.8342186283305
 30
0.0
 11
416.1669908762623
 21
666.8342186283305
 31
0.0
  0
LINE
  5
12B
330
10D
100
AcDbEntity
  8
0
 62
     0
370
    -2
100
AcDbLine
 10
428.6695565216562
 20
666.8342186283305
 30
0.0
 11
431.169556521656
 21
666.8342186283305
 31
0.0
  0
LINE
  5
12C
330
10D
100
AcDbEntity
  8
0
 62
     0
370
    -2
100
AcDbLine
 10
421.1669908762623
 20
666.8342186283305
 30
0.0
 11
426.1695565216562
 21
666.8342186283305
 31
0.0
  0
SOLID
  5
12D
330
10D
100
AcDbEntity
  8
0
 62
     0
100
AcDbTrace
 10
418.6669908762622
 20
667.2508852949971
 30
0.0
 11
418.6669908762622
 21
666.4175519616637
 31
0.0
 12
421.1669908762623
 22
666.8342186283305
 32
0.0
 13
421.1669908762623
 23
666.8342186283305
 33
0.0
  0
SOLID
  5
12E
330
10D
100
AcDbEntity
  8
0
 62
     0
100
AcDbTrace
 10
428.6695565216562
 20
667.2508852949971
 30
0.0
 11
428.6695565216562
 21
666.4175519616637
 31
0.0
 12
426.1695565216562
 22
666.8342186283305
 32
0.0
 13
426.1695565216562
 23
666.8342186283305
 33
0.0
  0
MTEXT
  5
12F
330
10D
100
AcDbEntity
  8
0
 62
     0
100
AcDbMText
 10
423.6682736989592
 20
668.7092186283305
 30
0.0
 40
2.5
 41
0.0
 46
0.0
 71
     5
 72
     1
  1
5
 73
     1
 44
1.0
  0
POINT
  5
130
330
10D
100
AcDbEntity
  8
Defpoints
 62
     0
100
AcDbPoint
 10
421.1669908762623
 20
661.3830487910669
 30
0.0
  0
POINT
  5
131
330
10D
100
AcDbEntity
  8
Defpoints
 62
     0
100
AcDbPoint
 10
426.1695565216562
 20
661.3830487910669
 30
0.0
  0
POINT
  5
132
330
10D
100
AcDbEntity
  8
Defpoints
 62
     0
100
AcDbPoint
 10
426.1695565216562
 20
666.8342186283305
 30
0.0
  0
ENDBLK
  5
11A
330
10D
100
AcDbEntity
  8
0
100
AcDbBlockEnd
  0
BLOCK
  5
176
330
175
100
AcDbEntity
  8
0
100
AcDbBlockBegin
  2
*D6
 70
     1
 10
0.0
 20
0.0
 30
0.0
  3
*D6
  1

  0
LINE
  5
177
330
175
100
AcDbEntity
  8
0
 62
     0
370
    -2
100
AcDbLine
 10
460.1530182161964
 20
487.8165608996885
 30
0.0
 11
468.2800654685719
 21
487.8165608996885
 31
0.0
  0
LINE
  5
178
330
175
100
AcDbEntity
  8
0
 62
     0
370
    -2
100
AcDbLine
 10
457.1530182161965
 20
495.8165608996885
 30
0.0
 11
468.2800654685719
 21
495.8165608996885
 31
0.0
  0
LINE
  5
179
330
175
100
AcDbEntity
  8
0
 62
     0
370
    -2
100
AcDbLine
 10
467.0300654685719
 20
490.3165608996885
 30
0.0
 11
467.0300654685719
 21
493.3165608996885
 31
0.0
  0
SOLID
  5
17A
330
175
100
AcDbEntity
  8
0
 62
     0
100
AcDbTrace
 10
466.6133988019051
 20
490.3165608996885
 30
0.0
 11
467.4467321352385
 21
490.3165608996885
 31
0.0
 12
467.0300654685719
 22
487.8165608996885
 32
0.0
 13
467.0300654685719
 23
487.8165608996885
 33
0.0
  0
SOLID
  5
17B
330
175
100
AcDbEntity
  8
0
 62
     0
100
AcDbTrace
 10
466.6133988019051
 20
493.3165608996885
 30
0.0
 11
467.4467321352385
 21
493.3165608996885
 31
0.0
 12
467.0300654685719
 22
495.8165608996885
 32
0.0
 13
467.0300654685719
 23
495.8165608996885
 33
0.0
  0
MTEXT
  5
17C
330
175
100
AcDbEntity
  8
0
 62
     0
100
AcDbMText
 10
465.1550654685717
 20
491.8165608996885
 30
0.0
 40
2.5
 41
0.0
 46
0.0
 71
     5
 72
     1
  1
8
 11
0.0000000000000001
 21
1.0
 31
0.0
 73
     1
 44
1.0
  0
POINT
  5
17D
330
175
100
AcDbEntity
  8
Defpoints
 62
     0
100
AcDbPoint
 10
459.5280182161966
 20
487.8165608996885
 30
0.0
  0
POINT
  5
17E
330
175
100
AcDbEntity
  8
Defpoints
 62
     0
100
AcDbPoint
 10
456.5280182161965
 20
495.8165608996885
 30
0.0
  0
POINT
  5
17F
330
175
100
AcDbEntity
  8
Defpoints
 62
     0
100
AcDbPoint
 10
467.0300654685719
 20
495.8165608996885
 30
0.0
  0
ENDBLK
  5
180
330
175
100
AcDbEntity
  8
0
100
AcDbBlockEnd
  0
BLOCK
  5
182
330
181
100
AcDbEntity
  8
0
100
AcDbBlockBegin
  2
*D7
 70
     1
 10
0.0
 20
0.0
 30
0.0
  3
*D7
  1

  0
LINE
  5
183
330
181
100
AcDbEntity
  8
0
 62
     0
370
    -2
100
AcDbLine
 10
459.5280182161966
 20
493.4415608996883
 30
0.0
 11
459.5280182161966
 21
502.6188020380149
 31
0.0
  0
LINE
  5
184
330
181
100
AcDbEntity
  8
0
 62
     0
370
    -2
100
AcDbLine
 10
429.5280182161966
 20
493.4415608996883
 30
0.0
 11
429.5280182161966
 21
502.6188020380149
 31
0.0
  0
LINE
  5
185
330
181
100
AcDbEntity
  8
0
 62
     0
370
    -2
100
AcDbLine
 10
457.0280182161964
 20
501.3688020380149
 30
0.0
 11
432.0280182161964
 21
501.3688020380149
 31
0.0
  0
SOLID
  5
186
330
181
100
AcDbEntity
  8
0
 62
     0
100
AcDbTrace
 10
457.0280182161964
 20
501.7854687046813
 30
0.0
 11
457.0280182161964
 21
500.9521353713481
 31
0.0
 12
459.5280182161966
 22
501.3688020380149
 32
0.0
 13
459.5280182161966
 23
501.3688020380149
 33
0.0
  0
SOLID
  5
187
330
181
100
AcDbEntity
  8
0
 62
     0
100
AcDbTrace
 10
432.0280182161964
 20
501.7854687046813
 30
0.0
 11
432.0280182161964
 21
500.9521353713481
 31
0.0
 12
429.5280182161966
 22
501.3688020380149
 32
0.0
 13
429.5280182161966
 23
501.3688020380149
 33
0.0
  0
MTEXT
  5
188
330
181
100
AcDbEntity
  8
0
 62
     0
100
AcDbMText
 10
444.5280182161964
 20
503.2438020380149
 30
0.0
 40
2.5
 41
0.0
 46
0.0
 71
     5
 72
     1
  1
30
 73
     1
 44
1.0
  0
POINT
  5
189
330
181
100
AcDbEntity
  8
Defpoints
 62
     0
100
AcDbPoint
 10
459.5280182161966
 20
492.8165608996883
 30
0.0
  0
POINT
  5
18A
330
181
100
AcDbEntity
  8
Defpoints
 62
     0
100
AcDbPoint
 10
429.5280182161966
 20
492.8165608996883
 30
0.0
  0
POINT
  5
18B
330
181
100
AcDbEntity
  8
Defpoints
 62
     0
100
AcDbPoint
 10
429.5280182161966
 20
501.3688020380149
 30
0.0
  0
ENDBLK
  5
18C
330
181
100
AcDbEntity
  8
0
100
AcDbBlockEnd
  0
BLOCK
  5
18E
330
18D
100
AcDbEntity
  8
0
100
AcDbBlockBegin
  2
*D8
 70
     1
 10
0.0
 20
0.0
 30
0.0
  3
*D8
  1

  0
LINE
  5
18F
330
18D
100
AcDbEntity
  8
0
 62
     0
370
    -2
100
AcDbLine
 10
431.9030182161966
 20
495.8165608996883
 30
0.0
 11
406.0848336967159
 21
495.8165608996883
 31
0.0
  0
LINE
  5
190
330
18D
100
AcDbEntity
  8
0
 62
     0
370
    -2
100
AcDbLine
 10
427.4030182161966
 20
469.8165608996883
 30
0.0
 11
406.0848336967159
 21
469.8165608996883
 31
0.0
  0
LINE
  5
191
330
18D
100
AcDbEntity
  8
0
 62
     0
370
    -2
100
AcDbLine
 10
407.334833696716
 20
493.3165608996883
 30
0.0
 11
407.334833696716
 21
472.3165608996883
 31
0.0
  0
SOLID
  5
192
330
18D
100
AcDbEntity
  8
0
 62
     0
100
AcDbTrace
 10
406.9181670300492
 20
493.3165608996883
 30
0.0
 11
407.7515003633827
 21
493.3165608996883
 31
0.0
 12
407.334833696716
 22
495.8165608996883
 32
0.0
 13
407.334833696716
 23
495.8165608996883
 33
0.0
  0
SOLID
  5
193
330
18D
100
AcDbEntity
  8
0
 62
     0
100
AcDbTrace
 10
406.9181670300492
 20
472.3165608996883
 30
0.0
 11
407.7515003633827
 21
472.3165608996883
 31
0.0
 12
407.334833696716
 22
469.8165608996883
 32
0.0
 13
407.334833696716
 23
469.8165608996883
 33
0.0
  0
MTEXT
  5
194
330
18D
100
AcDbEntity
  8
0
 62
     0
100
AcDbMText
 10
405.4598336967156
 20
482.8165608996883
 30
0.0
 40
2.5
 41
0.0
 46
0.0
 71
     5
 72
     1
  1
26
 11
0.0000000000000001
 21
1.0
 31
0.0
 73
     1
 44
1.0
  0
POINT
  5
195
330
18D
100
AcDbEntity
  8
Defpoints
 62
     0
100
AcDbPoint
 10
432.5280182161965
 20
495.8165608996883
 30
0.0
  0
POINT
  5
196
330
18D
100
AcDbEntity
  8
Defpoints
 62
     0
100
AcDbPoint
 10
428.0280182161965
 20
469.8165608996883
 30
0.0
  0
POINT
  5
197
330
18D
100
AcDbEntity
  8
Defpoints
 62
     0
100
AcDbPoint
 10
407.334833696716
 20
469.8165608996883
 30
0.0
  0
ENDBLK
  5
198
330
18D
100
AcDbEntity
  8
0
100
AcDbBlockEnd
  0
BLOCK
  5
19A
330
199
100
AcDbEntity
  8
0
100
AcDbBlockBegin
  2
*D9
 70
     1
 10
0.0
 20
0.0
 30
0.0
  3
*D9
  1

  0
LINE
  5
19B
330
199
100
AcDbEntity
  8
0
 62
     0
370
    -2
100
AcDbLine
 10
414.5280182161966
 20
467.4415608996885
 30
0.0
 11
414.5280182161966
 21
502.6188020380149
 31
0.0
  0
LINE
  5
19C
330
199
100
AcDbEntity
  8
0
 62
     0
370
    -2
100
AcDbLine
 10
429.5280182161966
 20
493.4415608996883
 30
0.0
 11
429.5280182161966
 21
502.6188020380149
 31
0.0
  0
LINE
  5
19D
330
199
100
AcDbEntity
  8
0
 62
     0
370
    -2
100
AcDbLine
 10
417.0280182161965
 20
501.3688020380149
 30
0.0
 11
427.0280182161966
 21
501.3688020380149
 31
0.0
  0
SOLID
  5
19E
330
199
100
AcDbEntity
  8
0
 62
     0
100
AcDbTrace
 10
417.0280182161965
 20
501.7854687046813
 30
0.0
 11
417.0280182161965
 21
500.9521353713481
 31
0.0
 12
414.5280182161966
 22
501.3688020380149
 32
0.0
 13
414.5280182161966
 23
501.3688020380149
 33
0.0
  0
SOLID
  5
19F
330
199
100
AcDbEntity
  8
0
 62
     0
100
AcDbTrace
 10
427.0280182161966
 20
501.7854687046813
 30
0.0
 11
427.0280182161966
 21
500.9521353713481
 31
0.0
 12
429.5280182161966
 22
501.3688020380149
 32
0.0
 13
429.5280182161966
 23
501.3688020380149
 33
0.0
  0
MTEXT
  5
1A0
330
199
100
AcDbEntity
  8
0
 62
     0
100
AcDbMText
 10
422.0280182161966
 20
503.2438020380149
 30
0.0
 40
2.5
 41
0.0
 46
0.0
 71
     5
 72
     1
  1
15
 73
     1
 44
1.0
  0
POINT
  5
1A1
330
199
100
AcDbEntity
  8
Defpoints
 62
     0
100
AcDbPoint
 10
414.5280182161966
 20
466.8165608996885
 30
0.0
  0
POINT
  5
1A2
330
199
100
AcDbEntity
  8
Defpoints
 62
     0
100
AcDbPoint
 10
429.5280182161966
 20
492.8165608996883
 30
0.0
  0
POINT
  5
1A3
330
199
100
AcDbEntity
  8
Defpoints
 62
     0
100
AcDbPoint
 10
429.5280182161966
 20
501.3688020380149
 30
0.0
  0
ENDBLK
  5
1A4
330
199
100
AcDbEntity
  8
0
100
AcDbBlockEnd
  0
BLOCK
  5
1A6
330
1A5
100
AcDbEntity
  8
0
100
AcDbBlockBegin
  2
*D10
 70
     1
 10
0.0
 20
0.0
 30
0.0
  3
*D10
  1

  0
LINE
  5
1A7
330
1A5
100
AcDbEntity
  8
0
 62
     0
370
    -2
100
AcDbLine
 10
543.7884307384556
 20
493.4415608996885
 30
0.0
 11
543.7884307384556
 21
503.5231313177805
 31
0.0
  0
LINE
  5
1A8
330
1A5
100
AcDbEntity
  8
0
 62
     0
370
    -2
100
AcDbLine
 10
513.7884307384559
 20
493.4415608996885
 30
0.0
 11
513.7884307384559
 21
503.5231313177805
 31
0.0
  0
LINE
  5
1A9
330
1A5
100
AcDbEntity
  8
0
 62
     0
370
    -2
100
AcDbLine
 10
541.2884307384556
 20
502.2731313177806
 30
0.0
 11
516.2884307384556
 21
502.2731313177806
 31
0.0
  0
SOLID
  5
1AA
330
1A5
100
AcDbEntity
  8
0
 62
     0
100
AcDbTrace
 10
541.2884307384556
 20
502.6897979844473
 30
0.0
 11
541.2884307384556
 21
501.8564646511141
 31
0.0
 12
543.7884307384556
 22
502.2731313177806
 32
0.0
 13
543.7884307384556
 23
502.2731313177806
 33
0.0
  0
SOLID
  5
1AB
330
1A5
100
AcDbEntity
  8
0
 62
     0
100
AcDbTrace
 10
516.2884307384556
 20
502.6897979844473
 30
0.0
 11
516.2884307384556
 21
501.8564646511141
 31
0.0
 12
513.7884307384559
 22
502.2731313177806
 32
0.0
 13
513.7884307384559
 23
502.2731313177806
 33
0.0
  0
MTEXT
  5
1AC
330
1A5
100
AcDbEntity
  8
0
 62
     0
100
AcDbMText
 10
528.7884307384556
 20
504.1481313177808
 30
0.0
 40
2.5
 41
0.0
 46
0.0
 71
     5
 72
     1
  1
30
 73
     1
 44
1.0
  0
POINT
  5
1AD
330
1A5
100
AcDbEntity
  8
Defpoints
 62
     0
100
AcDbPoint
 10
543.7884307384556
 20
492.8165608996883
 30
0.0
  0
POINT
  5
1AE
330
1A5
100
AcDbEntity
  8
Defpoints
 62
     0
100
AcDbPoint
 10
513.7884307384559
 20
492.8165608996883
 30
0.0
  0
POINT
  5
1AF
330
1A5
100
AcDbEntity
  8
Defpoints
 62
     0
100
AcDbPoint
 10
513.7884307384559
 20
502.2731313177806
 30
0.0
  0
ENDBLK
  5
1B0
330
1A5
100
AcDbEntity
  8
0
100
AcDbBlockEnd
  0
BLOCK
  5
1B2
330
1B1
100
AcDbEntity
  8
0
100
AcDbBlockBegin
  2
*D11
 70
     1
 10
0.0
 20
0.0
 30
0.0
  3
*D11
  1

  0
LINE
  5
1B3
330
1B1
100
AcDbEntity
  8
0
 62
     0
370
    -2
100
AcDbLine
 10
544.4134307384556
 20
487.8165608996885
 30
0.0
 11
551.8326467527423
 21
487.8165608996885
 31
0.0
  0
LINE
  5
1B4
330
1B1
100
AcDbEntity
  8
0
 62
     0
370
    -2
100
AcDbLine
 10
541.4134307384556
 20
495.8165608996885
 30
0.0
 11
551.8326467527423
 21
495.8165608996885
 31
0.0
  0
LINE
  5
1B5
330
1B1
100
AcDbEntity
  8
0
 62
     0
370
    -2
100
AcDbLine
 10
550.5826467527423
 20
490.3165608996885
 30
0.0
 11
550.5826467527423
 21
493.3165608996885
 31
0.0
  0
SOLID
  5
1B6
330
1B1
100
AcDbEntity
  8
0
 62
     0
100
AcDbTrace
 10
550.1659800860757
 20
490.3165608996885
 30
0.0
 11
550.9993134194088
 21
490.3165608996885
 31
0.0
 12
550.5826467527423
 22
487.8165608996885
 32
0.0
 13
550.5826467527423
 23
487.8165608996885
 33
0.0
  0
SOLID
  5
1B7
330
1B1
100
AcDbEntity
  8
0
 62
     0
100
AcDbTrace
 10
550.1659800860757
 20
493.3165608996885
 30
0.0
 11
550.9993134194088
 21
493.3165608996885
 31
0.0
 12
550.5826467527423
 22
495.8165608996885
 32
0.0
 13
550.5826467527423
 23
495.8165608996885
 33
0.0
  0
MTEXT
  5
1B8
330
1B1
100
AcDbEntity
  8
0
 62
     0
100
AcDbMText
 10
548.7076467527421
 20
491.8165608996885
 30
0.0
 40
2.5
 41
0.0
 46
0.0
 71
     5
 72
     1
  1
8
 11
0.0000000000000001
 21
1.0
 31
0.0
 73
     1
 44
1.0
  0
POINT
  5
1B9
330
1B1
100
AcDbEntity
  8
Defpoints
 62
     0
100
AcDbPoint
 10
543.7884307384556
 20
487.8165608996885
 30
0.0
  0
POINT
  5
1BA
330
1B1
100
AcDbEntity
  8
Defpoints
 62
     0
100
AcDbPoint
 10
540.7884307384556
 20
495.8165608996885
 30
0.0
  0
POINT
  5
1BB
330
1B1
100
AcDbEntity
  8
Defpoints
 62
     0
100
AcDbPoint
 10
550.5826467527423
 20
495.8165608996885
 30
0.0
  0
ENDBLK
  5
1BC
330
1B1
100
AcDbEntity
  8
0
100
AcDbBlockEnd
  0
BLOCK
  5
1BE
330
1BD
100
AcDbEntity
  8
0
100
AcDbBlockBegin
  2
*D12
 70
     1
 10
0.0
 20
0.0
 30
0.0
  3
*D12
  1

  0
LINE
  5
1BF
330
1BD
100
AcDbEntity
  8
0
 62
     0
370
    -2
100
AcDbLine
 10
498.7884307384558
 20
467.4415608996883
 30
0.0
 11
498.7884307384558
 21
503.5231313177808
 31
0.0
  0
LINE
  5
1C0
330
1BD
100
AcDbEntity
  8
0
 62
     0
370
    -2
100
AcDbLine
 10
513.7884307384559
 20
494.0665608996885
 30
0.0
 11
513.7884307384559
 21
503.5231313177808
 31
0.0
  0
LINE
  5
1C1
330
1BD
100
AcDbEntity
  8
0
 62
     0
370
    -2
100
AcDbLine
 10
501.2884307384558
 20
502.2731313177808
 30
0.0
 11
511.2884307384558
 21
502.2731313177808
 31
0.0
  0
SOLID
  5
1C2
330
1BD
100
AcDbEntity
  8
0
 62
     0
100
AcDbTrace
 10
501.2884307384558
 20
502.6897979844473
 30
0.0
 11
501.2884307384558
 21
501.8564646511141
 31
0.0
 12
498.7884307384558
 22
502.2731313177808
 32
0.0
 13
498.7884307384558
 23
502.2731313177808
 33
0.0
  0
SOLID
  5
1C3
330
1BD
100
AcDbEntity
  8
0
 62
     0
100
AcDbTrace
 10
511.2884307384558
 20
502.6897979844473
 30
0.0
 11
511.2884307384558
 21
501.8564646511141
 31
0.0
 12
513.7884307384559
 22
502.2731313177808
 32
0.0
 13
513.7884307384559
 23
502.2731313177808
 33
0.0
  0
MTEXT
  5
1C4
330
1BD
100
AcDbEntity
  8
0
 62
     0
100
AcDbMText
 10
506.2884307384559
 20
504.1481313177808
 30
0.0
 40
2.5
 41
0.0
 46
0.0
 71
     5
 72
     1
  1
15
 73
     1
 44
1.0
  0
POINT
  5
1C5
330
1BD
100
AcDbEntity
  8
Defpoints
 62
     0
100
AcDbPoint
 10
498.7884307384558
 20
466.8165608996885
 30
0.0
  0
POINT
  5
1C6
330
1BD
100
AcDbEntity
  8
Defpoints
 62
     0
100
AcDbPoint
 10
513.7884307384559
 20
493.4415608996885
 30
0.0
  0
POINT
  5
1C7
330
1BD
100
AcDbEntity
  8
Defpoints
 62
     0
100
AcDbPoint
 10
513.7884307384559
 20
502.2731313177808
 30
0.0
  0
ENDBLK
  5
1C8
330
1BD
100
AcDbEntity
  8
0
100
AcDbBlockEnd
  0
BLOCK
  5
1CA
330
1C9
100
AcDbEntity
  8
0
100
AcDbBlockBegin
  2
*D13
 70
     1
 10
0.0
 20
0.0
 30
0.0
  3
*D13
  1

  0
LINE
  5
1CB
330
1C9
100
AcDbEntity
  8
0
 62
     0
370
    -2
100
AcDbLine
 10
516.1634307384556
 20
495.8165608996885
 30
0.0
 11
490.9538844887648
 21
495.8165608996885
 31
0.0
  0
LINE
  5
1CC
330
1C9
100
AcDbEntity
  8
0
 62
     0
370
    -2
100
AcDbLine
 10
500.4598559039446
 20
470.8909947544491
 30
0.0
 11
490.9538844887648
 21
470.8909947544491
 31
0.0
  0
LINE
  5
1CD
330
1C9
100
AcDbEntity
  8
0
 62
     0
370
    -2
100
AcDbLine
 10
492.2038844887648
 20
493.3165608996885
 30
0.0
 11
492.2038844887648
 21
473.3909947544491
 31
0.0
  0
SOLID
  5
1CE
330
1C9
100
AcDbEntity
  8
0
 62
     0
100
AcDbTrace
 10
491.7872178220981
 20
493.3165608996885
 30
0.0
 11
492.6205511554313
 21
493.3165608996885
 31
0.0
 12
492.2038844887648
 22
495.8165608996885
 32
0.0
 13
492.2038844887648
 23
495.8165608996885
 33
0.0
  0
SOLID
  5
1CF
330
1C9
100
AcDbEntity
  8
0
 62
     0
100
AcDbTrace
 10
491.7872178220981
 20
473.3909947544491
 30
0.0
 11
492.6205511554313
 21
473.3909947544491
 31
0.0
 12
492.2038844887648
 22
470.8909947544491
 32
0.0
 13
492.2038844887648
 23
470.8909947544491
 33
0.0
  0
MTEXT
  5
1D0
330
1C9
100
AcDbEntity
  8
0
 62
     0
100
AcDbMText
 10
490.3288844887647
 20
483.3537778270687
 30
0.0
 40
2.5
 41
0.0
 46
0.0
 71
     5
 72
     1
  1
26
 11
0.0000000000000001
 21
1.0
 31
0.0
 73
     1
 44
1.0
  0
POINT
  5
1D1
330
1C9
100
AcDbEntity
  8
Defpoints
 62
     0
100
AcDbPoint
 10
516.7884307384556
 20
495.8165608996885
 30
0.0
  0
POINT
  5
1D2
330
1C9
100
AcDbEntity
  8
Defpoints
 62
     0
100
AcDbPoint
 10
501.0848559039446
 20
470.8909947544491
 30
0.0
  0
POINT
  5
1D3
330
1C9
100
AcDbEntity
  8
Defpoints
 62
     0
100
AcDbPoint
 10
492.2038844887648
 20
470.8909947544491
 30
0.0
  0
ENDBLK
  5
1D4
330
1C9
100
AcDbEntity
  8
0
100
AcDbBlockEnd
  0
BLOCK
  5
1D6
330
1D5
100
AcDbEntity
  8
0
100
AcDbBlockBegin
  2
2
 70
     0
 10
0.0
 20
0.0
 30
0.0
  3
2
  1

  0
SPLINE
  5
1D7
330
1D5
100
AcDbEntity
  8
Hladina1
100
AcDbSpline
210
0.0
220
0.0
230
1.0
 70
  1064
 71
     3
 72
    10
 73
     6
 74
     4
 42
0.000000001
 43
0.0000000001
 44
0.0000000001
 40
0.0
 40
0.0
 40
0.0
 40
0.0
 40
3.225450419445178
 40
6.527090493113453
 40
7.920027442241737
 40
7.920027442241737
 40
7.920027442241737
 40
7.920027442241737
 10
586.5799027234193
 20
501.1999875659141
 30
0.0
 10
585.5234841714195
 20
500.8301563315066
 30
0.0
 10
583.3856929823387
 20
500.0817579312076
 30
0.0
 10
580.801330540599
 20
501.6574140114634
 30
0.0
 10
579.2908377501574
 20
501.1098869791009
 30
0.0
 10
578.8426565383079
 20
500.9474291835804
 30
0.0
 11
586.5799027234193
 21
501.1999875659141
 31
0.0
 11
583.4125894605363
 21
500.5903507042789
 31
0.0
 11
580.1890825810946
 21
501.3043749155238
 31
0.0
 11
578.8426565383079
 21
500.9474291835804
 31
0.0
  0
SPLINE
  5
1D8
330
1D5
100
AcDbEntity
  8
Hladina1
100
AcDbSpline
210
0.0
220
0.0
230
1.0
 70
  1064
 71
     3
 72
    10
 73
     6
 74
     4
 42
0.000000001
 43
0.0000000001
 44
0.0000000001
 40
0.0
 40
0.0
 40
0.0
 40
0.0
 40
4.119626230339919
 40
7.183793575730435
 40
8.991701210957558
 40
8.991701210957558
 40
8.991701210957558
 40
8.991701210957558
 10
587.175414659165
 20
502.3246115415782
 30
0.0
 10
585.8441197821674
 20
501.7533674940129
 30
0.0
 10
583.5226112156032
 20
500.7572335999108
 30
0.0
 10
580.5669564611492
 20
502.3916954012557
 30
0.0
 10
579.0141789044421
 20
501.7467594539892
 30
0.0
 10
578.4379812039246
 20
501.5074395280985
 30
0.0
 11
587.175414659165
 21
502.3246115415782
 31
0.0
 11
583.1684183597957
 21
501.3678979300173
 31
0.0
 11
580.173282660344
 21
502.0146464610768
 31
0.0
 11
578.4379812039246
 21
501.5074395280985
 31
0.0
  0
SPLINE
  5
1D9
330
1D5
100
AcDbEntity
  8
Hladina1
100
AcDbSpline
210
0.0
220
0.0
230
1.0
 70
  1064
 71
     3
 72
    10
 73
     6
 74
     4
 42
0.000000001
 43
0.0000000001
 44
0.0000000001
 40
0.0
 40
0.0
 40
0.0
 40
0.0
 40
1.120719595214306
 40
2.660177466131623
 40
4.258068310536675
 40
4.258068310536675
 40
4.258068310536675
 40
4.258068310536675
 10
582.9912092941007
 20
502.4828038448628
 30
0.0
 10
583.3539910429269
 20
502.5736294581182
 30
0.0
 10
584.2151019197889
 20
502.7892161675516
 30
0.0
 10
585.6614862193861
 20
502.7927754569231
 30
0.0
 10
586.6645445410866
 20
502.4825918981313
 30
0.0
 10
587.175414659165
 20
502.3246115415782
 30
0.0
 11
582.9912092941007
 21
502.4828038448628
 31
0.0
 11
584.0870979318542
 21
502.7174109733564
 31
0.0
 11
585.6265558027716
 21
502.7174109733564
 31
0.0
 11
587.175414659165
 21
502.3246115415782
 31
0.0
  0
SPLINE
  5
1DA
330
1D5
100
AcDbEntity
  8
Hladina1
100
AcDbSpline
210
0.0
220
0.0
230
1.0
 70
  1064
 71
     3
 72
    10
 73
     6
 74
     4
 42
0.000000001
 43
0.0000000001
 44
0.0000000001
 40
0.0
 40
0.0
 40
0.0
 40
0.0
 40
2.06561349849705
 40
4.420060440849828
 40
5.721999227124882
 40
5.721999227124882
 40
5.721999227124882
 40
5.721999227124882
 10
579.6056277115027
 20
492.4993572272692
 30
0.0
 10
580.2556934006174
 20
493.0412622100194
 30
0.0
 10
581.6467230576662
 20
494.2008464104018
 30
0.0
 10
582.9251249947102
 20
491.3653633589081
 30
0.0
 10
584.0885832849316
 20
492.1486166178753
 30
0.0
 10
584.502858907548
 20
492.4275116450989
 30
0.0
 11
579.6056277115027
 21
492.4993572272692
 31
0.0
 11
581.4677014464417
 21
493.3934716107926
 31
0.0
 11
583.3039707158102
 21
491.9198585086768
 31
0.0
 11
584.502858907548
 21
492.4275116450989
 31
0.0
  0
SPLINE
  5
1DB
330
1D5
100
AcDbEntity
  8
Hladina1
100
AcDbSpline
210
0.0
220
0.0
230
1.0
 70
  1064
 71
     3
 72
    10
 73
     6
 74
     4
 42
0.000000001
 43
0.0000000001
 44
0.0000000001
 40
0.0
 40
0.0
 40
0.0
 40
0.0
 40
2.065613498496976
 40
4.42006044084972
 40
5.721999227124818
 40
5.721999227124818
 40
5.721999227124818
 40
5.721999227124818
 10
579.6056277115027
 20
493.7144548716296
 30
0.0
 10
580.2556934006174
 20
494.2563598543797
 30
0.0
 10
581.6467230576663
 20
495.415944054762
 30
0.0
 10
582.9251249947104
 20
492.5804610032684
 30
0.0
 10
584.0885832849316
 20
493.3637142622356
 30
0.0
 10
584.502858907548
 20
493.6426092894593
 30
0.0
 11
579.6056277115027
 21
493.7144548716296
 31
0.0
 11
581.4677014464417
 21
494.6085692551529
 31
0.0
 11
583.3039707158102
 21
493.1349561530371
 31
0.0
 11
584.502858907548
 21
493.6426092894593
 31
0.0
  0
ARC
  5
1DC
330
1D5
100
AcDbEntity
  8
Hladina1
100
AcDbCircle
 10
576.8127226108622
 20
501.8251906368005
 30
0.0
 40
0.4131931418174576
100
AcDbArc
 50
113.573584959716
 51
255.2322784542627
  0
LINE
  5
1DD
330
1D5
100
AcDbEntity
  8
Hladina1
100
AcDbLine
 10
588.8615868630872
 20
500.9108499027951
 30
0.0
 11
588.8624981441696
 21
501.1762069361551
 31
0.0
  0
ARC
  5
1DE
330
1D5
100
AcDbEntity
  8
Hladina1
100
AcDbCircle
 10
582.2323996979568
 20
495.9997978923967
 30
0.0
 40
3.190805834280606
100
AcDbArc
 50
26.30718737027455
 51
145.4096035720104
  0
ARC
  5
1DF
330
1D5
100
AcDbEntity
  8
Hladina1
100
AcDbCircle
 10
582.4394920610197
 20
496.2692993959525
 30
0.0
 40
3.804399409392086
100
AcDbArc
 50
44.92450934724028
 51
128.7262185738849
  0
ARC
  5
1E0
330
1D5
100
AcDbEntity
  8
Hladina1
100
AcDbCircle
 10
572.7189574023276
 20
495.3023348260303
 30
0.0
 40
8.328672247942597
100
AcDbArc
 50
28.19394529003102
 51
42.67121992977064
  0
ARC
  5
1E1
330
1D5
100
AcDbEntity
  8
Hladina1
100
AcDbCircle
 10
588.6341025813162
 20
498.2872637271921
 30
0.0
 40
3.564224630525078
100
AcDbArc
 50
81.19889616641261
 51
169.1879473822699
  0
SPLINE
  5
1E2
330
1D5
100
AcDbEntity
  8
Hladina1
100
AcDbSpline
210
0.0
220
0.0
230
1.0
 70
  1064
 71
     3
 72
    12
 73
     8
 74
     6
 42
0.000000001
 43
0.0000000001
 44
0.0000000001
 40
0.0
 40
0.0
 40
0.0
 40
0.0
 40
0.548702404506061
 40
0.9598156116507324
 40
1.240717391112099
 40
1.514184820930574
 40
1.563476079407966
 40
1.563476079407966
 40
1.563476079407966
 40
1.563476079407966
 10
577.1484697044236
 20
494.4249778366425
 30
0.0
 10
577.1308228543406
 20
494.632134692173
 30
0.0
 10
577.0999541683882
 20
494.9945030404177
 30
0.0
 10
576.5478598947815
 20
495.0516281778615
 30
0.0
 10
576.3777071006855
 20
494.7309112030126
 30
0.0
 10
576.3955872091539
 20
494.5270653848726
 30
0.0
 10
576.4190580551157
 20
494.4221206831054
 30
0.0
 10
576.4226424901037
 20
494.4060936740481
 30
0.0
 11
577.1484697044236
 21
494.4249778366425
 31
0.0
 11
576.9660364187528
 21
494.9424644789726
 31
0.0
 11
576.5555549997973
 21
494.9652476697304
 31
0.0
 11
576.4056972219402
 21
494.7276588313555
 31
0.0
 11
576.4122136287421
 21
494.4542690517113
 31
0.0
 11
576.4226424901037
 21
494.4060936740481
 31
0.0
  0
SPLINE
  5
1E3
330
1D5
100
AcDbEntity
  8
Hladina1
100
AcDbSpline
210
0.0
220
0.0
230
1.0
 70
     8
 71
     3
 72
    13
 73
     9
 74
     0
 42
0.000000001
 43
0.0000000001
 40
0.6661205545958559
 40
0.6661205545958559
 40
0.6661205545958559
 40
0.6661205545958559
 40
0.9878869891143956
 40
1.419794567472439
 40
1.9102422773456
 40
2.418829439147268
 40
3.096989347819317
 40
3.875274942031108
 40
3.875274942031108
 40
3.875274942031108
 40
3.875274942031108
 10
578.6056277115018
 20
492.5464101620661
 30
0.0
 10
578.501860227303
 20
492.5736036018386
 30
0.0
 10
578.2449132618792
 20
492.6085782317526
 30
0.0
 10
577.8466327328832
 20
492.6981949856704
 30
0.0
 10
577.359495882097
 20
492.7659371357046
 30
0.0
 10
576.9243204464051
 20
493.1355241943178
 30
0.0
 10
576.4631059893519
 20
493.6363950137963
 30
0.0
 10
576.4367346368487
 20
494.1380321699432
 30
0.0
 10
576.4226424901037
 20
494.4060936740481
 30
0.0
  0
SPLINE
  5
1E4
330
1D5
100
AcDbEntity
  8
Hladina1
100
AcDbSpline
210
0.0
220
0.0
230
1.0
 70
  1064
 71
     3
 72
    10
 73
     6
 74
     4
 42
0.000000001
 43
0.0000000001
 44
0.0000000001
 40
0.0
 40
0.0
 40
0.0
 40
0.0
 40
0.8755136827638514
 40
1.521916528778687
 40
1.994752976798551
 40
1.994752976798551
 40
1.994752976798551
 40
1.994752976798551
 10
577.1484697044236
 20
494.4249778366425
 30
0.0
 10
577.2348930742102
 20
494.1206953901434
 30
0.0
 10
577.3851239130201
 20
493.5917573576935
 30
0.0
 10
578.0839283451834
 20
493.401535147246
 30
0.0
 10
578.4463902019081
 20
493.3386639297697
 30
0.0
 10
578.599516685038
 20
493.3121032082935
 30
0.0
 11
577.1484697044236
 21
494.4249778366425
 31
0.0
 11
577.5344648356267
 21
493.6391458142648
 31
0.0
 11
578.1348487716853
 21
493.3996134184204
 31
0.0
 11
578.599516685038
 21
493.3121032082935
 31
0.0
  0
SPLINE
  5
1E5
330
1D5
100
AcDbEntity
  8
Hladina1
100
AcDbSpline
210
0.0
220
0.0
230
1.0
 70
  1064
 71
     3
 72
    10
 73
     6
 74
     4
 42
0.000000001
 43
0.0000000001
 44
0.0000000001
 40
0.0
 40
0.0
 40
0.0
 40
0.0
 40
0.8755136827638514
 40
1.521916528778687
 40
1.99475297679853
 40
1.99475297679853
 40
1.99475297679853
 40
1.99475297679853
 10
577.1484697044236
 20
497.9038299787013
 30
0.0
 10
577.2348930742102
 20
497.5995475322021
 30
0.0
 10
577.3851239130201
 20
497.0706094997523
 30
0.0
 10
578.0839283451836
 20
496.8803872893047
 30
0.0
 10
578.4463902019081
 20
496.8175160718287
 30
0.0
 10
578.599516685038
 20
496.7909553503524
 30
0.0
 11
577.1484697044236
 21
497.9038299787013
 31
0.0
 11
577.5344648356267
 21
497.1179979563236
 31
0.0
 11
578.1348487716853
 21
496.8784655604792
 31
0.0
 11
578.599516685038
 21
496.7909553503524
 31
0.0
  0
SPLINE
  5
1E6
330
1D5
100
AcDbEntity
  8
Hladina1
100
AcDbSpline
210
0.0
220
0.0
230
1.0
 70
     8
 71
     3
 72
    13
 73
     9
 74
     0
 42
0.000000001
 43
0.0000000001
 40
0.666120554595736
 40
0.666120554595736
 40
0.666120554595736
 40
0.666120554595736
 40
0.9878869891143956
 40
1.419794567472439
 40
1.9102422773456
 40
2.418829439147268
 40
3.096989347819317
 40
3.875274942031108
 40
3.875274942031108
 40
3.875274942031108
 40
3.875274942031108
 10
578.6056277115018
 20
496.0252623041249
 30
0.0
 10
578.5018602273031
 20
496.0524557438975
 30
0.0
 10
578.2449132618796
 20
496.0874303738115
 30
0.0
 10
577.8466327328832
 20
496.1770471277293
 30
0.0
 10
577.359495882097
 20
496.2447892777633
 30
0.0
 10
576.9243204464051
 20
496.6143763363767
 30
0.0
 10
576.4631059893519
 20
497.1152471558552
 30
0.0
 10
576.4367346368487
 20
497.6168843120021
 30
0.0
 10
576.4226424901037
 20
497.8849458161073
 30
0.0
  0
SPLINE
  5
1E7
330
1D5
100
AcDbEntity
  8
Hladina1
100
AcDbSpline
210
0.0
220
0.0
230
1.0
 70
  1064
 71
     3
 72
    12
 73
     8
 74
     6
 42
0.000000001
 43
0.0000000001
 44
0.0000000001
 40
0.0
 40
0.0
 40
0.0
 40
0.0
 40
0.5487024045063826
 40
0.9598156116510477
 40
1.24071739111227
 40
1.514184820930859
 40
1.563476079408139
 40
1.563476079408139
 40
1.563476079408139
 40
1.563476079408139
 10
577.1484697044236
 20
497.9038299787013
 30
0.0
 10
577.1308228543408
 20
498.1109868342321
 30
0.0
 10
577.0999541683884
 20
498.4733551824769
 30
0.0
 10
576.5478598947814
 20
498.5304803199204
 30
0.0
 10
576.3777071006857
 20
498.2097633450718
 30
0.0
 10
576.3955872091537
 20
498.0059175269318
 30
0.0
 10
576.4190580551157
 20
497.9009728251646
 30
0.0
 10
576.4226424901037
 20
497.8849458161073
 30
0.0
 11
577.1484697044236
 21
497.9038299787013
 31
0.0
 11
576.9660364187528
 21
498.4213166210317
 31
0.0
 11
576.5555549997973
 21
498.4440998117894
 31
0.0
 11
576.4056972219402
 21
498.2065109734147
 31
0.0
 11
576.4122136287421
 21
497.9331211937704
 31
0.0
 11
576.4226424901037
 21
497.8849458161073
 31
0.0
  0
SPLINE
  5
1E8
330
1D5
100
AcDbEntity
  8
Hladina1
100
AcDbSpline
210
0.0
220
0.0
230
1.0
 70
  1064
 71
     3
 72
    12
 73
     8
 74
     6
 42
0.000000001
 43
0.0000000001
 44
0.0000000001
 40
0.0
 40
0.0
 40
0.0
 40
0.0
 40
0.5487024045062218
 40
0.9598156116508711
 40
1.240717391111997
 40
1.514184820930418
 40
1.563476079407643
 40
1.563476079407643
 40
1.563476079407643
 40
1.563476079407643
 10
577.1545807308886
 20
491.4636822450382
 30
0.0
 10
577.1369338808056
 20
491.6708391005689
 30
0.0
 10
577.1060651948531
 20
492.0332074488136
 30
0.0
 10
576.5539709212466
 20
492.0903325862568
 30
0.0
 10
576.3838181271506
 20
491.7696156114084
 30
0.0
 10
576.4016982356192
 20
491.5657697932686
 30
0.0
 10
576.4251690815808
 20
491.4608250915013
 30
0.0
 10
576.4287535165688
 20
491.4447980824441
 30
0.0
 11
577.1545807308886
 21
491.4636822450382
 31
0.0
 11
576.9721474452177
 21
491.9811688873685
 31
0.0
 11
576.5616660262622
 21
492.0039520781258
 31
0.0
 11
576.4118082484052
 21
491.7663632397513
 31
0.0
 11
576.4183246552072
 21
491.4929734601071
 31
0.0
 11
576.4287535165688
 21
491.4447980824441
 31
0.0
  0
SPLINE
  5
1E9
330
1D5
100
AcDbEntity
  8
Hladina1
100
AcDbSpline
210
0.0
220
0.0
230
1.0
 70
  1064
 71
     3
 72
    14
 73
    10
 74
     8
 42
0.000000001
 43
0.0000000001
 44
0.0000000001
 40
0.0
 40
0.0
 40
0.0
 40
0.0
 40
0.480313065724709
 40
0.9878869891141999
 40
1.419794567472311
 40
1.910242277345801
 40
2.418829439147276
 40
3.096989347819389
 40
3.875274942031161
 40
3.875274942031161
 40
3.875274942031161
 40
3.875274942031161
 10
579.1557262930539
 20
489.2186772846011
 30
0.0
 10
579.0399514277417
 20
489.3358946822241
 30
0.0
 10
578.8018307284104
 20
489.5769823191695
 30
0.0
 10
578.3105068161439
 20
489.6338985285279
 30
0.0
 10
577.852743759348
 20
489.7368993940662
 30
0.0
 10
577.3656069085618
 20
489.8046415441002
 30
0.0
 10
576.9304314728699
 20
490.1742286027135
 30
0.0
 10
576.4692170158169
 20
490.6750994221919
 30
0.0
 10
576.4428456633139
 20
491.1767365783388
 30
0.0
 10
576.4287535165688
 20
491.4447980824441
 30
0.0
 11
579.1557262930539
 21
489.2186772846011
 31
0.0
 11
578.783878217265
 21
489.5226997338347
 31
0.0
 11
578.2914310384406
 21
489.6456918627406
 31
0.0
 11
577.8673783947031
 21
489.7276888845306
 31
0.0
 11
577.3912760740008
 21
489.8454408965813
 31
0.0
 11
576.9798255149249
 21
490.1443879463835
 31
0.0
 11
576.5611145626922
 21
490.6778502226605
 31
0.0
 11
576.4287535165688
 21
491.4447980824441
 31
0.0
  0
SPLINE
  5
1EA
330
1D5
100
AcDbEntity
  8
Hladina1
100
AcDbSpline
210
0.0
220
0.0
230
1.0
 70
  1064
 71
     3
 72
    10
 73
     6
 74
     4
 42
0.000000001
 43
0.0000000001
 44
0.0000000001
 40
0.0
 40
0.0
 40
0.0
 40
0.0
 40
0.8755136827639516
 40
1.521916528778597
 40
1.99475297679838
 40
1.99475297679838
 40
1.99475297679838
 40
1.99475297679838
 10
577.1545807308886
 20
491.4636822450382
 30
0.0
 10
577.2410041006753
 20
491.1593997985391
 30
0.0
 10
577.3912349394852
 20
490.6304617660892
 30
0.0
 10
578.0900393716486
 20
490.4402395556417
 30
0.0
 10
578.4525012283729
 20
490.3773683381653
 30
0.0
 10
578.6056277115029
 20
490.350807616689
 30
0.0
 11
577.1545807308886
 21
491.4636822450382
 31
0.0
 11
577.5405758620919
 21
490.6778502226605
 31
0.0
 11
578.1409597981502
 21
490.438317826816
 31
0.0
 11
578.6056277115029
 21
490.350807616689
 31
0.0
  0
SPLINE
  5
1EB
330
1D5
100
AcDbEntity
  8
Hladina1
100
AcDbSpline
210
0.0
220
0.0
230
1.0
 70
  1064
 71
     3
 72
    13
 73
     9
 74
     7
 42
0.000000001
 43
0.0000000001
 44
0.0000000001
 40
0.0
 40
0.0
 40
0.0
 40
0.0
 40
0.6429075011031752
 40
1.23018803759427
 40
1.649993712014052
 40
2.166399721602478
 40
2.616274431678376
 40
3.151093383853986
 40
3.151093383853986
 40
3.151093383853986
 40
3.151093383853986
 10
584.8759680645596
 20
489.2669074885471
 30
0.0
 10
585.082713127558
 20
489.3239230481602
 30
0.0
 10
585.4783148321514
 20
489.4330209499148
 30
0.0
 10
586.0297398992275
 20
489.4899462483782
 30
0.0
 10
586.5112924108792
 20
489.6400456848156
 30
0.0
 10
586.946730556886
 20
489.8629341360083
 30
0.0
 10
587.1424654692463
 20
490.3464757116531
 30
0.0
 10
587.2250096449927
 20
490.6614899003156
 30
0.0
 10
587.2698420545767
 20
490.8325842870874
 30
0.0
 11
584.8759680645596
 21
489.2669074885471
 31
0.0
 11
585.5004434535068
 21
489.4197490521808
 31
0.0
 11
586.0795063069198
 21
489.5176502285703
 31
0.0
 11
586.4803942176137
 21
489.6422523446621
 31
0.0
 11
586.9169184220907
 21
489.9181541127695
 31
0.0
 11
587.1218181378227
 21
490.3186579969688
 31
0.0
 11
587.2698420545767
 21
490.8325842870874
 31
0.0
  0
SPLINE
  5
1EC
330
1D5
100
AcDbEntity
  8
Hladina1
100
AcDbSpline
210
0.0
220
0.0
230
1.0
 70
  1064
 71
     3
 72
    13
 73
     9
 74
     7
 42
0.000000001
 43
0.0000000001
 44
0.0000000001
 40
0.0
 40
0.0
 40
0.0
 40
0.0
 40
0.2246032353051721
 40
0.4343617040305123
 40
1.142630725824439
 40
2.02973577277002
 40
2.370946938459299
 40
2.889170422928264
 40
2.889170422928264
 40
2.889170422928264
 40
2.889170422928264
 10
585.5756072094607
 20
490.3243143074696
 30
0.0
 10
585.59988591596
 20
490.2415665978529
 30
0.0
 10
585.6468386693892
 20
490.0815402469193
 30
0.0
 10
586.0860402643892
 20
490.1490908575797
 30
0.0
 10
586.6241537613772
 20
490.4857597393952
 30
0.0
 10
586.5269657265733
 20
491.4155200908434
 30
0.0
 10
587.2917451393306
 20
491.3867547045021
 30
0.0
 10
587.278081176182
 20
491.0410424796417
 30
0.0
 10
587.2698420545767
 20
490.8325842870874
 30
0.0
 11
585.5756072094607
 21
490.3243143074696
 31
0.0
 11
585.6805305716814
 21
490.1257250293858
 31
0.0
 11
585.8902890404067
 21
490.1257250293858
 31
0.0
 11
586.4613279357187
 21
490.5447233435516
 31
0.0
 11
586.8122643414937
 21
491.3594619540385
 31
0.0
 11
587.1527620966124
 21
491.3374088737491
 31
0.0
 11
587.2698420545767
 21
490.8325842870874
 31
0.0
  0
SPLINE
  5
1ED
330
1D5
100
AcDbEntity
  8
Hladina1
100
AcDbSpline
210
0.0
220
0.0
230
1.0
 70
  1064
 71
     3
 72
    12
 73
     8
 74
     6
 42
0.000000001
 43
0.0000000001
 44
0.0000000001
 40
0.0
 40
0.0
 40
0.0
 40
0.0
 40
0.8682590907202168
 40
1.428020258692736
 40
2.490326501641835
 40
2.711762396106005
 40
4.07552894871755
 40
4.07552894871755
 40
4.07552894871755
 40
4.07552894871755
 10
585.5019412155107
 20
493.9196257949946
 30
0.0
 10
585.4455883735322
 20
493.5350893009105
 30
0.0
 10
585.3529052092091
 20
492.9026445506878
 30
0.0
 10
586.5485214623567
 20
493.1842309176038
 30
0.0
 10
586.0281262929554
 20
494.1732309942559
 30
0.0
 10
587.0137865851511
 20
494.4700582459427
 30
0.0
 10
586.9464552951504
 20
493.6775015233577
 30
0.0
 10
586.8885294690727
 20
492.9956565316956
 30
0.0
 11
585.5019412155107
 21
493.9196257949946
 31
0.0
 11
585.6206005129307
 21
493.0595131164728
 31
0.0
 11
586.1599775678826
 21
493.2091959737459
 31
0.0
 11
586.3661825228335
 21
494.2512967703881
 31
0.0
 11
586.5756701544212
 21
494.3230518229551
 31
0.0
 11
586.8885294690727
 21
492.9956565316956
 31
0.0
  0
ARC
  5
1EE
330
1D5
100
AcDbEntity
  8
Hladina1
100
AcDbCircle
 10
585.6749980243383
 20
493.3268435267146
 30
0.0
 40
1.257912315318324
100
AcDbArc
 50
265.4681927024809
 51
344.7350435328164
  0
LINE
  5
1EF
330
1D5
100
AcDbEntity
  8
Hladina1
100
AcDbLine
 10
584.5308236578205
 20
489.9886463635486
 30
0.0
 11
584.5059066411256
 21
492.4279862824429
 31
0.0
  0
LINE
  5
1F0
330
1D5
100
AcDbEntity
  8
Hladina1
100
AcDbLine
 10
579.6056277115027
 20
489.8389019079453
 30
0.0
 11
579.6056277115027
 21
492.4993572272692
 31
0.0
  0
ARC
  5
1F1
330
1D5
100
AcDbEntity
  8
Hladina1
100
AcDbCircle
 10
581.9575736532465
 20
493.5531939351791
 30
0.0
 40
4.396318343393376
100
AcDbArc
 50
237.6573900979629
 51
305.8255507653938
  0
LINE
  5
1F2
330
1D5
100
AcDbEntity
  8
Hladina1
100
AcDbLine
 10
579.6056277115027
 20
493.7144548716296
 30
0.0
 11
579.6056277115027
 21
497.8112367688871
 31
0.0
  0
LINE
  5
1F3
330
1D5
100
AcDbEntity
  8
Hladina1
100
AcDbLine
 10
584.502858907548
 20
493.6426092894593
 30
0.0
 11
585.0927364619208
 21
497.4139108542192
 31
0.0
  0
ARC
  5
1F4
330
1D5
100
AcDbEntity
  8
Hladina1
100
AcDbCircle
 10
582.8514655015087
 20
502.8537821189271
 30
0.0
 40
0.3964255382737756
100
AcDbArc
 50
140.0335420490604
 51
290.6408881337029
  0
ARC
  5
1F5
330
1D5
100
AcDbEntity
  8
Hladina1
100
AcDbCircle
 10
591.3374344077801
 20
500.1058872683854
 30
0.0
 40
0.3
100
AcDbArc
 50
266.2983149117772
 51
12.96565150846524
  0
ARC
  5
1F6
330
1D5
100
AcDbEntity
  8
Hladina1
100
AcDbCircle
 10
591.4114113151144
 20
500.1011012115941
 30
0.0
 40
0.3
100
AcDbArc
 50
213.4848876457069
 51
266.2983149117561
  0
ARC
  5
1F7
330
1D5
100
AcDbEntity
  8
Hladina1
100
AcDbCircle
 10
576.8034247481165
 20
499.9550254597174
 30
0.0
 40
2.254276878941726
100
AcDbArc
 50
43.52356013104826
 51
93.96684357026023
  0
LINE
  5
1F8
330
1D5
100
AcDbEntity
  8
Hladina1
100
AcDbLine
 10
591.318065910602
 20
499.8065131524082
 30
0.0
 11
591.3920428179364
 21
499.8017270956169
 31
0.0
  0
ARC
  5
1F9
330
1D5
100
AcDbEntity
  8
Hladina1
100
AcDbCircle
 10
585.4346066460602
 20
496.5226914053551
 30
0.0
 40
7.190718926246167
100
AcDbArc
 50
30.50869514896717
 51
113.6710811973435
  0
ARC
  5
1FA
330
1D5
100
AcDbEntity
  8
Hladina1
100
AcDbCircle
 10
576.4096455347287
 20
499.2452992636582
 30
0.0
 40
2.200584263834125
100
AcDbArc
 50
356.2938605224641
 51
82.22364690638018
  0
ARC
  5
1FB
330
1D5
100
AcDbEntity
  8
Hladina1
100
AcDbCircle
 10
588.8529940283091
 20
498.4086920183568
 30
0.0
 40
2.767531237123765
100
AcDbArc
 50
33.4848876457079
 51
175.8450734820557
  0
LINE
  5
1FC
330
1D5
100
AcDbEntity
  8
Hladina1
100
AcDbLine
 10
578.599516685038
 20
496.7909553503524
 30
0.0
 11
578.6056277115029
 21
499.1030551723039
 31
0.0
  0
LINE
  5
1FD
330
1D5
100
AcDbEntity
  8
Hladina1
100
AcDbLine
 10
578.599516685038
 20
493.3121032082935
 30
0.0
 11
578.6056277115029
 21
496.0252623041291
 31
0.0
  0
LINE
  5
1FE
330
1D5
100
AcDbEntity
  8
Hladina1
100
AcDbLine
 10
585.5019412155107
 20
493.9196257949946
 30
0.0
 11
586.0927364619211
 21
498.6092096376649
 31
0.0
  0
LINE
  5
1FF
330
1D5
100
AcDbEntity
  8
Hladina1
100
AcDbLine
 10
585.5756072094607
 20
490.3243143074696
 30
0.0
 11
585.5756072094609
 21
492.07286391805
 31
0.0
  0
LINE
  5
200
330
1D5
100
AcDbEntity
  8
Hladina1
100
AcDbLine
 10
578.6056277115029
 20
490.350807616689
 30
0.0
 11
578.6056277115029
 21
492.5464101620701
 31
0.0
  0
ARC
  5
201
330
1D5
100
AcDbEntity
  8
Hladina1
100
AcDbCircle
 10
581.9792589433252
 20
493.5822630050248
 30
0.0
 40
5.19742407030961
100
AcDbArc
 50
237.0944238147139
 51
303.8717317294514
  0
ENDBLK
  5
202
330
1D5
100
AcDbEntity
  8
0
100
AcDbBlockEnd
  0
BLOCK
  5
204
330
203
100
AcDbEntity
  8
0
100
AcDbBlockBegin
  2
*D15
 70
     1
 10
0.0
 20
0.0
 30
0.0
  3
*D15
  1

  0
LINE
  5
205
330
203
100
AcDbEntity
  8
0
 62
     0
370
    -2
100
AcDbLine
 10
431.9030182161966
 20
469.8165608996883
 30
0.0
 11
406.0848336967159
 21
469.8165608996883
 31
0.0
  0
LINE
  5
206
330
203
100
AcDbEntity
  8
0
 62
     0
370
    -2
100
AcDbLine
 10
420.2208927910583
 20
400.8165608996883
 30
0.0
 11
406.0848336967159
 21
400.8165608996883
 31
0.0
  0
LINE
  5
207
330
203
100
AcDbEntity
  8
0
 62
     0
370
    -2
100
AcDbLine
 10
407.334833696716
 20
467.3165608996883
 30
0.0
 11
407.334833696716
 21
403.3165608996883
 31
0.0
  0
SOLID
  5
208
330
203
100
AcDbEntity
  8
0
 62
     0
100
AcDbTrace
 10
406.9181670300492
 20
467.3165608996883
 30
0.0
 11
407.7515003633827
 21
467.3165608996883
 31
0.0
 12
407.334833696716
 22
469.8165608996883
 32
0.0
 13
407.334833696716
 23
469.8165608996883
 33
0.0
  0
SOLID
  5
209
330
203
100
AcDbEntity
  8
0
 62
     0
100
AcDbTrace
 10
406.9181670300492
 20
403.3165608996883
 30
0.0
 11
407.7515003633827
 21
403.3165608996883
 31
0.0
 12
407.334833696716
 22
400.8165608996883
 32
0.0
 13
407.334833696716
 23
400.8165608996883
 33
0.0
  0
MTEXT
  5
20A
330
203
100
AcDbEntity
  8
0
 62
     0
100
AcDbMText
 10
405.4598336967156
 20
435.3165608996885
 30
0.0
 40
2.5
 41
0.0
 46
0.0
 71
     5
 72
     1
  1
40
 11
0.0000000000000001
 21
1.0
 31
0.0
 73
     1
 44
1.0
  0
POINT
  5
20B
330
203
100
AcDbEntity
  8
Defpoints
 62
     0
100
AcDbPoint
 10
432.5280182161965
 20
469.8165608996883
 30
0.0
  0
POINT
  5
20C
330
203
100
AcDbEntity
  8
Defpoints
 62
     0
100
AcDbPoint
 10
420.8458927910585
 20
400.8165608996883
 30
0.0
  0
POINT
  5
20D
330
203
100
AcDbEntity
  8
Defpoints
 62
     0
100
AcDbPoint
 10
407.334833696716
 20
400.8165608996883
 30
0.0
  0
ENDBLK
  5
20E
330
203
100
AcDbEntity
  8
0
100
AcDbBlockEnd
  0
BLOCK
  5
210
330
20F
100
AcDbEntity
  8
0
100
AcDbBlockBegin
  2
*D16
 70
     1
 10
0.0
 20
0.0
 30
0.0
  3
*D16
  1

  0
LINE
  5
211
330
20F
100
AcDbEntity
  8
0
 62
     0
370
    -2
100
AcDbLine
 10
516.7720690082453
 20
470.8909947544491
 30
0.0
 11
490.9538844887648
 21
470.8909947544491
 31
0.0
  0
LINE
  5
212
330
20F
100
AcDbEntity
  8
0
 62
     0
370
    -2
100
AcDbLine
 10
510.6817925151303
 20
400.8165608996883
 30
0.0
 11
490.9538844887648
 21
400.8165608996883
 31
0.0
  0
LINE
  5
213
330
20F
100
AcDbEntity
  8
0
 62
     0
370
    -2
100
AcDbLine
 10
492.2038844887648
 20
468.3909947544491
 30
0.0
 11
492.2038844887648
 21
403.316560899688
 31
0.0
  0
SOLID
  5
214
330
20F
100
AcDbEntity
  8
0
 62
     0
100
AcDbTrace
 10
491.7872178220981
 20
468.3909947544491
 30
0.0
 11
492.6205511554313
 21
468.3909947544491
 31
0.0
 12
492.2038844887648
 22
470.8909947544491
 32
0.0
 13
492.2038844887648
 23
470.8909947544491
 33
0.0
  0
SOLID
  5
215
330
20F
100
AcDbEntity
  8
0
 62
     0
100
AcDbTrace
 10
491.7872178220981
 20
403.316560899688
 30
0.0
 11
492.6205511554313
 21
403.316560899688
 31
0.0
 12
492.2038844887648
 22
400.8165608996883
 32
0.0
 13
492.2038844887648
 23
400.8165608996883
 33
0.0
  0
MTEXT
  5
216
330
20F
100
AcDbEntity
  8
0
 62
     0
100
AcDbMText
 10
490.3288844887646
 20
435.8537778270688
 30
0.0
 40
2.5
 41
0.0
 46
0.0
 71
     5
 72
     1
  1
40
 11
0.0000000000000001
 21
1.0
 31
0.0
 73
     1
 44
1.0
  0
POINT
  5
217
330
20F
100
AcDbEntity
  8
Defpoints
 62
     0
100
AcDbPoint
 10
517.3970690082454
 20
470.8909947544491
 30
0.0
  0
POINT
  5
218
330
20F
100
AcDbEntity
  8
Defpoints
 62
     0
100
AcDbPoint
 10
511.3067925151304
 20
400.8165608996883
 30
0.0
  0
POINT
  5
219
330
20F
100
AcDbEntity
  8
Defpoints
 62
     0
100
AcDbPoint
 10
492.2038844887648
 20
400.8165608996883
 30
0.0
  0
ENDBLK
  5
21A
330
20F
100
AcDbEntity
  8
0
100
AcDbBlockEnd
  0
BLOCK
  5
35C
330
352
100
AcDbEntity
  8
0
100
AcDbBlockBegin
  2
*D17
 70
     1
 10
0.0
 20
0.0
 30
0.0
  3
*D17
  1

  0
LINE
  5
569
330
352
100
AcDbEntity
  8
0
 62
     0
440
 16777216
370
    -2
100
AcDbLine
 10
474.0439782011385
 20
684.4361929328932
 30
0.0
 11
474.0439782011385
 21
717.3004977882907
 31
0.0
  0
LINE
  5
56A
330
352
100
AcDbEntity
  8
0
 62
     0
440
 16777216
370
    -2
100
AcDbLine
 10
489.0439782011386
 20
707.8439273701988
 30
0.0
 11
489.0439782011386
 21
717.3004977882907
 31
0.0
  0
LINE
  5
56B
330
352
100
AcDbEntity
  8
0
 62
     0
440
 16777216
370
    -2
100
AcDbLine
 10
476.5439782011386
 20
716.0504977882907
 30
0.0
 11
486.5439782011385
 21
716.0504977882907
 31
0.0
  0
SOLID
  5
56C
330
352
100
AcDbEntity
  8
0
 62
     0
440
 16777216
100
AcDbTrace
 10
476.5439782011386
 20
716.4671644549572
 30
0.0
 11
476.5439782011386
 21
715.6338311216241
 31
0.0
 12
474.0439782011385
 22
716.0504977882907
 32
0.0
 13
474.0439782011385
 23
716.0504977882907
 33
0.0
  0
SOLID
  5
56D
330
352
100
AcDbEntity
  8
0
 62
     0
440
 16777216
100
AcDbTrace
 10
486.5439782011385
 20
716.4671644549572
 30
0.0
 11
486.5439782011385
 21
715.6338311216241
 31
0.0
 12
489.0439782011386
 22
716.0504977882907
 32
0.0
 13
489.0439782011386
 23
716.0504977882907
 33
0.0
  0
MTEXT
  5
56E
330
352
100
AcDbEntity
  8
0
 62
     0
440
 16777216
100
AcDbMText
 10
481.5439782011385
 20
717.9254977882907
 30
0.0
 40
2.5
 41
0.0
 46
0.0
 71
     5
 72
     1
  1
15
 73
     1
 44
1.0
  0
POINT
  5
56F
330
352
100
AcDbEntity
  8
Defpoints
 62
     0
440
 16777216
100
AcDbPoint
 10
474.0439782011385
 20
683.8111929328935
 30
0.0
  0
POINT
  5
570
330
352
100
AcDbEntity
  8
Defpoints
 62
     0
440
 16777216
100
AcDbPoint
 10
489.0439782011386
 20
707.2189273701988
 30
0.0
  0
POINT
  5
571
330
352
100
AcDbEntity
  8
Defpoints
 62
     0
440
 16777216
100
AcDbPoint
 10
489.0439782011386
 20
716.0504977882907
 30
0.0
  0
ENDBLK
  5
35D
330
352
100
AcDbEntity
  8
0
100
AcDbBlockEnd
  0
BLOCK
  5
368
330
35E
100
AcDbEntity
  8
0
100
AcDbBlockBegin
  2
*D18
 70
     1
 10
0.0
 20
0.0
 30
0.0
  3
*D18
  1

  0
LINE
  5
42A
330
35E
100
AcDbEntity
  8
0
 62
     0
440
 16777216
370
    -2
100
AcDbLine
 10
348.3367717252961
 20
683.5939273701983
 30
0.0
 11
336.0526794655559
 21
683.5939273701983
 31
0.0
  0
LINE
  5
42B
330
35E
100
AcDbEntity
  8
0
 62
     0
440
 16777216
370
    -2
100
AcDbLine
 10
350.1887385598983
 20
614.5939273701984
 30
0.0
 11
336.0526794655558
 21
614.5939273701984
 31
0.0
  0
LINE
  5
42C
330
35E
100
AcDbEntity
  8
0
 62
     0
440
 16777216
370
    -2
100
AcDbLine
 10
337.3026794655558
 20
681.0939273701983
 30
0.0
 11
337.3026794655558
 21
617.0939273701983
 31
0.0
  0
SOLID
  5
42D
330
35E
100
AcDbEntity
  8
0
 62
     0
440
 16777216
100
AcDbTrace
 10
336.8860127988892
 20
681.0939273701983
 30
0.0
 11
337.7193461322225
 21
681.0939273701983
 31
0.0
 12
337.3026794655558
 22
683.5939273701983
 32
0.0
 13
337.3026794655558
 23
683.5939273701983
 33
0.0
  0
SOLID
  5
42E
330
35E
100
AcDbEntity
  8
0
 62
     0
440
 16777216
100
AcDbTrace
 10
336.8860127988891
 20
617.0939273701983
 30
0.0
 11
337.7193461322225
 21
617.0939273701983
 31
0.0
 12
337.3026794655558
 22
614.5939273701984
 32
0.0
 13
337.3026794655558
 23
614.5939273701984
 33
0.0
  0
MTEXT
  5
42F
330
35E
100
AcDbEntity
  8
0
 62
     0
440
 16777216
100
AcDbMText
 10
335.4276794655557
 20
649.0939273701983
 30
0.0
 40
2.5
 41
0.0
 46
0.0
 71
     5
 72
     1
  1
40
 11
0.0000000000000001
 21
1.0
 31
0.0
 73
     1
 44
1.0
  0
POINT
  5
430
330
35E
100
AcDbEntity
  8
Defpoints
 62
     0
440
 16777216
100
AcDbPoint
 10
348.9617717252961
 20
683.5939273701983
 30
0.0
  0
POINT
  5
431
330
35E
100
AcDbEntity
  8
Defpoints
 62
     0
440
 16777216
100
AcDbPoint
 10
350.8137385598983
 20
614.5939273701984
 30
0.0
  0
POINT
  5
432
330
35E
100
AcDbEntity
  8
Defpoints
 62
     0
440
 16777216
100
AcDbPoint
 10
337.3026794655558
 20
614.5939273701984
 30
0.0
  0
ENDBLK
  5
369
330
35E
100
AcDbEntity
  8
0
100
AcDbBlockEnd
  0
BLOCK
  5
374
330
36A
100
AcDbEntity
  8
0
100
AcDbBlockBegin
  2
*D19
 70
     1
 10
0.0
 20
0.0
 30
0.0
  3
*D19
  1

  0
LINE
  5
57B
330
36A
100
AcDbEntity
  8
0
 62
     0
440
 16777216
370
    -2
100
AcDbLine
 10
475.7154033666266
 20
684.6683612249591
 30
0.0
 11
466.2094319514475
 21
684.6683612249591
 31
0.0
  0
LINE
  5
57C
330
36A
100
AcDbEntity
  8
0
 62
     0
440
 16777216
370
    -2
100
AcDbLine
 10
485.9373399778132
 20
614.5939273701984
 30
0.0
 11
466.2094319514475
 21
614.5939273701984
 31
0.0
  0
LINE
  5
57D
330
36A
100
AcDbEntity
  8
0
 62
     0
440
 16777216
370
    -2
100
AcDbLine
 10
467.4594319514477
 20
682.168361224959
 30
0.0
 11
467.4594319514476
 21
617.0939273701983
 31
0.0
  0
SOLID
  5
57E
330
36A
100
AcDbEntity
  8
0
 62
     0
440
 16777216
100
AcDbTrace
 10
467.042765284781
 20
682.168361224959
 30
0.0
 11
467.8760986181144
 21
682.168361224959
 31
0.0
 12
467.4594319514477
 22
684.6683612249591
 32
0.0
 13
467.4594319514477
 23
684.6683612249591
 33
0.0
  0
SOLID
  5
57F
330
36A
100
AcDbEntity
  8
0
 62
     0
440
 16777216
100
AcDbTrace
 10
467.0427652847807
 20
617.0939273701983
 30
0.0
 11
467.8760986181143
 21
617.0939273701983
 31
0.0
 12
467.4594319514476
 22
614.5939273701984
 32
0.0
 13
467.4594319514476
 23
614.5939273701984
 33
0.0
  0
MTEXT
  5
580
330
36A
100
AcDbEntity
  8
0
 62
     0
440
 16777216
100
AcDbMText
 10
465.5844319514476
 20
649.6311442975787
 30
0.0
 40
2.5
 41
0.0
 46
0.0
 71
     5
 72
     1
  1
40
 11
0.0000000000000001
 21
1.0
 31
0.0
 73
     1
 44
1.0
  0
POINT
  5
581
330
36A
100
AcDbEntity
  8
Defpoints
 62
     0
440
 16777216
100
AcDbPoint
 10
476.3404033666268
 20
684.6683612249591
 30
0.0
  0
POINT
  5
582
330
36A
100
AcDbEntity
  8
Defpoints
 62
     0
440
 16777216
100
AcDbPoint
 10
486.562339977813
 20
614.5939273701984
 30
0.0
  0
POINT
  5
583
330
36A
100
AcDbEntity
  8
Defpoints
 62
     0
440
 16777216
100
AcDbPoint
 10
467.4594319514476
 20
614.5939273701984
 30
0.0
  0
ENDBLK
  5
375
330
36A
100
AcDbEntity
  8
0
100
AcDbBlockEnd
  0
BLOCK
  5
380
330
376
100
AcDbEntity
  8
0
100
AcDbBlockBegin
  2
*D20
 70
     1
 10
0.0
 20
0.0
 30
0.0
  3
*D20
  1

  0
LINE
  5
560
330
376
100
AcDbEntity
  8
0
 62
     0
370
    -2
100
AcDbLine
 10
519.6689782011384
 20
701.5939273701985
 30
0.0
 11
527.0881942154252
 21
701.5939273701985
 31
0.0
  0
LINE
  5
561
330
376
100
AcDbEntity
  8
0
 62
     0
370
    -2
100
AcDbLine
 10
516.6689782011384
 20
709.5939273701985
 30
0.0
 11
527.0881942154252
 21
709.5939273701985
 31
0.0
  0
LINE
  5
562
330
376
100
AcDbEntity
  8
0
 62
     0
370
    -2
100
AcDbLine
 10
525.8381942154252
 20
704.0939273701988
 30
0.0
 11
525.8381942154252
 21
707.0939273701985
 31
0.0
  0
SOLID
  5
563
330
376
100
AcDbEntity
  8
0
 62
     0
100
AcDbTrace
 10
525.4215275487585
 20
704.0939273701988
 30
0.0
 11
526.2548608820918
 21
704.0939273701988
 31
0.0
 12
525.8381942154252
 22
701.5939273701985
 32
0.0
 13
525.8381942154252
 23
701.5939273701985
 33
0.0
  0
SOLID
  5
564
330
376
100
AcDbEntity
  8
0
 62
     0
100
AcDbTrace
 10
525.4215275487585
 20
707.0939273701985
 30
0.0
 11
526.2548608820918
 21
707.0939273701985
 31
0.0
 12
525.8381942154252
 22
709.5939273701985
 32
0.0
 13
525.8381942154252
 23
709.5939273701985
 33
0.0
  0
MTEXT
  5
565
330
376
100
AcDbEntity
  8
0
 62
     0
100
AcDbMText
 10
523.9631942154251
 20
705.5939273701986
 30
0.0
 40
2.5
 41
0.0
 46
0.0
 71
     5
 72
     1
  1
8
 11
0.0000000000000001
 21
1.0
 31
0.0
 73
     1
 44
1.0
  0
POINT
  5
566
330
376
100
AcDbEntity
  8
Defpoints
 62
     0
100
AcDbPoint
 10
519.0439782011384
 20
701.5939273701985
 30
0.0
  0
POINT
  5
567
330
376
100
AcDbEntity
  8
Defpoints
 62
     0
100
AcDbPoint
 10
516.0439782011384
 20
709.5939273701985
 30
0.0
  0
POINT
  5
568
330
376
100
AcDbEntity
  8
Defpoints
 62
     0
100
AcDbPoint
 10
525.8381942154252
 20
709.5939273701985
 30
0.0
  0
ENDBLK
  5
381
330
376
100
AcDbEntity
  8
0
100
AcDbBlockEnd
  0
BLOCK
  5
395
330
38B
100
AcDbEntity
  8
0
100
AcDbBlockBegin
  2
*D21
 70
     1
 10
0.0
 20
0.0
 30
0.0
  3
*D21
  1

  0
LINE
  5
572
330
38B
100
AcDbEntity
  8
0
 62
     0
440
 16777216
370
    -2
100
AcDbLine
 10
491.4189782011384
 20
709.5939273701985
 30
0.0
 11
466.2094319514475
 21
709.5939273701985
 31
0.0
  0
LINE
  5
573
330
38B
100
AcDbEntity
  8
0
 62
     0
440
 16777216
370
    -2
100
AcDbLine
 10
475.7154033666274
 20
684.6683612249591
 30
0.0
 11
466.2094319514475
 21
684.6683612249591
 31
0.0
  0
LINE
  5
574
330
38B
100
AcDbEntity
  8
0
 62
     0
440
 16777216
370
    -2
100
AcDbLine
 10
467.4594319514476
 20
707.0939273701985
 30
0.0
 11
467.4594319514476
 21
687.168361224959
 31
0.0
  0
SOLID
  5
575
330
38B
100
AcDbEntity
  8
0
 62
     0
440
 16777216
100
AcDbTrace
 10
467.0427652847807
 20
707.0939273701985
 30
0.0
 11
467.8760986181143
 21
707.0939273701985
 31
0.0
 12
467.4594319514476
 22
709.5939273701985
 32
0.0
 13
467.4594319514476
 23
709.5939273701985
 33
0.0
  0
SOLID
  5
576
330
38B
100
AcDbEntity
  8
0
 62
     0
440
 16777216
100
AcDbTrace
 10
467.0427652847807
 20
687.168361224959
 30
0.0
 11
467.8760986181143
 21
687.168361224959
 31
0.0
 12
467.4594319514476
 22
684.6683612249591
 32
0.0
 13
467.4594319514476
 23
684.6683612249591
 33
0.0
  0
MTEXT
  5
577
330
38B
100
AcDbEntity
  8
0
 62
     0
440
 16777216
100
AcDbMText
 10
465.5844319514475
 20
697.1311442975789
 30
0.0
 40
2.5
 41
0.0
 46
0.0
 71
     5
 72
     1
  1
26
 11
0.0000000000000001
 21
1.0
 31
0.0
 73
     1
 44
1.0
  0
POINT
  5
578
330
38B
100
AcDbEntity
  8
Defpoints
 62
     0
440
 16777216
100
AcDbPoint
 10
492.0439782011383
 20
709.5939273701985
 30
0.0
  0
POINT
  5
579
330
38B
100
AcDbEntity
  8
Defpoints
 62
     0
440
 16777216
100
AcDbPoint
 10
476.3404033666273
 20
684.6683612249591
 30
0.0
  0
POINT
  5
57A
330
38B
100
AcDbEntity
  8
Defpoints
 62
     0
440
 16777216
100
AcDbPoint
 10
467.4594319514476
 20
684.6683612249591
 30
0.0
  0
ENDBLK
  5
396
330
38B
100
AcDbEntity
  8
0
100
AcDbBlockEnd
  0
BLOCK
  5
3B3
330
3A9
100
AcDbEntity
  8
0
100
AcDbBlockBegin
  2
*D22
 70
     1
 10
0.0
 20
0.0
 30
0.0
  3
*D22
  1

  0
LINE
  5
3AA
330
3A9
100
AcDbEntity
  8
0
 62
     0
370
    -2
100
AcDbLine
 10
390.1208639850364
 20
701.5939273701985
 30
0.0
 11
398.2479112374116
 21
701.5939273701985
 31
0.0
  0
LINE
  5
3AB
330
3A9
100
AcDbEntity
  8
0
 62
     0
370
    -2
100
AcDbLine
 10
387.1208639850364
 20
709.5939273701985
 30
0.0
 11
398.2479112374116
 21
709.5939273701985
 31
0.0
  0
LINE
  5
3AC
330
3A9
100
AcDbEntity
  8
0
 62
     0
370
    -2
100
AcDbLine
 10
396.9979112374117
 20
704.0939273701988
 30
0.0
 11
396.9979112374117
 21
707.0939273701985
 31
0.0
  0
SOLID
  5
3AD
330
3A9
100
AcDbEntity
  8
0
 62
     0
100
AcDbTrace
 10
396.581244570745
 20
704.0939273701988
 30
0.0
 11
397.4145779040783
 21
704.0939273701988
 31
0.0
 12
396.9979112374117
 22
701.5939273701985
 32
0.0
 13
396.9979112374117
 23
701.5939273701985
 33
0.0
  0
SOLID
  5
3AE
330
3A9
100
AcDbEntity
  8
0
 62
     0
100
AcDbTrace
 10
396.581244570745
 20
707.0939273701985
 30
0.0
 11
397.4145779040783
 21
707.0939273701985
 31
0.0
 12
396.9979112374117
 22
709.5939273701985
 32
0.0
 13
396.9979112374117
 23
709.5939273701985
 33
0.0
  0
MTEXT
  5
3AF
330
3A9
100
AcDbEntity
  8
0
 62
     0
100
AcDbMText
 10
395.1229112374115
 20
705.5939273701986
 30
0.0
 40
2.5
 41
0.0
 46
0.0
 71
     5
 72
     1
  1
8
 11
0.0000000000000001
 21
1.0
 31
0.0
 73
     1
 44
1.0
  0
POINT
  5
3B0
330
3A9
100
AcDbEntity
  8
Defpoints
 62
     0
100
AcDbPoint
 10
389.4958639850364
 20
701.5939273701985
 30
0.0
  0
POINT
  5
3B1
330
3A9
100
AcDbEntity
  8
Defpoints
 62
     0
100
AcDbPoint
 10
386.4958639850364
 20
709.5939273701985
 30
0.0
  0
POINT
  5
3B2
330
3A9
100
AcDbEntity
  8
Defpoints
 62
     0
100
AcDbPoint
 10
396.9979112374117
 20
709.5939273701985
 30
0.0
  0
ENDBLK
  5
3B4
330
3A9
100
AcDbEntity
  8
0
100
AcDbBlockEnd
  0
BLOCK
  5
3BF
330
3B5
100
AcDbEntity
  8
0
100
AcDbBlockBegin
  2
*D23
 70
     1
 10
0.0
 20
0.0
 30
0.0
  3
*D23
  1

  0
LINE
  5
3B6
330
3B5
100
AcDbEntity
  8
0
 62
     0
440
 16777216
370
    -2
100
AcDbLine
 10
389.4958639850364
 20
707.2189273701982
 30
0.0
 11
389.4958639850364
 21
716.3961685085249
 31
0.0
  0
LINE
  5
3B7
330
3B5
100
AcDbEntity
  8
0
 62
     0
440
 16777216
370
    -2
100
AcDbLine
 10
359.4958639850363
 20
707.2189273701982
 30
0.0
 11
359.4958639850363
 21
716.3961685085249
 31
0.0
  0
LINE
  5
3B8
330
3B5
100
AcDbEntity
  8
0
 62
     0
440
 16777216
370
    -2
100
AcDbLine
 10
386.9958639850364
 20
715.146168508525
 30
0.0
 11
361.9958639850363
 21
715.146168508525
 31
0.0
  0
SOLID
  5
3B9
330
3B5
100
AcDbEntity
  8
0
 62
     0
440
 16777216
100
AcDbTrace
 10
386.9958639850364
 20
715.5628351751911
 30
0.0
 11
386.9958639850364
 21
714.7295018418581
 31
0.0
 12
389.4958639850364
 22
715.146168508525
 32
0.0
 13
389.4958639850364
 23
715.146168508525
 33
0.0
  0
SOLID
  5
3BA
330
3B5
100
AcDbEntity
  8
0
 62
     0
440
 16777216
100
AcDbTrace
 10
361.9958639850363
 20
715.5628351751911
 30
0.0
 11
361.9958639850363
 21
714.7295018418581
 31
0.0
 12
359.4958639850363
 22
715.146168508525
 32
0.0
 13
359.4958639850363
 23
715.146168508525
 33
0.0
  0
MTEXT
  5
3BB
330
3B5
100
AcDbEntity
  8
0
 62
     0
440
 16777216
100
AcDbMText
 10
374.4958639850363
 20
717.0211685085249
 30
0.0
 40
2.5
 41
0.0
 46
0.0
 71
     5
 72
     1
  1
30
 73
     1
 44
1.0
  0
POINT
  5
3BC
330
3B5
100
AcDbEntity
  8
Defpoints
 62
     0
440
 16777216
100
AcDbPoint
 10
389.4958639850364
 20
706.5939273701982
 30
0.0
  0
POINT
  5
3BD
330
3B5
100
AcDbEntity
  8
Defpoints
 62
     0
440
 16777216
100
AcDbPoint
 10
359.4958639850363
 20
706.5939273701982
 30
0.0
  0
POINT
  5
3BE
330
3B5
100
AcDbEntity
  8
Defpoints
 62
     0
440
 16777216
100
AcDbPoint
 10
359.4958639850363
 20
715.146168508525
 30
0.0
  0
ENDBLK
  5
3C0
330
3B5
100
AcDbEntity
  8
0
100
AcDbBlockEnd
  0
BLOCK
  5
3CB
330
3C1
100
AcDbEntity
  8
0
100
AcDbBlockBegin
  2
*D24
 70
     1
 10
0.0
 20
0.0
 30
0.0
  3
*D24
  1

  0
LINE
  5
3C2
330
3C1
100
AcDbEntity
  8
0
 62
     0
440
 16777216
370
    -2
100
AcDbLine
 10
361.8708639850364
 20
709.5939273701982
 30
0.0
 11
336.0526794655558
 21
709.5939273701982
 31
0.0
  0
LINE
  5
3C3
330
3C1
100
AcDbEntity
  8
0
 62
     0
440
 16777216
370
    -2
100
AcDbLine
 10
357.3708639850364
 20
683.5939273701983
 30
0.0
 11
336.0526794655558
 21
683.5939273701983
 31
0.0
  0
LINE
  5
3C4
330
3C1
100
AcDbEntity
  8
0
 62
     0
440
 16777216
370
    -2
100
AcDbLine
 10
337.3026794655558
 20
707.0939273701982
 30
0.0
 11
337.3026794655558
 21
686.0939273701983
 31
0.0
  0
SOLID
  5
3C5
330
3C1
100
AcDbEntity
  8
0
 62
     0
440
 16777216
100
AcDbTrace
 10
336.8860127988891
 20
707.0939273701982
 30
0.0
 11
337.7193461322225
 21
707.0939273701982
 31
0.0
 12
337.3026794655558
 22
709.5939273701982
 32
0.0
 13
337.3026794655558
 23
709.5939273701982
 33
0.0
  0
SOLID
  5
3C6
330
3C1
100
AcDbEntity
  8
0
 62
     0
440
 16777216
100
AcDbTrace
 10
336.8860127988891
 20
686.0939273701983
 30
0.0
 11
337.7193461322225
 21
686.0939273701983
 31
0.0
 12
337.3026794655558
 22
683.5939273701983
 32
0.0
 13
337.3026794655558
 23
683.5939273701983
 33
0.0
  0
MTEXT
  5
3C7
330
3C1
100
AcDbEntity
  8
0
 62
     0
440
 16777216
100
AcDbMText
 10
335.4276794655557
 20
696.5939273701982
 30
0.0
 40
2.5
 41
0.0
 46
0.0
 71
     5
 72
     1
  1
26
 11
0.0000000000000001
 21
1.0
 31
0.0
 73
     1
 44
1.0
  0
POINT
  5
3C8
330
3C1
100
AcDbEntity
  8
Defpoints
 62
     0
440
 16777216
100
AcDbPoint
 10
362.4958639850364
 20
709.5939273701982
 30
0.0
  0
POINT
  5
3C9
330
3C1
100
AcDbEntity
  8
Defpoints
 62
     0
440
 16777216
100
AcDbPoint
 10
357.9958639850364
 20
683.5939273701983
 30
0.0
  0
POINT
  5
3CA
330
3C1
100
AcDbEntity
  8
Defpoints
 62
     0
440
 16777216
100
AcDbPoint
 10
337.3026794655558
 20
683.5939273701983
 30
0.0
  0
ENDBLK
  5
3CC
330
3C1
100
AcDbEntity
  8
0
100
AcDbBlockEnd
  0
BLOCK
  5
3D7
330
3CD
100
AcDbEntity
  8
0
100
AcDbBlockBegin
  2
*D25
 70
     1
 10
0.0
 20
0.0
 30
0.0
  3
*D25
  1

  0
LINE
  5
3E5
330
3CD
100
AcDbEntity
  8
0
 62
     0
440
 16777216
370
    -2
100
AcDbLine
 10
344.4958639850364
 20
681.2189273701985
 30
0.0
 11
344.4958639850364
 21
716.3961685085249
 31
0.0
  0
LINE
  5
3E6
330
3CD
100
AcDbEntity
  8
0
 62
     0
440
 16777216
370
    -2
100
AcDbLine
 10
359.4958639850363
 20
707.2189273701982
 30
0.0
 11
359.4958639850363
 21
716.3961685085249
 31
0.0
  0
LINE
  5
3E7
330
3CD
100
AcDbEntity
  8
0
 62
     0
440
 16777216
370
    -2
100
AcDbLine
 10
346.9958639850364
 20
715.146168508525
 30
0.0
 11
356.9958639850363
 21
715.146168508525
 31
0.0
  0
SOLID
  5
3E8
330
3CD
100
AcDbEntity
  8
0
 62
     0
440
 16777216
100
AcDbTrace
 10
346.9958639850364
 20
715.5628351751911
 30
0.0
 11
346.9958639850364
 21
714.7295018418581
 31
0.0
 12
344.4958639850364
 22
715.146168508525
 32
0.0
 13
344.4958639850364
 23
715.146168508525
 33
0.0
  0
SOLID
  5
3E9
330
3CD
100
AcDbEntity
  8
0
 62
     0
440
 16777216
100
AcDbTrace
 10
356.9958639850363
 20
715.5628351751911
 30
0.0
 11
356.9958639850363
 21
714.7295018418581
 31
0.0
 12
359.4958639850363
 22
715.146168508525
 32
0.0
 13
359.4958639850363
 23
715.146168508525
 33
0.0
  0
MTEXT
  5
3EA
330
3CD
100
AcDbEntity
  8
0
 62
     0
440
 16777216
100
AcDbMText
 10
351.9958639850364
 20
717.0211685085249
 30
0.0
 40
2.5
 41
0.0
 46
0.0
 71
     5
 72
     1
  1
15
 73
     1
 44
1.0
  0
POINT
  5
3EB
330
3CD
100
AcDbEntity
  8
Defpoints
 62
     0
440
 16777216
100
AcDbPoint
 10
344.4958639850364
 20
680.5939273701985
 30
0.0
  0
POINT
  5
3EC
330
3CD
100
AcDbEntity
  8
Defpoints
 62
     0
440
 16777216
100
AcDbPoint
 10
359.4958639850363
 20
706.5939273701982
 30
0.0
  0
POINT
  5
3ED
330
3CD
100
AcDbEntity
  8
Defpoints
 62
     0
440
 16777216
100
AcDbPoint
 10
359.4958639850363
 20
715.146168508525
 30
0.0
  0
ENDBLK
  5
3D8
330
3CD
100
AcDbEntity
  8
0
100
AcDbBlockEnd
  0
BLOCK
  5
3E3
330
3D9
100
AcDbEntity
  8
0
100
AcDbBlockBegin
  2
*D26
 70
     1
 10
0.0
 20
0.0
 30
0.0
  3
*D26
  1

  0
LINE
  5
557
330
3D9
100
AcDbEntity
  8
0
 62
     0
440
 16777216
370
    -2
100
AcDbLine
 10
519.0439782011384
 20
707.2189273701982
 30
0.0
 11
519.0439782011384
 21
717.3004977882905
 31
0.0
  0
LINE
  5
558
330
3D9
100
AcDbEntity
  8
0
 62
     0
440
 16777216
370
    -2
100
AcDbLine
 10
489.0439782011386
 20
707.2189273701982
 30
0.0
 11
489.0439782011386
 21
717.3004977882905
 31
0.0
  0
LINE
  5
559
330
3D9
100
AcDbEntity
  8
0
 62
     0
440
 16777216
370
    -2
100
AcDbLine
 10
516.5439782011384
 20
716.0504977882906
 30
0.0
 11
491.5439782011386
 21
716.0504977882906
 31
0.0
  0
SOLID
  5
55A
330
3D9
100
AcDbEntity
  8
0
 62
     0
440
 16777216
100
AcDbTrace
 10
516.5439782011384
 20
716.4671644549572
 30
0.0
 11
516.5439782011384
 21
715.633831121624
 31
0.0
 12
519.0439782011384
 22
716.0504977882906
 32
0.0
 13
519.0439782011384
 23
716.0504977882906
 33
0.0
  0
SOLID
  5
55B
330
3D9
100
AcDbEntity
  8
0
 62
     0
440
 16777216
100
AcDbTrace
 10
491.5439782011386
 20
716.4671644549572
 30
0.0
 11
491.5439782011386
 21
715.633831121624
 31
0.0
 12
489.0439782011386
 22
716.0504977882906
 32
0.0
 13
489.0439782011386
 23
716.0504977882906
 33
0.0
  0
MTEXT
  5
55C
330
3D9
100
AcDbEntity
  8
0
 62
     0
440
 16777216
100
AcDbMText
 10
504.0439782011385
 20
717.9254977882906
 30
0.0
 40
2.5
 41
0.0
 46
0.0
 71
     5
 72
     1
  1
30
 73
     1
 44
1.0
  0
POINT
  5
55D
330
3D9
100
AcDbEntity
  8
Defpoints
 62
     0
440
 16777216
100
AcDbPoint
 10
519.0439782011384
 20
706.5939273701982
 30
0.0
  0
POINT
  5
55E
330
3D9
100
AcDbEntity
  8
Defpoints
 62
     0
440
 16777216
100
AcDbPoint
 10
489.0439782011386
 20
706.5939273701982
 30
0.0
  0
POINT
  5
55F
330
3D9
100
AcDbEntity
  8
Defpoints
 62
     0
440
 16777216
100
AcDbPoint
 10
489.0439782011386
 20
716.0504977882906
 30
0.0
  0
ENDBLK
  5
3E4
330
3D9
100
AcDbEntity
  8
0
100
AcDbBlockEnd
  0
BLOCK
  5
503
330
502
100
AcDbEntity
  8
0
100
AcDbBlockBegin
  2
PRCLFILL
 70
     0
 10
0.0
 20
0.0
 30
0.0
  3
PRCLFILL
  1

  0
LINE
  5
504
330
502
100
AcDbEntity
  8
0
 62
     0
 48
20.0
100
AcDbLine
 10
-1.0
 20
-0.1044679561127122
 30
0.0
 11
-0.6268077366762716
 21
-0.1044679561127122
 31
0.0
  0
LINE
  5
505
330
502
100
AcDbEntity
  8
0
 62
     0
 48
20.0
100
AcDbLine
 10
-1.0
 20
-0.0544679561127115
 30
0.0
 11
-0.3268077366762689
 21
-0.0544679561127115
 31
0.0
  0
LINE
  5
506
330
502
100
AcDbEntity
  8
0
 62
     0
 48
20.0
100
AcDbLine
 10
-1.0
 20
0.0955320438872889
 30
0.0
 11
-0.5731922633237314
 21
0.0955320438872889
 31
0.0
  0
LINE
  5
507
330
502
100
AcDbEntity
  8
0
 62
     0
 48
20.0
100
AcDbLine
 10
-1.0
 20
0.0455320438872882
 30
0.0
 11
-0.2731922633237289
 21
0.0455320438872882
 31
0.0
  0
LINE
  5
508
330
502
100
AcDbEntity
  8
0
 62
     0
 48
20.0
100
AcDbLine
 10
-1.0
 20
-0.0044679561127126
 30
0.0
 11
-0.0268077366762771
 21
-0.0044679561127126
 31
0.0
  0
LINE
  5
509
330
502
100
AcDbEntity
  8
0
 48
20.0
100
AcDbLine
 10
0.0
 20
0.0
 30
0.0
 11
-1.0
 21
-0.1666666666666678
 31
0.0
  0
LINE
  5
50A
330
502
100
AcDbEntity
  8
0
 48
20.0
100
AcDbLine
 10
-1.0
 20
0.1666666666666678
 30
0.0
 11
0.0
 21
0.0
 31
0.0
  0
LINE
  5
50B
330
502
100
AcDbEntity
  8
0
 48
20.0
100
AcDbLine
 10
-1.0
 20
-0.1666666666666678
 30
0.0
 11
-1.0
 21
0.1666666666666678
 31
0.0
  0
LINE
  5
50C
330
502
100
AcDbEntity
  8
0
 62
     0
 48
20.0
100
AcDbLine
 10
-1.0
 20
-0.1544679561127111
 30
0.0
 11
-0.9268077366762629
 21
-0.1544679561127111
 31
0.0
  0
LINE
  5
50D
330
502
100
AcDbEntity
  8
0
 62
     0
 48
20.0
100
AcDbLine
 10
-1.0
 20
0.1455320438872878
 30
0.0
 11
-0.8731922633237232
 21
0.1455320438872878
 31
0.0
  0
ENDBLK
  5
50E
330
502
100
AcDbEntity
  8
0
100
AcDbBlockEnd
  0
BLOCK
  5
713
330
70B
100
AcDbEntity
  8
0
 62
     6
100
AcDbBlockBegin
  2
A$Cbf5c47b3
 70
     0
 10
0.0
 20
0.0
 30
0.0
  3
A$Cbf5c47b3
  1

  0
LINE
  5
70C
330
70B
100
AcDbEntity
  8
0
100
AcDbLine
 10
5.990847012556997
 20
99.99999993573723
 30
0.0
 11
5.990847012556997
 21
64.02333757490436
 31
0.0
  0
LINE
  5
70D
330
70B
100
AcDbEntity
  8
0
100
AcDbLine
 10
5.990847012556997
 20
54.66499539767692
 30
0.0
 11
-0.0000001633358977
 21
59.24064391288335
 31
0.0
  0
LINE
  5
70E
330
70B
100
AcDbEntity
  8
0
100
AcDbLine
 10
-0.0000001633358977
 20
59.24064391288335
 30
0.0
 11
11.92005129646051
 21
62.43461207527321
 31
0.0
  0
LINE
  5
70F
330
70B
100
AcDbEntity
  8
0
100
AcDbLine
 10
11.92005129646051
 20
62.43461207527321
 30
0.0
 11
5.990847012556997
 21
64.02333757490436
 31
0.0
  0
LINE
  5
710
330
70B
100
AcDbEntity
  8
0
100
AcDbLine
 10
5.990847012556997
 20
54.66499539767692
 30
0.0
 11
5.990847012556997
 21
-0.0000000642627782
 31
0.0
  0
ENDBLK
  5
714
330
70B
100
AcDbEntity
  8
0
 62
     6
100
AcDbBlockEnd
  0
BLOCK
  5
72B
330
72A
100
AcDbEntity
  8
0
 62
     6
100
AcDbBlockBegin
  2
*D29
 70
     1
 10
0.0
 20
0.0
 30
0.0
  3
*D29
  1

  0
LINE
  5
765
330
72A
100
AcDbEntity
  8
0
 62
     0
440
 16777216
370
    -2
100
AcDbLine
 10
516.5983889677172
 20
709.5939273701987
 30
0.0
 11
525.2980596018845
 21
709.5939273701987
 31
0.0
  0
LINE
  5
766
330
72A
100
AcDbEntity
  8
0
 62
     0
440
 16777216
370
    -2
100
AcDbLine
 10
519.6689782011386
 20
699.5939273701988
 30
0.0
 11
525.2980596018845
 21
699.5939273701988
 31
0.0
  0
LINE
  5
767
330
72A
100
AcDbEntity
  8
0
 62
     0
440
 16777216
370
    -2
100
AcDbLine
 10
524.0480596018847
 20
707.0939273701988
 30
0.0
 11
524.0480596018847
 21
702.0939273701988
 31
0.0
  0
SOLID
  5
768
330
72A
100
AcDbEntity
  8
0
 62
     0
440
 16777216
100
AcDbTrace
 10
523.6313929352179
 20
707.0939273701988
 30
0.0
 11
524.4647262685512
 21
707.0939273701988
 31
0.0
 12
524.0480596018847
 22
709.5939273701987
 32
0.0
 13
524.0480596018847
 23
709.5939273701987
 33
0.0
  0
SOLID
  5
769
330
72A
100
AcDbEntity
  8
0
 62
     0
440
 16777216
100
AcDbTrace
 10
523.6313929352179
 20
702.0939273701988
 30
0.0
 11
524.4647262685512
 21
702.0939273701988
 31
0.0
 12
524.0480596018847
 22
699.5939273701988
 32
0.0
 13
524.0480596018847
 23
699.5939273701988
 33
0.0
  0
MTEXT
  5
76A
330
72A
100
AcDbEntity
  8
0
 62
     0
440
 16777216
100
AcDbMText
 10
522.1730596018845
 20
704.5939273701987
 30
0.0
 40
2.5
 41
0.0
 46
0.0
 71
     5
 72
     1
  1
10
 11
0.0000000000000001
 21
1.0
 31
0.0
 73
     1
 44
1.0
  0
POINT
  5
76B
330
72A
100
AcDbEntity
  8
Defpoints
 62
     0
440
 16777216
100
AcDbPoint
 10
515.9733889677172
 20
709.5939273701987
 30
0.0
  0
POINT
  5
76C
330
72A
100
AcDbEntity
  8
Defpoints
 62
     0
440
 16777216
100
AcDbPoint
 10
519.0439782011386
 20
699.5939273701988
 30
0.0
  0
POINT
  5
76D
330
72A
100
AcDbEntity
  8
Defpoints
 62
     0
440
 16777216
100
AcDbPoint
 10
524.0480596018847
 20
699.5939273701988
 30
0.0
  0
ENDBLK
  5
72C
330
72A
100
AcDbEntity
  8
0
 62
     6
100
AcDbBlockEnd
  0
ENDSEC
  0
SECTION
  2
ENTITIES
  0
ARC
  5
2D1
330
1F
100
AcDbEntity
  8
0
100
AcDbCircle
 10
477.0439782011385
 20
617.5939273701986
 30
0.0
 40
1.5
100
AcDbArc
 50
180.0
 51
270.0
  0
ARC
  5
2D2
330
1F
100
AcDbEntity
  8
0
100
AcDbCircle
 10
492.0439782011383
 20
706.5939273701982
 30
0.0
 40
1.5
100
AcDbArc
 50
90.0
 51
180.0
  0
LINE
  5
2D3
330
1F
100
AcDbEntity
  8
0
100
AcDbLine
 10
477.0439782011385
 20
614.5939273701984
 30
0.0
 11
504.5439782011381
 21
614.5939273701984
 31
0.0
  0
ARC
  5
2D4
330
1F
100
AcDbEntity
  8
0
100
AcDbCircle
 10
477.0439782011385
 20
617.5939273701983
 30
0.0
 40
3.0
100
AcDbArc
 50
180.0
 51
270.0
  0
ARC
  5
2D5
330
1F
100
AcDbEntity
  8
0
100
AcDbCircle
 10
492.0439782011383
 20
706.5939273701982
 30
0.0
 40
3.0
100
AcDbArc
 50
90.0
 51
180.0
  0
ARC
  5
2D6
330
1F
100
AcDbEntity
  8
0
100
AcDbCircle
 10
516.0439782011384
 20
706.5939273701982
 30
0.0
 40
3.0
100
AcDbArc
 50
0.0
 51
90.0
  0
ARC
  5
2D7
330
1F
100
AcDbEntity
  8
0
100
AcDbCircle
 10
516.0439782011384
 20
706.5939273701982
 30
0.0
 40
1.5
100
AcDbArc
 50
0.0
 51
90.0
  0
LINE
  5
2D8
330
1F
100
AcDbEntity
  8
0
100
AcDbLine
 10
477.0439782011385
 20
616.0939273701985
 30
0.0
 11
504.5439782011381
 21
616.0939273701985
 31
0.0
  0
LINE
  5
2D9
330
1F
100
AcDbEntity
  8
0
100
AcDbLine
 10
490.5439782011383
 20
706.5939273701982
 30
0.0
 11
490.5439782011385
 21
671.9821609066996
 31
0.0
  0
LINE
  5
2DA
330
1F
100
AcDbEntity
  8
0
100
AcDbLine
 10
516.0439782011384
 20
708.0939273701988
 30
0.0
 11
492.0439782011383
 21
708.0939273701988
 31
0.0
  0
LINE
  5
2DB
330
1F
100
AcDbEntity
  8
0
100
AcDbLine
 10
517.5439782011384
 20
699.5939273701985
 30
0.0
 11
517.5439782011384
 21
706.5939273701982
 31
0.0
  0
LINE
  5
2DC
330
1F
100
AcDbEntity
  8
0
100
AcDbLine
 10
519.0439782011384
 20
699.5939273701985
 30
0.0
 11
517.5439782011384
 21
699.5939273701985
 31
0.0
  0
LINE
  5
2DD
102
{ACAD_REACTORS
330
2F4
102
}
330
1F
100
AcDbEntity
  8
0
100
AcDbLine
 10
516.0439782011384
 20
709.5939273701985
 30
0.0
 11
492.0439782011383
 21
709.5939273701985
 31
0.0
  0
LINE
  5
2DE
102
{ACAD_REACTORS
330
2ED
102
}
330
1F
100
AcDbEntity
  8
0
100
AcDbLine
 10
519.0439782011384
 20
699.5939273701985
 30
0.0
 11
519.0439782011384
 21
706.5939273701982
 31
0.0
  0
DIMENSION
  5
2EB
102
{ACAD_XDICTIONARY
360
2EC
102
}
102
{ACAD_REACTORS
330
2ED
102
}
330
1F
100
AcDbEntity
  8
0
100
AcDbDimension
280
     0
  2
*D26
 10
489.0439782011386
 20
716.0504977882906
 30
0.0
 11
504.0439782011385
 21
717.9254977882906
 31
0.0
 70
    32
 71
     5
 42
29.99999999999977
 73
     0
 74
     0
 75
     0
  3
ISO-25
100
AcDbAlignedDimension
 13
519.0439782011384
 23
706.5939273701982
 33
0.0
 14
489.0439782011386
 24
706.5939273701982
 34
0.0
100
AcDbRotatedDimension
  0
DIMENSION
  5
2F1
330
1F
100
AcDbEntity
  8
0
100
AcDbDimension
280
     0
  2
*D17
 10
489.0439782011386
 20
716.0504977882907
 30
0.0
 11
481.5439782011385
 21
717.9254977882907
 31
0.0
 70
    32
 71
     5
 42
15.0
 73
     0
 74
     0
 75
     0
  3
ISO-25
100
AcDbAlignedDimension
 13
474.0439782011385
 23
683.8111929328935
 33
0.0
 14
489.0439782011386
 24
707.2189273701988
 34
0.0
100
AcDbRotatedDimension
  0
DIMENSION
  5
2F2
102
{ACAD_XDICTIONARY
360
2F3
102
}
102
{ACAD_REACTORS
330
2F4
102
}
330
1F
100
AcDbEntity
  8
0
100
AcDbDimension
280
     0
  2
*D21
 10
467.4594319514476
 20
684.6683612249591
 30
0.0
 11
465.5844319514475
 21
697.1311442975789
 31
0.0
 70
    32
  1
26
 71
     5
 42
24.92556614523949
 73
     0
 74
     0
 75
     0
  3
ISO-25
100
AcDbAlignedDimension
 13
492.0439782011383
 23
709.5939273701985
 33
0.0
 14
476.3404033666273
 24
684.6683612249591
 34
0.0
 50
90.0
100
AcDbRotatedDimension
  0
LINE
  5
316
330
1F
100
AcDbEntity
  8
0
100
AcDbLine
 10
474.0390659794014
 20
680.3467570258875
 30
0.0
 11
474.0439782011383
 21
647.2537428028013
 31
0.0
  0
LINE
  5
317
330
1F
100
AcDbEntity
  8
0
100
AcDbLine
 10
475.5390659794008
 20
680.343527593267
 30
0.0
 11
475.5421719931526
 21
640.6667516609642
 31
0.0
  0
LINE
  5
318
330
1F
100
AcDbEntity
  8
0
100
AcDbLine
 10
479.2439782011387
 20
668.4467570258875
 30
0.0
 11
487.5439782011382
 21
668.4467570258872
 31
0.0
  0
LINE
  5
319
330
1F
100
AcDbEntity
  8
0
100
AcDbLine
 10
490.5439782011385
 20
671.4467570258872
 30
0.0
 11
490.5439782011385
 21
682.8439273701985
 31
0.0
  0
LINE
  5
31A
330
1F
100
AcDbEntity
  8
0
100
AcDbLine
 10
489.0439782011386
 20
706.5939273701982
 30
0.0
 11
489.0439782011386
 21
671.4467570258872
 31
0.0
  0
ARC
  5
31B
330
1F
100
AcDbEntity
  8
0
100
AcDbCircle
 10
487.5439782011382
 20
671.4467570258872
 30
0.0
 40
3.0
100
AcDbArc
 50
270.0
 51
0.0
  0
ARC
  5
31C
330
1F
100
AcDbEntity
  8
0
100
AcDbCircle
 10
487.5439782011382
 20
671.4467570258872
 30
0.0
 40
1.5
100
AcDbArc
 50
270.0
 51
0.0
  0
ARC
  5
31D
330
1F
100
AcDbEntity
  8
0
100
AcDbCircle
 10
479.2439782011387
 20
671.4467570258872
 30
0.0
 40
3.0
100
AcDbArc
 50
180.0
 51
270.0
  0
ARC
  5
31E
330
1F
100
AcDbEntity
  8
0
100
AcDbCircle
 10
479.2439782011387
 20
671.4467570258872
 30
0.0
 40
1.5
100
AcDbArc
 50
180.0
 51
270.0
  0
ARC
  5
31F
330
1F
100
AcDbEntity
  8
0
100
AcDbCircle
 10
476.5390659794014
 20
680.3467570258875
 30
0.0
 40
2.500000000000028
100
AcDbArc
 50
354.5473780121888
 51
180.0
  0
ARC
  5
320
330
1F
100
AcDbEntity
  8
0
100
AcDbCircle
 10
476.5390659794014
 20
680.3467570258875
 30
0.0
 40
1.000005214603969
100
AcDbArc
 50
354.5411109718323
 51
180.1850322161394
  0
LINE
  5
321
330
1F
100
AcDbEntity
  8
0
100
AcDbLine
 10
477.5345358839016
 20
680.2516250203942
 30
0.0
 11
476.2439782011385
 21
671.4467570258872
 31
0.0
  0
LINE
  5
322
330
1F
100
AcDbEntity
  8
0
100
AcDbLine
 10
477.7439782011381
 20
671.4467570258872
 30
0.0
 11
479.0277537622066
 21
680.1092004648016
 31
0.0
  0
LINE
  5
323
330
1F
100
AcDbEntity
  8
0
100
AcDbLine
 10
487.5439782011382
 20
669.9467570258872
 30
0.0
 11
479.2439782011387
 21
669.9467570258875
 31
0.0
  0
LINE
  5
324
330
1F
100
AcDbEntity
  8
0
100
AcDbLine
 10
489.0439782011386
 20
705.1151569062929
 30
0.0
 11
490.5441306046609
 21
706.6153093098152
 31
0.0
  0
LINE
  5
325
330
1F
100
AcDbEntity
  8
0
100
AcDbLine
 10
492.0225962615212
 20
708.0937749666754
 30
0.0
 11
493.5227486650441
 21
709.5939273701985
 31
0.0
  0
LINE
  5
326
330
1F
100
AcDbEntity
  8
0
100
AcDbLine
 10
489.0439782011386
 20
700.6250288457582
 30
0.0
 11
490.5439782011383
 21
702.125028845758
 31
0.0
  0
LINE
  5
327
330
1F
100
AcDbEntity
  8
0
100
AcDbLine
 10
496.5128767255786
 20
708.0939273701988
 30
0.0
 11
498.0128767255786
 21
709.5939273701985
 31
0.0
  0
LINE
  5
328
330
1F
100
AcDbEntity
  8
0
100
AcDbLine
 10
474.2416318915308
 20
681.332554475616
 30
0.0
 11
475.5532685296723
 21
682.6441911137576
 31
0.0
  0
LINE
  5
329
330
1F
100
AcDbEntity
  8
0
100
AcDbLine
 10
501.0030047861134
 20
708.0939273701988
 30
0.0
 11
502.5030047861132
 21
709.5939273701985
 31
0.0
  0
LINE
  5
32A
330
1F
100
AcDbEntity
  8
0
100
AcDbLine
 10
489.0439782011386
 20
696.1349007852237
 30
0.0
 11
490.5439782011385
 21
697.6349007852237
 31
0.0
  0
LINE
  5
32B
330
1F
100
AcDbEntity
  8
0
100
AcDbLine
 10
474.0393561284271
 20
676.6401506519778
 30
0.0
 11
475.5392384753854
 21
678.1400329989359
 31
0.0
  0
LINE
  5
32C
330
1F
100
AcDbEntity
  8
0
100
AcDbLine
 10
505.4931328466478
 20
708.0939273701988
 30
0.0
 11
506.9931328466477
 21
709.5939273701985
 31
0.0
  0
LINE
  5
32D
330
1F
100
AcDbEntity
  8
0
100
AcDbLine
 10
477.5180689323646
 20
680.1188634559154
 30
0.0
 11
478.8040948725963
 21
681.4048893961468
 31
0.0
  0
LINE
  5
32E
330
1F
100
AcDbEntity
  8
0
100
AcDbLine
 10
489.0439782011386
 20
691.6447727246892
 30
0.0
 11
490.5439782011385
 21
693.1447727246887
 31
0.0
  0
LINE
  5
32F
330
1F
100
AcDbEntity
  8
0
100
AcDbLine
 10
474.0397075831482
 20
672.1503740461643
 30
0.0
 11
475.5395899481926
 21
673.6502564112087
 31
0.0
  0
LINE
  5
330
330
1F
100
AcDbEntity
  8
0
100
AcDbLine
 10
509.9832609071824
 20
708.0939273701982
 30
0.0
 11
511.4832609071823
 21
709.5939273701985
 31
0.0
  0
LINE
  5
331
330
1F
100
AcDbEntity
  8
0
100
AcDbLine
 10
476.7662474987591
 20
675.0099547694292
 30
0.0
 11
478.526219660529
 21
676.7250335432452
 31
0.0
  0
LINE
  5
332
330
1F
100
AcDbEntity
  8
0
100
AcDbLine
 10
489.0439782011386
 20
687.1546446641547
 30
0.0
 11
490.5439782011385
 21
688.6546446641546
 31
0.0
  0
LINE
  5
333
330
1F
100
AcDbEntity
  8
0
100
AcDbLine
 10
474.040059037869
 20
667.6605974403506
 30
0.0
 11
475.5399414210002
 21
669.1604798234816
 31
0.0
  0
LINE
  5
334
330
1F
100
AcDbEntity
  8
0
100
AcDbLine
 10
514.4733889677172
 20
708.0939273701982
 30
0.0
 11
515.973388967717
 21
709.5939273701985
 31
0.0
  0
LINE
  5
335
330
1F
100
AcDbEntity
  8
0
100
AcDbLine
 10
476.5357261495513
 20
670.156264552033
 30
0.0
 11
477.7461184093971
 21
671.3666568118783
 31
0.0
  0
LINE
  5
336
330
1F
100
AcDbEntity
  8
0
100
AcDbLine
 10
489.0439782011386
 20
682.6645166036201
 30
0.0
 11
490.5439782011385
 21
684.1645166036197
 31
0.0
  0
LINE
  5
338
330
1F
100
AcDbEntity
  8
0
100
AcDbLine
 10
517.5419274035625
 20
706.6723377455096
 30
0.0
 11
518.7528042370995
 21
707.8832145790466
 31
0.0
  0
LINE
  5
339
330
1F
100
AcDbEntity
  8
0
100
AcDbLine
 10
477.9906819166956
 20
668.7210922586425
 30
0.0
 11
479.2165966217273
 21
669.9470069636742
 31
0.0
  0
LINE
  5
33B
330
1F
100
AcDbEntity
  8
0
100
AcDbLine
 10
517.5439782011384
 20
702.1842604825508
 30
0.0
 11
519.0439782011384
 21
703.6842604825508
 31
0.0
  0
LINE
  5
33C
330
1F
100
AcDbEntity
  8
0
100
AcDbLine
 10
482.206474744475
 20
668.4467570258875
 30
0.0
 11
483.7064747444752
 21
669.9467570258872
 31
0.0
  0
LINE
  5
33E
330
1F
100
AcDbEntity
  8
0
100
AcDbLine
 10
486.6966028050097
 20
668.4467570258872
 30
0.0
 11
490.5439782011385
 21
672.2941324220162
 31
0.0
  0
LINE
  5
342
330
1F
100
AcDbEntity
  8
0
100
AcDbLine
 10
474.0425192209163
 20
636.2321611996556
 30
0.0
 11
475.5424017306514
 21
637.7320437093906
 31
0.0
  0
LINE
  5
343
330
1F
100
AcDbEntity
  8
0
100
AcDbLine
 10
474.0428706756373
 20
631.7423845938417
 30
0.0
 11
475.5427532034587
 21
633.2422671216636
 31
0.0
  0
LINE
  5
344
330
1F
100
AcDbEntity
  8
0
100
AcDbLine
 10
474.0432221303579
 20
627.2526079880281
 30
0.0
 11
475.543104676266
 21
628.7524905339362
 31
0.0
  0
LINE
  5
345
330
1F
100
AcDbEntity
  8
0
100
AcDbLine
 10
474.0435735850788
 20
622.7628313822147
 30
0.0
 11
475.5434561490733
 21
624.2627139462086
 31
0.0
  0
LINE
  5
346
330
1F
100
AcDbEntity
  8
0
100
AcDbLine
 10
474.0439250398002
 20
618.2730547764012
 30
0.0
 11
475.5438076218807
 21
619.7729373584817
 31
0.0
  0
LINE
  5
347
330
1F
100
AcDbEntity
  8
0
100
AcDbLine
 10
475.3672437349671
 20
615.1062454110338
 30
0.0
 11
476.4693544826338
 21
616.2083561587004
 31
0.0
  0
LINE
  5
348
330
1F
100
AcDbEntity
  8
0
100
AcDbLine
 10
479.3450537546664
 20
614.5939273701984
 30
0.0
 11
480.8450537546662
 21
616.0939273701988
 31
0.0
  0
LINE
  5
349
330
1F
100
AcDbEntity
  8
0
100
AcDbLine
 10
483.8351818152012
 20
614.5939273701984
 30
0.0
 11
485.335181815201
 21
616.0939273701985
 31
0.0
  0
LINE
  5
34A
330
1F
100
AcDbEntity
  8
0
100
AcDbLine
 10
488.3253098757356
 20
614.5939273701984
 30
0.0
 11
489.8253098757358
 21
616.0939273701985
 31
0.0
  0
LINE
  5
34B
330
1F
100
AcDbEntity
  8
0
100
AcDbLine
 10
489.0439782011386
 20
674.9722889672342
 30
0.0
 11
490.5439782011385
 21
676.4722889672341
 31
0.0
  0
LINE
  5
34C
330
1F
100
AcDbEntity
  8
0
100
AcDbLine
 10
489.0439782011386
 20
679.4624170277686
 30
0.0
 11
490.5439782011385
 21
680.9624170277686
 31
0.0
  0
INSERT
  5
34D
330
1F
100
AcDbEntity
  8
0
100
AcDbBlockReference
  2
2
 10
1065.400652842488
 20
181.9359071230923
 30
0.0
 41
-1.0
  0
LINE
  5
34E
330
1F
100
AcDbEntity
  8
0
100
AcDbLine
 10
504.5439782011381
 20
616.0939273701985
 30
0.0
 11
504.5439782011381
 21
614.5939273701984
 31
0.0
  0
DIMENSION
  5
351
330
1F
100
AcDbEntity
  8
0
100
AcDbDimension
280
     0
  2
*D19
 10
467.4594319514476
 20
614.5939273701984
 30
0.0
 11
465.5844319514476
 21
649.6311442975787
 31
0.0
 70
    32
  1
40
 71
     5
 42
70.07443385476074
 73
     0
 74
     0
 75
     0
  3
ISO-25
100
AcDbAlignedDimension
 13
476.3404033666268
 23
684.6683612249591
 33
0.0
 14
486.562339977813
 24
614.5939273701984
 34
0.0
 50
90.0
100
AcDbRotatedDimension
  0
LINE
  5
4EE
330
1F
100
AcDbEntity
  8
0
100
AcDbLine
 10
757.1718316779993
 20
1267.430450682141
 30
0.0
 11
757.1718316779993
 21
1354.370237420912
 31
0.0
  0
LINE
  5
4F4
330
1F
100
AcDbEntity
  8
0
100
AcDbLine
 10
490.5439782011383
 20
706.5939273701982
 30
0.0
 11
490.5439782011383
 21
617.5731331800773
 31
0.0
  0
LINE
  5
4F5
330
1F
100
AcDbEntity
  8
0
100
AcDbLine
 10
504.5439782011383
 20
617.5731331800773
 30
0.0
 11
504.5439782011383
 21
646.3751021976317
 31
0.0
  0
LINE
  5
4F6
330
1F
100
AcDbEntity
  8
0
100
AcDbLine
 10
490.5439782011383
 20
706.7245177781541
 30
0.0
 11
504.5439782011383
 21
706.7245177781541
 31
0.0
  0
LINE
  5
4F7
330
1F
100
AcDbEntity
  8
0
100
AcDbLine
 10
492.0439782011383
 20
706.7245177781542
 30
0.0
 11
492.0439782011383
 21
617.5731331800773
 31
0.0
  0
LINE
  5
4FB
330
1F
100
AcDbEntity
  8
0
100
AcDbLine
 10
490.5439782011383
 20
617.5731331800773
 30
0.0
 11
504.5439782011381
 21
617.5731331800773
 31
0.0
  0
LINE
  5
4FE
330
1F
100
AcDbEntity
  8
0
100
AcDbLine
 10
492.8154379362704
 20
614.5939273701984
 30
0.0
 11
494.3154379362706
 21
616.0939273701985
 31
0.0
  0
LINE
  5
4FF
330
1F
100
AcDbEntity
  8
0
100
AcDbLine
 10
497.3055659968052
 20
614.5939273701984
 30
0.0
 11
498.8055659968053
 21
616.0939273701985
 31
0.0
  0
LINE
  5
543
330
1F
100
AcDbEntity
  8
0
  6
ACAD_ISO02W100
100
AcDbLine
 10
503.0439782011383
 20
617.5731331800773
 30
0.0
 11
503.0439782011383
 21
706.7245177781542
 31
0.0
  0
LINE
  5
5AE
330
1F
100
AcDbEntity
  8
0
100
AcDbLine
 10
504.5439782011383
 20
701.5939273701986
 30
0.0
 11
504.5439782011383
 21
646.3751021976317
 31
0.0
  0
LINE
  5
5B2
330
1F
100
AcDbEntity
  8
0
100
AcDbLine
 10
504.5439782011381
 20
646.3751021976317
 30
0.0
 11
504.5439782011383
 21
706.7245177781541
 31
0.0
  0
LINE
  5
5C2
330
1F
100
AcDbEntity
  8
0
100
AcDbLine
 10
474.0439782011383
 20
665.1130626607671
 30
0.0
 11
475.5439782011385
 21
665.1130626607671
 31
0.0
  0
LINE
  5
5C3
330
1F
100
AcDbEntity
  8
0
100
AcDbLine
 10
474.0439782011383
 20
649.1130626607671
 30
0.0
 11
475.5439782011385
 21
649.1130626607671
 31
0.0
  0
LINE
  5
5C6
330
1F
100
AcDbEntity
  8
0
100
AcDbLine
 10
475.5421719931526
 20
640.6667516609642
 30
0.0
 11
475.5439782011383
 21
617.5939273701986
 31
0.0
  0
LINE
  5
5C7
330
1F
100
AcDbEntity
  8
0
100
AcDbLine
 10
474.0439782011383
 20
640.6667516609642
 30
0.0
 11
474.0439782011383
 21
617.5939273701983
 31
0.0
  0
LINE
  5
5CA
330
1F
100
AcDbEntity
  8
0
100
AcDbLine
 10
474.0439782011383
 20
647.2537428028013
 30
0.0
 11
474.0439782011383
 21
640.6667516609642
 31
0.0
  0
LINE
  5
705
330
1F
100
AcDbEntity
  8
0
100
AcDbLine
 10
502.4750915466198
 20
614.5939273701984
 30
0.0
 11
503.9750915466201
 21
616.0939273701985
 31
0.0
  0
DIMENSION
  5
727
330
1F
100
AcDbEntity
  8
0
100
AcDbDimension
280
     0
  2
*D29
 10
524.0480596018847
 20
699.5939273701988
 30
0.0
 11
524.0480596018847
 21
704.5939273701987
 31
0.0
 70
   160
  1
10
 71
     5
 42
10.0
 73
     0
 74
     0
 75
     0
  3
ISO-25
100
AcDbAlignedDimension
 13
515.973388967717
 23
709.5939273701985
 33
0.0
 14
519.0439782011384
 24
699.5939273701985
 34
0.0
 50
90.0
100
AcDbRotatedDimension
  0
LINE
  5
76E
330
1F
100
AcDbEntity
  8
0
100
AcDbLine
 10
474.0421677481088
 20
640.7219377873823
 30
0.0
 11
475.542050257844
 21
642.2218202971172
 31
0.0
  0
LINE
  5
76F
330
1F
100
AcDbEntity
  8
0
100
AcDbLine
 10
474.0418162753013
 20
645.2117143751093
 30
0.0
 11
475.5416987850366
 21
646.7115968848442
 31
0.0
  0
ENDSEC
  0
SECTION
  2
OBJECTS
  0
DICTIONARY
  5
C
330
0
100
AcDbDictionary
281
     1
  3
ACAD_CIP_PREVIOUS_PRODUCT_INFO
350
6F9
  3
ACAD_COLOR
350
6B
  3
ACAD_DETAILVIEWSTYLE
350
6F3
  3
ACAD_GROUP
350
D
  3
ACAD_LAYOUT
350
1A
  3
ACAD_MATERIAL
350
6A
  3
ACAD_MLEADERSTYLE
350
6EF
  3
ACAD_MLINESTYLE
350
17
  3
ACAD_PLOTSETTINGS
350
19
  3
ACAD_PLOTSTYLENAME
350
E
  3
ACAD_SCALELIST
350
6DD
  3
ACAD_SECTIONVIEWSTYLE
350
6F1
  3
ACAD_TABLESTYLE
350
166
  3
ACAD_VISUALSTYLE
350
6C4
  3
AcadDim
350
14B
  3
ACDB_RECOMPOSE_DATA
350
78D
  3
AcDbVariableDictionary
350
5E
  0
DICTIONARY
  5
513
330
2
100
AcDbDictionary
280
     1
281
     1
  3
ACAD_LAYERSTATES
360
514
  0
DICTIONARY
  5
770
330
10
100
AcDbDictionary
280
     1
281
     1
  3
ADSK_XREC_LAYER_RECONCILED
360
771
  0
DICTIONARY
  5
772
330
21B
100
AcDbDictionary
280
     1
281
     1
  3
ADSK_XREC_LAYER_RECONCILED
360
773
  0
DICTIONARY
  5
716
330
715
100
AcDbDictionary
280
     1
281
     1
  3
ADSK_XREC_LAYER_RECONCILED
360
774
  0
DICTIONARY
  5
459
330
1F
100
AcDbDictionary
280
     1
281
     1
  3
ACAD_SORTENTS
360
45A
  0
DICTIONARY
  5
711
330
70B
100
AcDbDictionary
280
     1
281
     1
  3
ACAD_SORTENTS
360
712
  0
DICTIONARY
  5
2EC
330
2EB
100
AcDbDictionary
280
     1
281
     1
  3
ACAD_DIMASSOC
360
2ED
  0
DICTIONARY
  5
2F3
330
2F2
100
AcDbDictionary
280
     1
281
     1
  3
ACAD_DIMASSOC
360
2F4
  0
XRECORD
  5
6F9
102
{ACAD_REACTORS
330
C
102
}
330
C
100
AcDbXrecord
280
     1
300
ACDLT
300
2020
300
ACDLT_F_S
  0
DICTIONARY
  5
6B
102
{ACAD_REACTORS
330
C
102
}
330
C
100
AcDbDictionary
281
     1
  0
DICTIONARY
  5
6F3
102
{ACAD_REACTORS
330
C
102
}
330
C
100
AcDbDictionary
281
     1
  3
Imperial24
350
70A
  3
Metric50
350
6F4
  0
DICTIONARY
  5
D
102
{ACAD_REACTORS
330
C
102
}
330
C
100
AcDbDictionary
281
     1
  0
DICTIONARY
  5
1A
102
{ACAD_REACTORS
330
C
102
}
330
C
100
AcDbDictionary
281
     1
  3
Model
350
22
  3
Rozvržení1
350
51
  3
Rozvržení2
350
56
  0
DICTIONARY
  5
6A
102
{ACAD_REACTORS
330
C
102
}
330
C
100
AcDbDictionary
281
     1
  3
ByBlock
350
6B4
  3
ByLayer
350
6AC
  3
Global
350
6BC
  0
DICTIONARY
  5
6EF
102
{ACAD_REACTORS
330
C
102
}
330
C
100
AcDbDictionary
281
     1
  3
Standard
350
6F0
  0
DICTIONARY
  5
17
102
{ACAD_REACTORS
330
C
102
}
330
C
100
AcDbDictionary
281
     1
  3
Standard
350
18
  0
DICTIONARY
  5
19
102
{ACAD_REACTORS
330
C
102
}
330
C
100
AcDbDictionary
281
     1
  0
ACDBDICTIONARYWDFLT
  5
E
102
{ACAD_REACTORS
330
C
102
}
330
C
100
AcDbDictionary
281
     1
  3
Normal
350
F
100
AcDbDictionaryWithDefault
340
F
  0
DICTIONARY
  5
6DD
102
{ACAD_REACTORS
330
C
102
}
330
C
100
AcDbDictionary
281
     1
  3
A0
350
6DE
  3
A1
350
6DF
  3
A2
350
6E0
  3
A3
350
6E1
  3
A4
350
6E2
  3
A5
350
6E3
  3
A6
350
6E4
  3
A7
350
6E5
  3
A8
350
6E6
  3
A9
350
6E7
  3
B0
350
6E8
  3
B1
350
6E9
  3
B2
350
6EA
  3
B3
350
6EB
  3
B4
350
6EC
  3
B5
350
6ED
  3
B6
350
6EE
  0
DICTIONARY
  5
6F1
102
{ACAD_REACTORS
330
C
102
}
330
C
100
AcDbDictionary
281
     1
  3
Imperial24
350
709
  3
Metric50
350
6F2
  0
DICTIONARY
  5
166
102
{ACAD_REACTORS
330
C
102
}
330
C
100
AcDbDictionary
281
     1
  3
Standard
350
167
  0
DICTIONARY
  5
6C4
102
{ACAD_REACTORS
330
C
102
}
330
C
100
AcDbDictionary
281
     1
  3
2dWireframe
350
6CA
  3
Basic
350
6C9
  3
Brighten
350
6D0
  3
ColorChange
350
6D4
  3
Conceptual
350
6CD
  3
Dim
350
6CF
  3
EdgeColorOff
350
6DC
  3
Facepattern
350
6D3
  3
Flat
350
6C5
  3
FlatWithEdges
350
6C6
  3
Gouraud
350
6C7
  3
GouraudWithEdges
350
6C8
  3
Hidden
350
6CC
  3
JitterOff
350
6DA
  3
Linepattern
350
6D2
  3
OverhangOff
350
6DB
  3
Realistic
350
6CE
  3
Shaded
350
6D9
  3
Shaded with edges
350
6D8
  3
Shades of Gray
350
6D5
  3
Sketchy
350
6D6
  3
Thicken
350
6D1
  3
Wireframe
350
6CB
  3
X-Ray
350
6D7
  0
XRECORD
  5
14B
102
{ACAD_REACTORS
330
C
102
}
330
C
100
AcDbXrecord
280
     1
 90
   990106
  3

 60
     0
 61
     0
 62
     1
 63
     3
 64
     0
 65
     0
 66
     0
 67
     3
 68
     1
 69
     0
 70
     0
 71
     0
 72
     0
 40
0.0
170
     0
340
156
  0
XRECORD
  5
78D
102
{ACAD_REACTORS
330
C
102
}
330
C
100
AcDbXrecord
280
     1
 90
        1
330
167
  0
DICTIONARY
  5
5E
102
{ACAD_REACTORS
330
C
102
}
330
C
100
AcDbDictionary
281
     1
  3
CANNOSCALE
350
779
  3
CMLEADERSTYLE
350
775
  3
CTABLESTYLE
350
16E
  3
CVIEWDETAILSTYLE
350
776
  3
CVIEWSECTIONSTYLE
350
777
  3
DIMASSOC
350
5F
  3
HIDETEXT
350
63
  3
LAYEREVAL
350
77B
  3
LAYERNOTIFY
350
77C
  3
LIGHTINGUNITS
350
77A
  3
MSLTSCALE
350
778
  0
DICTIONARY
  5
514
102
{ACAD_REACTORS
330
513
102
}
330
513
100
AcDbDictionary
281
     1
  0
XRECORD
  5
771
102
{ACAD_REACTORS
330
770
102
}
330
770
100
AcDbXrecord
280
     1
290
     1
  0
XRECORD
  5
773
102
{ACAD_REACTORS
330
772
102
}
330
772
100
AcDbXrecord
280
     1
290
     1
  0
XRECORD
  5
774
102
{ACAD_REACTORS
330
716
102
}
330
716
100
AcDbXrecord
280
     1
290
     1
  0
SORTENTSTABLE
  5
45A
102
{ACAD_REACTORS
330
459
102
}
330
459
100
AcDbSortentsTable
330
1F
331
2D1
  5
2D3
331
2D2
  5
2D4
331
2D3
  5
2D5
331
2D4
  5
2D6
331
2D5
  5
2D7
331
2D6
  5
2D8
331
2D7
  5
2D9
331
2D8
  5
2DA
331
2D9
  5
2DB
331
2DA
  5
2DC
331
2DB
  5
2DD
331
2DC
  5
2DE
331
2DD
  5
2DF
331
2DE
  5
2E2
331
2EB
  5
2F1
331
2F1
  5
2F5
331
2F2
  5
2F6
331
316
  5
318
331
317
  5
319
331
318
  5
31B
331
319
  5
31C
331
31A
  5
31D
331
31B
  5
31E
331
31C
  5
31F
331
31D
  5
320
331
31E
  5
321
331
31F
  5
322
331
320
  5
323
331
321
  5
324
331
322
  5
325
331
323
  5
326
331
324
  5
327
331
325
  5
328
331
326
  5
329
331
327
  5
32A
331
328
  5
32B
331
329
  5
32C
331
32A
  5
32D
331
32B
  5
32E
331
32C
  5
32F
331
32D
  5
330
331
32E
  5
331
331
32F
  5
332
331
330
  5
333
331
331
  5
334
331
332
  5
335
331
333
  5
336
331
334
  5
337
331
335
  5
338
331
336
  5
339
331
338
  5
33B
331
339
  5
33C
331
33B
  5
33E
331
33C
  5
33F
331
33E
  5
341
331
342
  5
345
331
343
  5
346
331
344
  5
347
331
345
  5
348
331
346
  5
349
331
347
  5
34A
331
348
  5
34B
331
349
  5
34C
331
34A
  5
34D
331
34B
  5
34E
331
34C
  5
350
331
34D
  5
351
331
34E
  5
471
331
351
  5
47B
331
4EE
  5
4F3
331
4F4
  5
4FB
331
4F5
  5
4FE
331
4F6
  5
500
331
4F7
  5
522
331
4FB
  5
525
331
4FE
  5
528
331
4FF
  5
529
331
543
  5
524
331
5AE
  5
5B7
331
5B2
  5
4FF
331
5C2
  5
5C3
331
5C3
  5
5C6
331
5C6
  5
31A
  0
SORTENTSTABLE
  5
712
102
{ACAD_REACTORS
330
711
102
}
330
711
100
AcDbSortentsTable
330
70B
  0
DIMASSOC
  5
2ED
102
{ACAD_REACTORS
330
2EC
102
}
330
2EC
100
AcDbDimAssoc
330
2EB
 90
        1
 70
     0
 71
     0
  1
AcDbOsnapPointRef
 72
     1
331
2DE
 73
     2
 91
        0
 40
1.0
 10
0.0
 20
0.0
 30
2.000000000000000E+50
 75
     0
  0
DIMASSOC
  5
2F4
102
{ACAD_REACTORS
330
2F3
102
}
330
2F3
100
AcDbDimAssoc
330
2F2
 90
        1
 70
     0
 71
     0
  1
AcDbOsnapPointRef
 72
     1
331
2DD
 73
     2
 91
        0
 40
1.0
 10
0.0
 20
0.0
 30
2.000000000000000E+50
 75
     0
  0
ACDBDETAILVIEWSTYLE
  5
70A
102
{ACAD_REACTORS
330
6F3
102
}
330
6F3
100
AcDbModelDocViewStyle
 70
     0
  3
Imperial24
290
     0
300
Imperial24
 90
        0
100
AcDbDetailViewStyle
 70
     0
 71
     0
 90
        3
 71
     1
340
11
 62
   256
 40
0.24
340
0
 62
   256
 40
0.24
300

 40
0.36
280
     3
 71
     2
340
16
 90
       25
 62
   256
 71
     3
340
11
 62
   256
 40
0.24
 90
        1
 40
0.75
 90
        1
300
%<\AcVar ViewType \f "%tc1">% %<\AcVar ViewDetailId>%\PMĚŘÍTKO %<\AcVar ViewScale \f "%sn">%
 71
     4
340
16
 90
       25
 62
   256
340
16
 90
       25
 62
   256
280
     0
  0
ACDBDETAILVIEWSTYLE
  5
6F4
102
{ACAD_REACTORS
330
6F3
102
}
330
6F3
100
AcDbModelDocViewStyle
 70
     0
  3
Metric50
290
     0
300
Metric50
 90
        0
100
AcDbDetailViewStyle
 70
     0
 71
     0
 90
        3
 71
     1
340
11
 62
   256
 40
5.0
340
0
 62
   256
 40
5.0
300

 40
0.0
280
     1
 71
     2
340
16
 90
       25
 62
   256
 71
     3
340
11
 62
   256
 40
5.0
 90
        0
 40
15.0
 90
        1
300
%<\AcVar ViewDetailId>% (%<\AcVar ViewScale \f "%sn">%)
 71
     4
340
16
 90
       25
 62
   256
340
16
 90
       25
 62
   256
280
     0
  0
LAYOUT
  5
22
102
{ACAD_REACTORS
330
1A
102
}
330
1A
100
AcDbPlotSettings
  1

  2
HP LaserJet 2000
  4
A4
  6

 40
5.873749732971191
 41
6.297076702117919
 42
8.41375732421875
 43
7.14373779296875
 44
210.0579986572266
 45
296.9259948730469
 46
0.0
 47
16.48
 48
345.6618479924638
 49
565.7349051916201
140
521.4786944881452
141
703.1303565461278
142
1.0
143
0.7018190036280326
 70
 11956
 72
     1
 73
     1
 74
     4
  7

 75
     0
147
1.42486879783894
 76
     0
 77
     2
 78
   150
148
-345.6618479924638
149
-565.7349051916201
100
AcDbLayout
  1
Model
 70
     1
 71
     0
 10
0.0
 20
0.0
 11
12.0
 21
9.0
 12
0.0
 22
0.0
 32
0.0
 14
0.0
 24
0.0
 34
0.0
 15
0.0
 25
0.0
 35
0.0
146
0.0
 13
0.0
 23
0.0
 33
0.0
 16
1.0
 26
0.0
 36
0.0
 17
0.0
 27
1.0
 37
0.0
 76
     0
330
1F
331
6A9
  0
LAYOUT
  5
51
102
{ACAD_REACTORS
330
1A
102
}
330
1A
100
AcDbPlotSettings
  1

  2
None
  4

  6

 40
0.0
 41
0.0
 42
0.0
 43
0.0
 44
0.0
 45
0.0
 46
0.0
 47
0.0
 48
0.0
 49
0.0
140
0.0
141
0.0
142
1.0
143
1.0
 70
   688
 72
     0
 73
     0
 74
     5
  7

 75
    16
147
1.0
 76
     0
 77
     2
 78
   300
148
0.0
149
0.0
100
AcDbLayout
  1
Rozvržení1
 70
     1
 71
     1
 10
0.0
 20
0.0
 11
12.0
 21
9.0
 12
0.0
 22
0.0
 32
0.0
 14
0.0
 24
0.0
 34
0.0
 15
0.0
 25
0.0
 35
0.0
146
0.0
 13
0.0
 23
0.0
 33
0.0
 16
1.0
 26
0.0
 36
0.0
 17
0.0
 27
1.0
 37
0.0
 76
     0
330
50
  0
LAYOUT
  5
56
102
{ACAD_REACTORS
330
1A
102
}
330
1A
100
AcDbPlotSettings
  1

  2
None
  4

  6

 40
0.0
 41
0.0
 42
0.0
 43
0.0
 44
0.0
 45
0.0
 46
0.0
 47
0.0
 48
0.0
 49
0.0
140
0.0
141
0.0
142
1.0
143
1.0
 70
   688
 72
     0
 73
     0
 74
     5
  7

 75
    16
147
1.0
 76
     0
 77
     2
 78
   300
148
0.0
149
0.0
100
AcDbLayout
  1
Rozvržení2
 70
     1
 71
     2
 10
0.0
 20
0.0
 11
12.0
 21
9.0
 12
0.0
 22
0.0
 32
0.0
 14
0.0
 24
0.0
 34
0.0
 15
0.0
 25
0.0
 35
0.0
146
0.0
 13
0.0
 23
0.0
 33
0.0
 16
1.0
 26
0.0
 36
0.0
 17
0.0
 27
1.0
 37
0.0
 76
     0
330
55
  0
MATERIAL
  5
6B4
102
{ACAD_XDICTIONARY
360
6B5
102
}
102
{ACAD_REACTORS
330
6A
102
}
330
6A
100
AcDbMaterial
  1
ByBlock
 72
     0
 43
0.0008202099737533
 43
0.0
 43
0.0
 43
0.0
 43
0.0
 43
0.0008202099737533
 43
0.0
 43
0.0
 43
0.0
 43
0.0
 43
1.0
 43
0.0
 43
0.0
 43
0.0
 43
0.0
 43
1.0
 77
     0
 47
0.0008202099737533
 47
0.0
 47
0.0
 47
0.0
 47
0.0
 47
0.0008202099737533
 47
0.0
 47
0.0
 47
0.0
 47
0.0
 47
1.0
 47
0.0
 47
0.0
 47
0.0
 47
0.0
 47
1.0
171
     0
 49
0.0008202099737533
 49
0.0
 49
0.0
 49
0.0
 49
0.0
 49
0.0008202099737533
 49
0.0
 49
0.0
 49
0.0
 49
0.0
 49
1.0
 49
0.0
 49
0.0
 49
0.0
 49
0.0
 49
1.0
175
     0
142
0.0008202099737533
142
0.0
142
0.0
142
0.0
142
0.0
142
0.0008202099737533
142
0.0
142
0.0
142
0.0
142
0.0
142
1.0
142
0.0
142
0.0
142
0.0
142
0.0
142
1.0
179
     0
144
0.0008202099737533
144
0.0
144
0.0
144
0.0
144
0.0
144
0.0008202099737533
144
0.0
144
0.0
144
0.0
144
0.0
144
1.0
144
0.0
144
0.0
144
0.0
144
0.0
144
1.0
147
0.0008202099737533
147
0.0
147
0.0
147
0.0
147
0.0
147
0.0008202099737533
147
0.0
147
0.0
147
0.0
147
0.0
147
1.0
147
0.0
147
0.0
147
0.0
147
0.0
147
1.0
  0
MATERIAL
  5
6AC
102
{ACAD_XDICTIONARY
360
6AD
102
}
102
{ACAD_REACTORS
330
6A
102
}
330
6A
100
AcDbMaterial
  1
ByLayer
 72
     0
 43
0.0008202099737533
 43
0.0
 43
0.0
 43
0.0
 43
0.0
 43
0.0008202099737533
 43
0.0
 43
0.0
 43
0.0
 43
0.0
 43
1.0
 43
0.0
 43
0.0
 43
0.0
 43
0.0
 43
1.0
 77
     0
 47
0.0008202099737533
 47
0.0
 47
0.0
 47
0.0
 47
0.0
 47
0.0008202099737533
 47
0.0
 47
0.0
 47
0.0
 47
0.0
 47
1.0
 47
0.0
 47
0.0
 47
0.0
 47
0.0
 47
1.0
171
     0
 49
0.0008202099737533
 49
0.0
 49
0.0
 49
0.0
 49
0.0
 49
0.0008202099737533
 49
0.0
 49
0.0
 49
0.0
 49
0.0
 49
1.0
 49
0.0
 49
0.0
 49
0.0
 49
0.0
 49
1.0
175
     0
142
0.0008202099737533
142
0.0
142
0.0
142
0.0
142
0.0
142
0.0008202099737533
142
0.0
142
0.0
142
0.0
142
0.0
142
1.0
142
0.0
142
0.0
142
0.0
142
0.0
142
1.0
179
     0
144
0.0008202099737533
144
0.0
144
0.0
144
0.0
144
0.0
144
0.0008202099737533
144
0.0
144
0.0
144
0.0
144
0.0
144
1.0
144
0.0
144
0.0
144
0.0
144
0.0
144
1.0
147
0.0008202099737533
147
0.0
147
0.0
147
0.0
147
0.0
147
0.0008202099737533
147
0.0
147
0.0
147
0.0
147
0.0
147
1.0
147
0.0
147
0.0
147
0.0
147
0.0
147
1.0
  0
MATERIAL
  5
6BC
102
{ACAD_XDICTIONARY
360
6BD
102
}
102
{ACAD_REACTORS
330
6A
102
}
330
6A
100
AcDbMaterial
  1
Global
 72
     0
 43
0.0008202099737533
 43
0.0
 43
0.0
 43
0.0
 43
0.0
 43
0.0008202099737533
 43
0.0
 43
0.0
 43
0.0
 43
0.0
 43
1.0
 43
0.0
 43
0.0
 43
0.0
 43
0.0
 43
1.0
 77
     0
 47
0.0008202099737533
 47
0.0
 47
0.0
 47
0.0
 47
0.0
 47
0.0008202099737533
 47
0.0
 47
0.0
 47
0.0
 47
0.0
 47
1.0
 47
0.0
 47
0.0
 47
0.0
 47
0.0
 47
1.0
171
     0
 49
0.0008202099737533
 49
0.0
 49
0.0
 49
0.0
 49
0.0
 49
0.0008202099737533
 49
0.0
 49
0.0
 49
0.0
 49
0.0
 49
1.0
 49
0.0
 49
0.0
 49
0.0
 49
0.0
 49
1.0
175
     0
142
0.0008202099737533
142
0.0
142
0.0
142
0.0
142
0.0
142
0.0008202099737533
142
0.0
142
0.0
142
0.0
142
0.0
142
1.0
142
0.0
142
0.0
142
0.0
142
0.0
142
1.0
179
     0
144
0.0008202099737533
144
0.0
144
0.0
144
0.0
144
0.0
144
0.0008202099737533
144
0.0
144
0.0
144
0.0
144
0.0
144
1.0
144
0.0
144
0.0
144
0.0
144
0.0
144
1.0
147
0.0008202099737533
147
0.0
147
0.0
147
0.0
147
0.0
147
0.0008202099737533
147
0.0
147
0.0
147
0.0
147
0.0
147
1.0
147
0.0
147
0.0
147
0.0
147
0.0
147
1.0
  0
MLEADERSTYLE
  5
6F0
102
{ACAD_REACTORS
330
6EF
102
}
330
6EF
100
AcDbMLeaderStyle
179
     2
170
     2
171
     1
172
     0
 90
        2
 40
0.0
 41
0.0
173
     1
 91
-1056964608
340
14
 92
       -2
290
     1
 42
2.0
291
     1
 43
0.36
  3
Standard
 44
4.0
300

342
11
174
     1
178
     6
175
     1
176
     0
 93
-1056964608
 45
4.0
292
     0
297
     0
 46
4.0
 94
-1056964608
 47
1.0
 49
1.0
140
1.0
293
     1
141
0.0
294
     1
177
     0
142
1.0
295
     0
296
     0
143
0.125
271
     0
272
     9
273
     9
298
     0
  0
MLINESTYLE
  5
18
102
{ACAD_REACTORS
330
17
102
}
330
17
100
AcDbMlineStyle
  2
STANDARD
 70
     0
  3

 62
   256
 51
90.0
 52
90.0
 71
     2
 49
0.5
 62
   256
  6
BYLAYER
 49
-0.5
 62
   256
  6
BYLAYER
  0
ACDBPLACEHOLDER
  5
F
102
{ACAD_REACTORS
330
E
102
}
330
E
  0
SCALE
  5
6DE
102
{ACAD_REACTORS
330
6DD
102
}
330
6DD
100
AcDbScale
 70
     0
300
1:1
140
1.0
141
1.0
290
     1
  0
SCALE
  5
6DF
102
{ACAD_REACTORS
330
6DD
102
}
330
6DD
100
AcDbScale
 70
     0
300
1:2
140
1.0
141
2.0
290
     0
  0
SCALE
  5
6E0
102
{ACAD_REACTORS
330
6DD
102
}
330
6DD
100
AcDbScale
 70
     0
300
1:4
140
1.0
141
4.0
290
     0
  0
SCALE
  5
6E1
102
{ACAD_REACTORS
330
6DD
102
}
330
6DD
100
AcDbScale
 70
     0
300
1:5
140
1.0
141
5.0
290
     0
  0
SCALE
  5
6E2
102
{ACAD_REACTORS
330
6DD
102
}
330
6DD
100
AcDbScale
 70
     0
300
1:8
140
1.0
141
8.0
290
     0
  0
SCALE
  5
6E3
102
{ACAD_REACTORS
330
6DD
102
}
330
6DD
100
AcDbScale
 70
     0
300
1:10
140
1.0
141
10.0
290
     0
  0
SCALE
  5
6E4
102
{ACAD_REACTORS
330
6DD
102
}
330
6DD
100
AcDbScale
 70
     0
300
1:16
140
1.0
141
16.0
290
     0
  0
SCALE
  5
6E5
102
{ACAD_REACTORS
330
6DD
102
}
330
6DD
100
AcDbScale
 70
     0
300
1:20
140
1.0
141
20.0
290
     0
  0
SCALE
  5
6E6
102
{ACAD_REACTORS
330
6DD
102
}
330
6DD
100
AcDbScale
 70
     0
300
1:30
140
1.0
141
30.0
290
     0
  0
SCALE
  5
6E7
102
{ACAD_REACTORS
330
6DD
102
}
330
6DD
100
AcDbScale
 70
     0
300
1:40
140
1.0
141
40.0
290
     0
  0
SCALE
  5
6E8
102
{ACAD_REACTORS
330
6DD
102
}
330
6DD
100
AcDbScale
 70
     0
300
1:50
140
1.0
141
50.0
290
     0
  0
SCALE
  5
6E9
102
{ACAD_REACTORS
330
6DD
102
}
330
6DD
100
AcDbScale
 70
     0
300
1:100
140
1.0
141
100.0
290
     0
  0
SCALE
  5
6EA
102
{ACAD_REACTORS
330
6DD
102
}
330
6DD
100
AcDbScale
 70
     0
300
2:1
140
2.0
141
1.0
290
     0
  0
SCALE
  5
6EB
102
{ACAD_REACTORS
330
6DD
102
}
330
6DD
100
AcDbScale
 70
     0
300
4:1
140
4.0
141
1.0
290
     0
  0
SCALE
  5
6EC
102
{ACAD_REACTORS
330
6DD
102
}
330
6DD
100
AcDbScale
 70
     0
300
8:1
140
8.0
141
1.0
290
     0
  0
SCALE
  5
6ED
102
{ACAD_REACTORS
330
6DD
102
}
330
6DD
100
AcDbScale
 70
     0
300
10:1
140
10.0
141
1.0
290
     0
  0
SCALE
  5
6EE
102
{ACAD_REACTORS
330
6DD
102
}
330
6DD
100
AcDbScale
 70
     0
300
100:1
140
100.0
141
1.0
290
     0
  0
ACDBSECTIONVIEWSTYLE
  5
709
102
{ACAD_REACTORS
330
6F1
102
}
330
6F1
100
AcDbModelDocViewStyle
 70
     0
  3
Imperial24
290
     0
300
Imperial24
 90
        0
100
AcDbSectionViewStyle
 70
     0
 71
     0
 90
       78
 71
     1
340
11
 62
   256
 40
0.24
340
0
340
0
 62
   256
 40
0.24
300
I, O, Q, S, X, Z
 40
0.48
 90
        3
 40
0.18
 90
        1
 71
     2
340
16
 90
       25
 62
   256
340
16
 90
       50
 62
   256
 40
0.24
 40
0.0
 40
0.24
 71
     3
340
11
 62
   256
 40
0.24
 90
        1
 40
0.75
 90
        1
300
%<\AcVar ViewType \f "%tc1">% %<\AcVar ViewSectionStartId>%-%<\AcVar ViewSectionEndId>%\PMĚŘÍTKO %<\AcVar ViewScale \f "%sn">%
 71
     4
 62
   256
 62
   257
300
ANSI31
 40
1.0
 90
        0
290
     0
290
     0
 90
        6
 40
0.0
 40
1.570796326794896
 40
0.2617993877991494
 40
1.308996938995747
 40
-0.2617993877991494
 40
1.832595714594045
  0
ACDBSECTIONVIEWSTYLE
  5
6F2
102
{ACAD_REACTORS
330
6F1
102
}
330
6F1
100
AcDbModelDocViewStyle
 70
     0
  3
Metric50
290
     0
300
Metric50
 90
        0
100
AcDbSectionViewStyle
 70
     0
 71
     0
 90
      102
 71
     1
340
11
 62
   256
 40
5.0
340
0
340
0
 62
   256
 40
5.0
300
I, O, Q, S, X, Z
 40
10.0
 90
        0
 40
2.5
 90
        0
 71
     2
340
16
 90
       25
 62
   256
340
16
 90
       50
 62
   256
 40
5.0
 40
2.5
 40
5.0
 71
     3
340
11
 62
   256
 40
5.0
 90
        0
 40
15.0
 90
        1
300
%<\AcVar ViewSectionStartId>%-%<\AcVar ViewSectionEndId>% (%<\AcVar ViewScale \f "%sn">%)
 71
     4
 62
   256
 62
   257
300
ANSI31
 40
1.0
 90
        0
290
     0
290
     0
 90
        6
 40
0.0
 40
1.570796326794896
 40
0.2617993877991494
 40
1.308996938995747
 40
-0.2617993877991494
 40
1.832595714594045
  0
TABLESTYLE
  5
167
102
{ACAD_XDICTIONARY
360
77D
102
}
102
{ACAD_REACTORS
330
166
102
}
330
166
100
AcDbTableStyle
280
     0
  3
Standard
 70
     0
 71
     0
 40
1.5
 41
1.5
280
     0
281
     0
  7
Standard
140
4.5
170
     2
 62
     0
 63
     7
283
     0
 90
        4
 91
        0
  1

274
    -2
284
     1
 64
     0
275
    -2
285
     1
 65
     0
276
    -2
286
     1
 66
     0
277
    -2
287
     1
 67
     0
278
    -2
288
     1
 68
     0
279
    -2
289
     1
 69
     0
  7
Standard
140
6.0
170
     5
 62
     0
 63
     7
283
     0
 90
        4
 91
        0
  1

274
    -2
284
     1
 64
     0
275
    -2
285
     1
 65
     0
276
    -2
286
     1
 66
     0
277
    -2
287
     1
 67
     0
278
    -2
288
     1
 68
     0
279
    -2
289
     1
 69
     0
  7
Standard
140
4.5
170
     5
 62
     0
 63
     7
283
     0
 90
        4
 91
        0
  1

274
    -2
284
     1
 64
     0
275
    -2
285
     1
 65
     0
276
    -2
286
     1
 66
     0
277
    -2
287
     1
 67
     0
278
    -2
288
     1
 68
     0
279
    -2
289
     1
 69
     0
  0
VISUALSTYLE
  5
6CA
102
{ACAD_REACTORS
330
6C4
102
}
330
6C4
100
AcDbVisualStyle
  2
2dWireframe
 70
     4
177
     3
291
     0
 70
    58
 90
        0
176
     1
 90
        2
176
     1
 90
        0
176
     1
 90
        0
176
     1
 40
0.6
176
     1
 40
30.0
176
     1
 62
     7
420
 16777215
176
     1
 90
        1
176
     1
 90
        4
176
     1
 62
     7
176
     1
 62
   257
176
     1
 90
        1
176
     1
 90
        1
176
     1
 40
1.0
176
     1
 90
        0
176
     1
 62
   257
176
     1
 40
1.0
176
     1
 90
        1
176
     1
 90
        6
176
     1
 90
        2
176
     1
 62
     7
176
     1
 90
        5
176
     1
 90
        0
176
     1
 90
        0
176
     1
290
     0
176
     1
 90
        1
176
     1
 40
0.0
176
     1
 90
        0
176
     1
290
     1
176
     1
290
     1
176
     1
290
     0
176
     1
290
     0
176
     1
290
     0
176
     1
290
     0
176
     1
290
     0
176
     1
290
     0
176
     1
290
     0
176
     1
 90
       50
176
     1
 40
0.0
176
     1
 40
1.0
176
     1
 90
        0
176
     1
 62
    18
176
     1
 90
       50
176
     1
 90
        3
176
     1
 62
     5
420
      255
176
     1
290
     0
176
     1
 90
       50
176
     1
 90
       50
176
     1
 90
       50
176
     1
290
     0
176
     1
 90
       50
176
     1
 62
   256
176
     0
 40
1.0
176
     0
 90
        2
176
     1
  1
strokes_ogs.tif
176
     1
290
     0
176
     1
 40
1.0
176
     1
 40
1.0
176
     1
  0
VISUALSTYLE
  5
6C9
102
{ACAD_REACTORS
330
6C4
102
}
330
6C4
100
AcDbVisualStyle
  2
Basic
 70
     7
177
     3
291
     1
 70
    58
 90
        1
176
     1
 90
        0
176
     1
 90
        1
176
     1
 90
        0
176
     1
 40
0.6
176
     1
 40
30.0
176
     1
 62
     7
420
 16777215
176
     1
 90
        0
176
     1
 90
        4
176
     1
 62
     7
176
     1
 62
   257
176
     1
 90
        1
176
     1
 90
        1
176
     1
 40
1.0
176
     1
 90
        8
176
     1
 62
     7
176
     1
 40
1.0
176
     1
 90
        1
176
     1
 90
        6
176
     1
 90
        2
176
     1
 62
     7
176
     1
 90
        5
176
     1
 90
        0
176
     1
 90
        0
176
     1
290
     0
176
     1
 90
        1
176
     1
 40
0.0
176
     1
 90
        0
176
     1
290
     0
176
     1
290
     1
176
     1
290
     1
176
     1
290
     0
176
     1
290
     0
176
     1
290
     0
176
     1
290
     0
176
     1
290
     0
176
     1
290
     0
176
     1
 90
       50
176
     1
 40
0.0
176
     1
 40
1.0
176
     1
 90
        0
176
     1
 62
    18
176
     1
 90
       50
176
     1
 90
        3
176
     1
 62
     5
420
      255
176
     1
290
     0
176
     1
 90
       50
176
     1
 90
       50
176
     1
 90
       50
176
     1
290
     0
176
     1
 90
       50
176
     1
 62
   256
176
     0
 40
1.0
176
     0
 90
        2
176
     1
  1
strokes_ogs.tif
176
     1
290
     0
176
     1
 40
1.0
176
     1
 40
1.0
176
     1
  0
VISUALSTYLE
  5
6D0
102
{ACAD_REACTORS
330
6C4
102
}
330
6C4
100
AcDbVisualStyle
  2
Brighten
 70
    12
177
     3
291
     1
 70
    58
 90
        2
176
     1
 90
        2
176
     1
 90
        0
176
     1
 90
        0
176
     1
 40
0.6
176
     1
 40
30.0
176
     1
 62
     7
420
 16777215
176
     1
 90
        1
176
     1
 90
        4
176
     1
 62
     7
176
     1
 62
   257
176
     1
 90
        1
176
     1
 90
        1
176
     1
 40
1.0
176
     1
 90
        8
176
     1
 62
     7
176
     1
 40
1.0
176
     1
 90
        1
176
     1
 90
        6
176
     1
 90
        2
176
     1
 62
     7
176
     1
 90
        5
176
     1
 90
        0
176
     1
 90
        0
176
     1
290
     0
176
     1
 90
        1
176
     1
 40
50.0
176
     1
 90
        0
176
     1
290
     0
176
     1
290
     1
176
     1
290
     1
176
     1
290
     0
176
     1
290
     0
176
     1
290
     0
176
     1
290
     0
176
     1
290
     0
176
     1
290
     0
176
     1
 90
       50
176
     1
 40
0.0
176
     1
 40
1.0
176
     1
 90
        0
176
     1
 62
    18
176
     1
 90
       50
176
     1
 90
        3
176
     1
 62
     5
420
      255
176
     1
290
     0
176
     1
 90
       50
176
     1
 90
       50
176
     1
 90
       50
176
     1
290
     0
176
     1
 90
       50
176
     1
 62
   256
176
     0
 40
1.0
176
     0
 90
        2
176
     1
  1
strokes_ogs.tif
176
     1
290
     0
176
     1
 40
1.0
176
     1
 40
1.0
176
     1
  0
VISUALSTYLE
  5
6D4
102
{ACAD_REACTORS
330
6C4
102
}
330
6C4
100
AcDbVisualStyle
  2
ColorChange
 70
    16
177
     3
291
     1
 70
    58
 90
        2
176
     1
 90
        2
176
     1
 90
        3
176
     1
 90
        0
176
     1
 40
0.6
176
     1
 40
30.0
176
     1
 62
     8
420
  8421504
176
     1
 90
        1
176
     1
 90
        4
176
     1
 62
     7
176
     1
 62
   257
176
     1
 90
        1
176
     1
 90
        1
176
     1
 40
1.0
176
     1
 90
        8
176
     1
 62
     8
420
  8421504
176
     1
 40
1.0
176
     1
 90
        1
176
     1
 90
        6
176
     1
 90
        2
176
     1
 62
     7
176
     1
 90
        5
176
     1
 90
        0
176
     1
 90
        0
176
     1
290
     0
176
     1
 90
        1
176
     1
 40
0.0
176
     1
 90
        0
176
     1
290
     0
176
     1
290
     1
176
     1
290
     1
176
     1
290
     0
176
     1
290
     0
176
     1
290
     0
176
     1
290
     0
176
     1
290
     0
176
     1
290
     0
176
     1
 90
       50
176
     1
 40
0.0
176
     1
 40
1.0
176
     1
 90
        0
176
     1
 62
    18
176
     1
 90
       50
176
     1
 90
        3
176
     1
 62
     5
420
      255
176
     1
290
     0
176
     1
 90
       50
176
     1
 90
       50
176
     1
 90
       50
176
     1
290
     0
176
     1
 90
       50
176
     1
 62
   256
176
     0
 40
1.0
176
     0
 90
        2
176
     1
  1
strokes_ogs.tif
176
     1
290
     0
176
     1
 40
1.0
176
     1
 40
1.0
176
     1
  0
VISUALSTYLE
  5
6CD
102
{ACAD_REACTORS
330
6C4
102
}
330
6C4
100
AcDbVisualStyle
  2
Conceptual
 70
     9
177
     3
291
     0
 70
    58
 90
        3
176
     1
 90
        2
176
     1
 90
        0
176
     1
 90
        0
176
     1
 40
0.6
176
     1
 40
30.0
176
     1
 62
     7
420
 16777215
176
     1
 90
        2
176
     1
 90
        2
176
     1
 62
     7
176
     1
 62
   257
176
     1
 90
        1
176
     1
 90
        1
176
     1
 40
179.0
176
     1
 90
        8
176
     1
 62
     7
176
     1
 40
1.0
176
     1
 90
        1
176
     1
 90
        6
176
     1
 90
        2
176
     1
 62
     7
176
     1
 90
        3
176
     1
 90
        0
176
     1
 90
        0
176
     1
290
     0
176
     1
 90
        1
176
     1
 40
0.0
176
     1
 90
        0
176
     1
290
     0
176
     1
290
     1
176
     1
290
     1
176
     1
290
     0
176
     1
290
     0
176
     1
290
     0
176
     1
290
     0
176
     1
290
     0
176
     1
290
     0
176
     1
 90
       50
176
     1
 40
0.0
176
     1
 40
1.0
176
     1
 90
        0
176
     1
 62
    18
176
     1
 90
       50
176
     1
 90
        3
176
     1
 62
     5
420
      255
176
     1
290
     0
176
     1
 90
       50
176
     1
 90
       50
176
     1
 90
       50
176
     1
290
     0
176
     1
 90
       50
176
     1
 62
   256
176
     0
 40
1.0
176
     0
 90
        2
176
     1
  1
strokes_ogs.tif
176
     1
290
     0
176
     1
 40
1.0
176
     1
 40
1.0
176
     1
  0
VISUALSTYLE
  5
6CF
102
{ACAD_REACTORS
330
6C4
102
}
330
6C4
100
AcDbVisualStyle
  2
Dim
 70
    11
177
     3
291
     1
 70
    58
 90
        2
176
     1
 90
        2
176
     1
 90
        0
176
     1
 90
        0
176
     1
 40
0.6
176
     1
 40
30.0
176
     1
 62
     7
420
 16777215
176
     1
 90
        1
176
     1
 90
        4
176
     1
 62
     7
176
     1
 62
   257
176
     1
 90
        1
176
     1
 90
        1
176
     1
 40
1.0
176
     1
 90
        8
176
     1
 62
     7
176
     1
 40
1.0
176
     1
 90
        1
176
     1
 90
        6
176
     1
 90
        2
176
     1
 62
     7
176
     1
 90
        5
176
     1
 90
        0
176
     1
 90
        0
176
     1
290
     0
176
     1
 90
        1
176
     1
 40
-50.0
176
     1
 90
        0
176
     1
290
     0
176
     1
290
     1
176
     1
290
     1
176
     1
290
     0
176
     1
290
     0
176
     1
290
     0
176
     1
290
     0
176
     1
290
     0
176
     1
290
     0
176
     1
 90
       50
176
     1
 40
0.0
176
     1
 40
1.0
176
     1
 90
        0
176
     1
 62
    18
176
     1
 90
       50
176
     1
 90
        3
176
     1
 62
     5
420
      255
176
     1
290
     0
176
     1
 90
       50
176
     1
 90
       50
176
     1
 90
       50
176
     1
290
     0
176
     1
 90
       50
176
     1
 62
   256
176
     0
 40
1.0
176
     0
 90
        2
176
     1
  1
strokes_ogs.tif
176
     1
290
     0
176
     1
 40
1.0
176
     1
 40
1.0
176
     1
  0
VISUALSTYLE
  5
6DC
102
{ACAD_REACTORS
330
6C4
102
}
330
6C4
100
AcDbVisualStyle
  2
EdgeColorOff
 70
    22
177
     3
291
     1
 70
    58
 90
        2
176
     0
 90
        2
176
     0
 90
        0
176
     0
 90
        0
176
     0
 40
0.6
176
     0
 40
30.0
176
     0
 62
     7
420
 16777215
176
     0
 90
        1
176
     0
 90
        4
176
     0
 62
     7
176
     0
 62
   257
176
     0
 90
        1
176
     0
 90
        1
176
     0
 40
1.0
176
     0
 90
        8
176
     2
 62
     7
176
     0
 40
1.0
176
     0
 90
        1
176
     0
 90
        6
176
     0
 90
        2
176
     0
 62
     7
176
     0
 90
        5
176
     0
 90
        0
176
     0
 90
        0
176
     0
290
     0
176
     0
 90
        1
176
     0
 40
0.0
176
     0
 90
        0
176
     0
290
     0
176
     1
290
     1
176
     1
290
     1
176
     1
290
     0
176
     1
290
     0
176
     1
290
     0
176
     1
290
     0
176
     1
290
     0
176
     1
290
     0
176
     1
 90
       50
176
     0
 40
0.0
176
     0
 40
1.0
176
     0
 90
        0
176
     0
 62
    18
176
     0
 90
       50
176
     0
 90
        3
176
     0
 62
     5
420
      255
176
     0
290
     0
176
     1
 90
       50
176
     0
 90
       50
176
     0
 90
       50
176
     0
290
     0
176
     1
 90
       50
176
     0
 62
   256
176
     0
 40
1.0
176
     0
 90
        2
176
     0
  1
strokes_ogs.tif
176
     0
290
     0
176
     1
 40
1.0
176
     0
 40
1.0
176
     0
  0
VISUALSTYLE
  5
6D3
102
{ACAD_REACTORS
330
6C4
102
}
330
6C4
100
AcDbVisualStyle
  2
Facepattern
 70
    15
177
     3
291
     1
 70
    58
 90
        2
176
     1
 90
        2
176
     1
 90
        0
176
     1
 90
        0
176
     1
 40
0.6
176
     1
 40
30.0
176
     1
 62
     7
420
 16777215
176
     1
 90
        1
176
     1
 90
        4
176
     1
 62
     7
176
     1
 62
   257
176
     1
 90
        1
176
     1
 90
        1
176
     1
 40
1.0
176
     1
 90
        8
176
     1
 62
     7
176
     1
 40
1.0
176
     1
 90
        1
176
     1
 90
        6
176
     1
 90
        2
176
     1
 62
     7
176
     1
 90
        5
176
     1
 90
        0
176
     1
 90
        0
176
     1
290
     0
176
     1
 90
        1
176
     1
 40
0.0
176
     1
 90
        0
176
     1
290
     0
176
     1
290
     1
176
     1
290
     1
176
     1
290
     0
176
     1
290
     0
176
     1
290
     0
176
     1
290
     0
176
     1
290
     0
176
     1
290
     0
176
     1
 90
       50
176
     1
 40
0.0
176
     1
 40
1.0
176
     1
 90
        0
176
     1
 62
    18
176
     1
 90
       50
176
     1
 90
        3
176
     1
 62
     5
420
      255
176
     1
290
     0
176
     1
 90
       50
176
     1
 90
       50
176
     1
 90
       50
176
     1
290
     0
176
     1
 90
       50
176
     1
 62
   256
176
     0
 40
1.0
176
     0
 90
        2
176
     1
  1
strokes_ogs.tif
176
     1
290
     0
176
     1
 40
1.0
176
     1
 40
1.0
176
     1
  0
VISUALSTYLE
  5
6C5
102
{ACAD_REACTORS
330
6C4
102
}
330
6C4
100
AcDbVisualStyle
  2
Flat
 70
     0
177
     3
291
     1
 70
    58
 90
        2
176
     1
 90
        1
176
     1
 90
        1
176
     1
 90
        2
176
     1
 40
0.6
176
     1
 40
30.0
176
     1
 62
     7
420
 16777215
176
     1
 90
        0
176
     1
 90
        0
176
     1
 62
     7
176
     1
 62
   257
176
     1
 90
        1
176
     1
 90
        1
176
     1
 40
1.0
176
     1
 90
        8
176
     1
 62
     7
176
     1
 40
1.0
176
     1
 90
        1
176
     1
 90
        6
176
     1
 90
        2
176
     1
 62
     7
176
     1
 90
        5
176
     1
 90
        0
176
     1
 90
        0
176
     1
290
     0
176
     1
 90
       13
176
     1
 40
0.0
176
     1
 90
        0
176
     1
290
     0
176
     1
290
     1
176
     1
290
     1
176
     1
290
     0
176
     1
290
     0
176
     1
290
     0
176
     1
290
     0
176
     1
290
     0
176
     1
290
     0
176
     1
 90
       50
176
     1
 40
0.0
176
     1
 40
1.0
176
     1
 90
        0
176
     1
 62
    18
176
     1
 90
       50
176
     1
 90
        3
176
     1
 62
     5
420
      255
176
     1
290
     0
176
     1
 90
       50
176
     1
 90
       50
176
     1
 90
       50
176
     1
290
     0
176
     1
 90
       50
176
     1
 62
   256
176
     0
 40
1.0
176
     0
 90
        2
176
     1
  1
strokes_ogs.tif
176
     1
290
     0
176
     1
 40
1.0
176
     1
 40
1.0
176
     1
  0
VISUALSTYLE
  5
6C6
102
{ACAD_REACTORS
330
6C4
102
}
330
6C4
100
AcDbVisualStyle
  2
FlatWithEdges
 70
     1
177
     3
291
     1
 70
    58
 90
        2
176
     1
 90
        1
176
     1
 90
        1
176
     1
 90
        2
176
     1
 40
0.6
176
     1
 40
30.0
176
     1
 62
     7
420
 16777215
176
     1
 90
        1
176
     1
 90
        0
176
     1
 62
     7
176
     1
 62
   257
176
     1
 90
        1
176
     1
 90
        1
176
     1
 40
1.0
176
     1
 90
        0
176
     1
 62
   257
176
     1
 40
1.0
176
     1
 90
        1
176
     1
 90
        6
176
     1
 90
        2
176
     1
 62
     7
176
     1
 90
        5
176
     1
 90
        0
176
     1
 90
        0
176
     1
290
     0
176
     1
 90
       13
176
     1
 40
0.0
176
     1
 90
        0
176
     1
290
     0
176
     1
290
     1
176
     1
290
     1
176
     1
290
     0
176
     1
290
     0
176
     1
290
     0
176
     1
290
     0
176
     1
290
     0
176
     1
290
     0
176
     1
 90
       50
176
     1
 40
0.0
176
     1
 40
1.0
176
     1
 90
        0
176
     1
 62
    18
176
     1
 90
       50
176
     1
 90
        3
176
     1
 62
     5
420
      255
176
     1
290
     0
176
     1
 90
       50
176
     1
 90
       50
176
     1
 90
       50
176
     1
290
     0
176
     1
 90
       50
176
     1
 62
   256
176
     0
 40
1.0
176
     0
 90
        2
176
     1
  1
strokes_ogs.tif
176
     1
290
     0
176
     1
 40
1.0
176
     1
 40
1.0
176
     1
  0
VISUALSTYLE
  5
6C7
102
{ACAD_REACTORS
330
6C4
102
}
330
6C4
100
AcDbVisualStyle
  2
Gouraud
 70
     2
177
     3
291
     1
 70
    58
 90
        2
176
     1
 90
        2
176
     1
 90
        1
176
     1
 90
        2
176
     1
 40
0.6
176
     1
 40
30.0
176
     1
 62
     7
420
 16777215
176
     1
 90
        0
176
     1
 90
        0
176
     1
 62
     7
176
     1
 62
   257
176
     1
 90
        1
176
     1
 90
        1
176
     1
 40
1.0
176
     1
 90
        0
176
     1
 62
     7
176
     1
 40
1.0
176
     1
 90
        1
176
     1
 90
        6
176
     1
 90
        2
176
     1
 62
     7
176
     1
 90
        5
176
     1
 90
        0
176
     1
 90
        0
176
     1
290
     0
176
     1
 90
       13
176
     1
 40
0.0
176
     1
 90
        0
176
     1
290
     0
176
     1
290
     1
176
     1
290
     1
176
     1
290
     0
176
     1
290
     0
176
     1
290
     0
176
     1
290
     0
176
     1
290
     0
176
     1
290
     0
176
     1
 90
       50
176
     1
 40
0.0
176
     1
 40
1.0
176
     1
 90
        0
176
     1
 62
    18
176
     1
 90
       50
176
     1
 90
        3
176
     1
 62
     5
420
      255
176
     1
290
     0
176
     1
 90
       50
176
     1
 90
       50
176
     1
 90
       50
176
     1
290
     0
176
     1
 90
       50
176
     1
 62
   256
176
     0
 40
1.0
176
     0
 90
        2
176
     1
  1
strokes_ogs.tif
176
     1
290
     0
176
     1
 40
1.0
176
     1
 40
1.0
176
     1
  0
VISUALSTYLE
  5
6C8
102
{ACAD_REACTORS
330
6C4
102
}
330
6C4
100
AcDbVisualStyle
  2
GouraudWithEdges
 70
     3
177
     3
291
     1
 70
    58
 90
        2
176
     1
 90
        2
176
     1
 90
        1
176
     1
 90
        2
176
     1
 40
0.6
176
     1
 40
30.0
176
     1
 62
     7
420
 16777215
176
     1
 90
        1
176
     1
 90
        0
176
     1
 62
     7
176
     1
 62
   257
176
     1
 90
        1
176
     1
 90
        1
176
     1
 40
1.0
176
     1
 90
        0
176
     1
 62
   257
176
     1
 40
1.0
176
     1
 90
        1
176
     1
 90
        6
176
     1
 90
        2
176
     1
 62
     7
176
     1
 90
        5
176
     1
 90
        0
176
     1
 90
        0
176
     1
290
     0
176
     1
 90
       13
176
     1
 40
0.0
176
     1
 90
        0
176
     1
290
     0
176
     1
290
     1
176
     1
290
     1
176
     1
290
     0
176
     1
290
     0
176
     1
290
     0
176
     1
290
     0
176
     1
290
     0
176
     1
290
     0
176
     1
 90
       50
176
     1
 40
0.0
176
     1
 40
1.0
176
     1
 90
        0
176
     1
 62
    18
176
     1
 90
       50
176
     1
 90
        3
176
     1
 62
     5
420
      255
176
     1
290
     0
176
     1
 90
       50
176
     1
 90
       50
176
     1
 90
       50
176
     1
290
     0
176
     1
 90
       50
176
     1
 62
   256
176
     0
 40
1.0
176
     0
 90
        2
176
     1
  1
strokes_ogs.tif
176
     1
290
     0
176
     1
 40
1.0
176
     1
 40
1.0
176
     1
  0
VISUALSTYLE
  5
6CC
102
{ACAD_REACTORS
330
6C4
102
}
330
6C4
100
AcDbVisualStyle
  2
Hidden
 70
     6
177
     3
291
     0
 70
    58
 90
        1
176
     1
 90
        2
176
     1
 90
        2
176
     1
 90
        0
176
     1
 40
0.6
176
     1
 40
30.0
176
     1
 62
     7
420
 16777215
176
     1
 90
        2
176
     1
 90
        2
176
     1
 62
     7
176
     1
 62
   257
176
     1
 90
        2
176
     1
 90
        1
176
     1
 40
40.0
176
     1
 90
        0
176
     1
 62
   257
176
     1
 40
1.0
176
     1
 90
        1
176
     1
 90
        6
176
     1
 90
        2
176
     1
 62
     7
176
     1
 90
        3
176
     1
 90
        0
176
     1
 90
        0
176
     1
290
     0
176
     1
 90
        1
176
     1
 40
0.0
176
     1
 90
        0
176
     1
290
     0
176
     1
290
     1
176
     1
290
     1
176
     1
290
     0
176
     1
290
     0
176
     1
290
     0
176
     1
290
     0
176
     1
290
     0
176
     1
290
     0
176
     1
 90
       50
176
     1
 40
0.0
176
     1
 40
1.0
176
     1
 90
        0
176
     1
 62
    18
176
     1
 90
       50
176
     1
 90
        3
176
     1
 62
     5
420
      255
176
     1
290
     0
176
     1
 90
       50
176
     1
 90
       50
176
     1
 90
       50
176
     1
290
     0
176
     1
 90
       50
176
     1
 62
   256
176
     0
 40
1.0
176
     0
 90
        2
176
     1
  1
strokes_ogs.tif
176
     1
290
     0
176
     1
 40
1.0
176
     1
 40
1.0
176
     1
  0
VISUALSTYLE
  5
6DA
102
{ACAD_REACTORS
330
6C4
102
}
330
6C4
100
AcDbVisualStyle
  2
JitterOff
 70
    20
177
     3
291
     1
 70
    58
 90
        2
176
     0
 90
        2
176
     0
 90
        0
176
     0
 90
        0
176
     0
 40
0.6
176
     0
 40
30.0
176
     0
 62
     7
420
 16777215
176
     0
 90
        1
176
     0
 90
        4
176
     0
 62
     7
176
     0
 62
   257
176
     0
 90
        1
176
     0
 90
        1
176
     0
 40
1.0
176
     0
 90
       10
176
     2
 62
     7
176
     0
 40
1.0
176
     0
 90
        1
176
     0
 90
        6
176
     0
 90
        2
176
     0
 62
     7
176
     0
 90
        5
176
     0
 90
        0
176
     0
 90
        0
176
     0
290
     0
176
     0
 90
        1
176
     0
 40
0.0
176
     0
 90
        0
176
     0
290
     0
176
     1
290
     1
176
     1
290
     1
176
     1
290
     0
176
     1
290
     0
176
     1
290
     0
176
     1
290
     0
176
     1
290
     0
176
     1
290
     0
176
     1
 90
       50
176
     0
 40
0.0
176
     0
 40
1.0
176
     0
 90
        0
176
     0
 62
    18
176
     0
 90
       50
176
     0
 90
        3
176
     0
 62
     5
420
      255
176
     0
290
     0
176
     1
 90
       50
176
     0
 90
       50
176
     0
 90
       50
176
     0
290
     0
176
     1
 90
       50
176
     0
 62
   256
176
     0
 40
1.0
176
     0
 90
        2
176
     0
  1
strokes_ogs.tif
176
     0
290
     0
176
     1
 40
1.0
176
     0
 40
1.0
176
     0
  0
VISUALSTYLE
  5
6D2
102
{ACAD_REACTORS
330
6C4
102
}
330
6C4
100
AcDbVisualStyle
  2
Linepattern
 70
    14
177
     3
291
     1
 70
    58
 90
        2
176
     1
 90
        2
176
     1
 90
        0
176
     1
 90
        0
176
     1
 40
0.6
176
     1
 40
30.0
176
     1
 62
     7
420
 16777215
176
     1
 90
        1
176
     1
 90
        4
176
     1
 62
     7
176
     1
 62
   257
176
     1
 90
        7
176
     1
 90
        7
176
     1
 40
1.0
176
     1
 90
        8
176
     1
 62
     7
176
     1
 40
1.0
176
     1
 90
        1
176
     1
 90
        6
176
     1
 90
        2
176
     1
 62
     7
176
     1
 90
        5
176
     1
 90
        0
176
     1
 90
        0
176
     1
290
     0
176
     1
 90
        1
176
     1
 40
0.0
176
     1
 90
        0
176
     1
290
     0
176
     1
290
     1
176
     1
290
     1
176
     1
290
     0
176
     1
290
     0
176
     1
290
     0
176
     1
290
     0
176
     1
290
     0
176
     1
290
     0
176
     1
 90
       50
176
     1
 40
0.0
176
     1
 40
1.0
176
     1
 90
        0
176
     1
 62
    18
176
     1
 90
       50
176
     1
 90
        3
176
     1
 62
     5
420
      255
176
     1
290
     0
176
     1
 90
       50
176
     1
 90
       50
176
     1
 90
       50
176
     1
290
     0
176
     1
 90
       50
176
     1
 62
   256
176
     0
 40
1.0
176
     0
 90
        2
176
     1
  1
strokes_ogs.tif
176
     1
290
     0
176
     1
 40
1.0
176
     1
 40
1.0
176
     1
  0
VISUALSTYLE
  5
6DB
102
{ACAD_REACTORS
330
6C4
102
}
330
6C4
100
AcDbVisualStyle
  2
OverhangOff
 70
    21
177
     3
291
     1
 70
    58
 90
        2
176
     0
 90
        2
176
     0
 90
        0
176
     0
 90
        0
176
     0
 40
0.6
176
     0
 40
30.0
176
     0
 62
     7
420
 16777215
176
     0
 90
        1
176
     0
 90
        4
176
     0
 62
     7
176
     0
 62
   257
176
     0
 90
        1
176
     0
 90
        1
176
     0
 40
1.0
176
     0
 90
        9
176
     2
 62
     7
176
     0
 40
1.0
176
     0
 90
        1
176
     0
 90
        6
176
     0
 90
        2
176
     0
 62
     7
176
     0
 90
        5
176
     0
 90
        0
176
     0
 90
        0
176
     0
290
     0
176
     0
 90
        1
176
     0
 40
0.0
176
     0
 90
        0
176
     0
290
     0
176
     1
290
     1
176
     1
290
     1
176
     1
290
     0
176
     1
290
     0
176
     1
290
     0
176
     1
290
     0
176
     1
290
     0
176
     1
290
     0
176
     1
 90
       50
176
     0
 40
0.0
176
     0
 40
1.0
176
     0
 90
        0
176
     0
 62
    18
176
     0
 90
       50
176
     0
 90
        3
176
     0
 62
     5
420
      255
176
     0
290
     0
176
     1
 90
       50
176
     0
 90
       50
176
     0
 90
       50
176
     0
290
     0
176
     1
 90
       50
176
     0
 62
   256
176
     0
 40
1.0
176
     0
 90
        2
176
     0
  1
strokes_ogs.tif
176
     0
290
     0
176
     1
 40
1.0
176
     0
 40
1.0
176
     0
  0
VISUALSTYLE
  5
6CE
102
{ACAD_REACTORS
330
6C4
102
}
330
6C4
100
AcDbVisualStyle
  2
Realistic
 70
     8
177
     3
291
     0
 70
    58
 90
        2
176
     1
 90
        3
176
     1
 90
        0
176
     1
 90
        2
176
     1
 40
0.6
176
     1
 40
30.0
176
     1
 62
     7
420
 16777215
176
     1
 90
        0
176
     1
 90
        0
176
     1
 62
     7
176
     1
 62
   257
176
     1
 90
        1
176
     1
 90
        1
176
     1
 40
1.0
176
     1
 90
        8
176
     1
 62
   257
176
     1
 40
1.0
176
     1
 90
        1
176
     1
 90
        6
176
     1
 90
        2
176
     1
 62
     7
176
     1
 90
        3
176
     1
 90
        0
176
     1
 90
        0
176
     1
290
     0
176
     1
 90
       13
176
     1
 40
0.0
176
     1
 90
        0
176
     1
290
     0
176
     1
290
     1
176
     1
290
     1
176
     1
290
     0
176
     1
290
     0
176
     1
290
     0
176
     1
290
     0
176
     1
290
     0
176
     1
290
     0
176
     1
 90
       50
176
     1
 40
0.0
176
     1
 40
1.0
176
     1
 90
        0
176
     1
 62
    18
176
     1
 90
       50
176
     1
 90
        3
176
     1
 62
     5
420
      255
176
     1
290
     0
176
     1
 90
       50
176
     1
 90
       50
176
     1
 90
       50
176
     1
290
     0
176
     1
 90
       50
176
     1
 62
   256
176
     0
 40
1.0
176
     0
 90
        2
176
     1
  1
strokes_ogs.tif
176
     1
290
     0
176
     1
 40
1.0
176
     1
 40
1.0
176
     1
  0
VISUALSTYLE
  5
6D9
102
{ACAD_REACTORS
330
6C4
102
}
330
6C4
100
AcDbVisualStyle
  2
Shaded
 70
    27
177
     3
291
     0
 70
    58
 90
        2
176
     1
 90
        2
176
     1
 90
        1
176
     1
 90
        2
176
     1
 40
0.6
176
     1
 40
30.0
176
     1
 62
     7
420
 16777215
176
     1
 90
        0
176
     1
 90
        4
176
     1
 62
     7
176
     1
 62
   257
176
     1
 90
        1
176
     1
 90
        1
176
     1
 40
1.0
176
     1
 90
        8
176
     1
 62
   257
176
     1
 40
1.0
176
     1
 90
        1
176
     1
 90
        6
176
     1
 90
        2
176
     1
 62
     8
420
  7895160
176
     1
 90
        3
176
     1
 90
        0
176
     1
 90
        0
176
     1
290
     0
176
     1
 90
        5
176
     1
 40
0.0
176
     1
 90
        0
176
     1
290
     0
176
     1
290
     1
176
     1
290
     1
176
     1
290
     0
176
     1
290
     0
176
     1
290
     0
176
     1
290
     0
176
     1
290
     0
176
     1
290
     0
176
     1
 90
       50
176
     1
 40
0.0
176
     1
 40
1.0
176
     1
 90
        0
176
     1
 62
    18
176
     1
 90
       50
176
     1
 90
        3
176
     1
 62
     5
420
      255
176
     1
290
     0
176
     1
 90
       50
176
     1
 90
       50
176
     1
 90
       50
176
     1
290
     0
176
     1
 90
       50
176
     1
 62
   256
176
     0
 40
1.0
176
     0
 90
        2
176
     1
  1
strokes_ogs.tif
176
     1
290
     0
176
     1
 40
1.0
176
     1
 40
1.0
176
     1
  0
VISUALSTYLE
  5
6D8
102
{ACAD_REACTORS
330
6C4
102
}
330
6C4
100
AcDbVisualStyle
  2
Shaded with edges
 70
    26
177
     3
291
     0
 70
    58
 90
        2
176
     1
 90
        2
176
     1
 90
        1
176
     1
 90
        2
176
     1
 40
0.6
176
     1
 40
30.0
176
     1
 62
     7
420
 16777215
176
     1
 90
        1
176
     1
 90
        2
176
     1
 62
     7
176
     1
 62
   257
176
     1
 90
        2
176
     1
 90
        1
176
     1
 40
1.0
176
     1
 90
        8
176
     1
 62
   257
176
     1
 40
1.0
176
     1
 90
        1
176
     1
 90
        6
176
     1
 90
        2
176
     1
 62
     7
176
     1
 90
        3
176
     1
 90
        0
176
     1
 90
        0
176
     1
290
     0
176
     1
 90
        5
176
     1
 40
0.0
176
     1
 90
        0
176
     1
290
     0
176
     1
290
     1
176
     1
290
     1
176
     1
290
     0
176
     1
290
     0
176
     1
290
     0
176
     1
290
     0
176
     1
290
     0
176
     1
290
     0
176
     1
 90
       50
176
     1
 40
0.0
176
     1
 40
1.0
176
     1
 90
        0
176
     1
 62
    18
176
     1
 90
       50
176
     1
 90
        3
176
     1
 62
     5
420
      255
176
     1
290
     0
176
     1
 90
       50
176
     1
 90
       50
176
     1
 90
       50
176
     1
290
     0
176
     1
 90
       50
176
     1
 62
   256
176
     0
 40
1.0
176
     0
 90
        2
176
     1
  1
strokes_ogs.tif
176
     1
290
     0
176
     1
 40
1.0
176
     1
 40
1.0
176
     1
  0
VISUALSTYLE
  5
6D5
102
{ACAD_REACTORS
330
6C4
102
}
330
6C4
100
AcDbVisualStyle
  2
Shades of Gray
 70
    23
177
     3
291
     0
 70
    58
 90
        2
176
     1
 90
        2
176
     1
 90
        3
176
     1
 90
        0
176
     1
 40
0.6
176
     1
 40
30.0
176
     1
 62
     7
420
 16777215
176
     1
 90
        2
176
     1
 90
        2
176
     1
 62
     7
176
     1
 62
     7
176
     1
 90
        1
176
     1
 90
        1
176
     1
 40
40.0
176
     1
 90
        8
176
     1
 62
     7
176
     1
 40
1.0
176
     1
 90
        1
176
     1
 90
        6
176
     1
 90
        2
176
     1
 62
     7
176
     1
 90
        3
176
     1
 90
        0
176
     1
 90
        0
176
     1
290
     0
176
     1
 90
        1
176
     1
 40
0.0
176
     1
 90
        0
176
     1
290
     0
176
     1
290
     1
176
     1
290
     1
176
     1
290
     0
176
     1
290
     0
176
     1
290
     0
176
     1
290
     0
176
     1
290
     0
176
     1
290
     0
176
     1
 90
       50
176
     1
 40
0.0
176
     1
 40
1.0
176
     1
 90
        0
176
     1
 62
    18
176
     1
 90
       50
176
     1
 90
        3
176
     1
 62
     5
420
      255
176
     1
290
     0
176
     1
 90
       50
176
     1
 90
       50
176
     1
 90
       50
176
     1
290
     0
176
     1
 90
       50
176
     1
 62
   256
176
     0
 40
1.0
176
     0
 90
        2
176
     1
  1
strokes_ogs.tif
176
     1
290
     0
176
     1
 40
1.0
176
     1
 40
1.0
176
     1
  0
VISUALSTYLE
  5
6D6
102
{ACAD_REACTORS
330
6C4
102
}
330
6C4
100
AcDbVisualStyle
  2
Sketchy
 70
    24
177
     3
291
     0
 70
    58
 90
        1
176
     1
 90
        2
176
     1
 90
        2
176
     1
 90
        0
176
     1
 40
0.6
176
     1
 40
30.0
176
     1
 62
     7
420
 16777215
176
     1
 90
        2
176
     1
 90
        2
176
     1
 62
     7
176
     1
 62
     7
176
     1
 90
        1
176
     1
 90
        1
176
     1
 40
40.0
176
     1
 90
       11
176
     1
 62
     7
176
     1
 40
1.0
176
     1
 90
        1
176
     1
 90
        6
176
     1
 90
        2
176
     1
 62
     7
176
     1
 90
        6
176
     1
 90
        0
176
     1
 90
        0
176
     1
290
     0
176
     1
 90
        1
176
     1
 40
0.0
176
     1
 90
        0
176
     1
290
     0
176
     1
290
     1
176
     1
290
     1
176
     1
290
     0
176
     1
290
     0
176
     1
290
     0
176
     1
290
     0
176
     1
290
     0
176
     1
290
     0
176
     1
 90
       50
176
     1
 40
0.0
176
     1
 40
1.0
176
     1
 90
        0
176
     1
 62
    18
176
     1
 90
       50
176
     1
 90
        3
176
     1
 62
     5
420
      255
176
     1
290
     0
176
     1
 90
       50
176
     1
 90
       50
176
     1
 90
       50
176
     1
290
     0
176
     1
 90
       50
176
     1
 62
   256
176
     0
 40
1.0
176
     0
 90
        2
176
     1
  1
strokes_ogs.tif
176
     1
290
     0
176
     1
 40
1.0
176
     1
 40
1.0
176
     1
  0
VISUALSTYLE
  5
6D1
102
{ACAD_REACTORS
330
6C4
102
}
330
6C4
100
AcDbVisualStyle
  2
Thicken
 70
    13
177
     3
291
     1
 70
    58
 90
        2
176
     1
 90
        2
176
     1
 90
        0
176
     1
 90
        0
176
     1
 40
0.6
176
     1
 40
30.0
176
     1
 62
     7
420
 16777215
176
     1
 90
        1
176
     1
 90
        4
176
     1
 62
     7
176
     1
 62
   257
176
     1
 90
        1
176
     1
 90
        1
176
     1
 40
1.0
176
     1
 90
       12
176
     1
 62
     7
176
     1
 40
1.0
176
     1
 90
        1
176
     1
 90
        6
176
     1
 90
        2
176
     1
 62
     7
176
     1
 90
        5
176
     1
 90
        0
176
     1
 90
        0
176
     1
290
     0
176
     1
 90
        1
176
     1
 40
0.0
176
     1
 90
        0
176
     1
290
     0
176
     1
290
     1
176
     1
290
     1
176
     1
290
     0
176
     1
290
     0
176
     1
290
     0
176
     1
290
     0
176
     1
290
     0
176
     1
290
     0
176
     1
 90
       50
176
     1
 40
0.0
176
     1
 40
1.0
176
     1
 90
        0
176
     1
 62
    18
176
     1
 90
       50
176
     1
 90
        3
176
     1
 62
     5
420
      255
176
     1
290
     0
176
     1
 90
       50
176
     1
 90
       50
176
     1
 90
       50
176
     1
290
     0
176
     1
 90
       50
176
     1
 62
   256
176
     0
 40
1.0
176
     0
 90
        2
176
     1
  1
strokes_ogs.tif
176
     1
290
     0
176
     1
 40
1.0
176
     1
 40
1.0
176
     1
  0
VISUALSTYLE
  5
6CB
102
{ACAD_REACTORS
330
6C4
102
}
330
6C4
100
AcDbVisualStyle
  2
Wireframe
 70
     5
177
     3
291
     0
 70
    58
 90
        0
176
     1
 90
        2
176
     1
 90
        0
176
     1
 90
        0
176
     1
 40
0.6
176
     1
 40
30.0
176
     1
 62
     7
420
 16777215
176
     1
 90
        1
176
     1
 90
        4
176
     1
 62
     7
176
     1
 62
   257
176
     1
 90
        1
176
     1
 90
        1
176
     1
 40
1.0
176
     1
 90
        0
176
     1
 62
   257
176
     1
 40
1.0
176
     1
 90
        1
176
     1
 90
        6
176
     1
 90
        2
176
     1
 62
     7
176
     1
 90
        3
176
     1
 90
        0
176
     1
 90
        0
176
     1
290
     0
176
     1
 90
        1
176
     1
 40
0.0
176
     1
 90
        0
176
     1
290
     0
176
     1
290
     1
176
     1
290
     1
176
     1
290
     0
176
     1
290
     0
176
     1
290
     0
176
     1
290
     0
176
     1
290
     0
176
     1
290
     0
176
     1
 90
       50
176
     1
 40
0.0
176
     1
 40
1.0
176
     1
 90
        0
176
     1
 62
    18
176
     1
 90
       50
176
     1
 90
        3
176
     1
 62
     5
420
      255
176
     1
290
     0
176
     1
 90
       50
176
     1
 90
       50
176
     1
 90
       50
176
     1
290
     0
176
     1
 90
       50
176
     1
 62
   256
176
     0
 40
1.0
176
     0
 90
        2
176
     1
  1
strokes_ogs.tif
176
     1
290
     0
176
     1
 40
1.0
176
     1
 40
1.0
176
     1
  0
VISUALSTYLE
  5
6D7
102
{ACAD_REACTORS
330
6C4
102
}
330
6C4
100
AcDbVisualStyle
  2
X-Ray
 70
    25
177
     3
291
     0
 70
    58
 90
        2
176
     1
 90
        2
176
     1
 90
        1
176
     1
 90
        1
176
     1
 40
0.5
176
     1
 40
30.0
176
     1
 62
     7
420
 16777215
176
     1
 90
        1
176
     1
 90
        0
176
     1
 62
     7
176
     1
 62
   257
176
     1
 90
        1
176
     1
 90
        1
176
     1
 40
1.0
176
     1
 90
        8
176
     1
 62
     7
176
     1
 40
1.0
176
     1
 90
        1
176
     1
 90
        6
176
     1
 90
        2
176
     1
 62
     7
176
     1
 90
        3
176
     1
 90
        0
176
     1
 90
        0
176
     1
290
     0
176
     1
 90
       13
176
     1
 40
0.0
176
     1
 90
        0
176
     1
290
     0
176
     1
290
     1
176
     1
290
     1
176
     1
290
     0
176
     1
290
     0
176
     1
290
     0
176
     1
290
     0
176
     1
290
     0
176
     1
290
     0
176
     1
 90
       50
176
     1
 40
0.0
176
     1
 40
1.0
176
     1
 90
        0
176
     1
 62
    18
176
     1
 90
       50
176
     1
 90
        3
176
     1
 62
     5
420
      255
176
     1
290
     0
176
     1
 90
       50
176
     1
 90
       50
176
     1
 90
       50
176
     1
290
     0
176
     1
 90
       50
176
     1
 62
   256
176
     0
 40
1.0
176
     0
 90
        2
176
     1
  1
strokes_ogs.tif
176
     1
290
     0
176
     1
 40
1.0
176
     1
 40
1.0
176
     1
  0
DICTIONARYVAR
  5
779
102
{ACAD_REACTORS
330
5E
102
}
330
5E
100
DictionaryVariables
280
     0
  1
1:1
  0
DICTIONARYVAR
  5
775
102
{ACAD_REACTORS
330
5E
102
}
330
5E
100
DictionaryVariables
280
     0
  1
STANDARD
  0
DICTIONARYVAR
  5
16E
102
{ACAD_REACTORS
330
5E
102
}
330
5E
100
DictionaryVariables
280
     0
  1
STANDARD
  0
DICTIONARYVAR
  5
776
102
{ACAD_REACTORS
330
5E
102
}
330
5E
100
DictionaryVariables
280
     0
  1
Metric50
  0
DICTIONARYVAR
  5
777
102
{ACAD_REACTORS
330
5E
102
}
330
5E
100
DictionaryVariables
280
     0
  1
Metric50
  0
DICTIONARYVAR
  5
5F
102
{ACAD_REACTORS
330
5E
102
}
330
5E
100
DictionaryVariables
280
     0
  1
2
  0
DICTIONARYVAR
  5
63
102
{ACAD_REACTORS
330
5E
102
}
330
5E
100
DictionaryVariables
280
     0
  1
1
  0
DICTIONARYVAR
  5
77B
102
{ACAD_REACTORS
330
5E
102
}
330
5E
100
DictionaryVariables
280
     0
  1
1
  0
DICTIONARYVAR
  5
77C
102
{ACAD_REACTORS
330
5E
102
}
330
5E
100
DictionaryVariables
280
     0
  1
15
  0
DICTIONARYVAR
  5
77A
102
{ACAD_REACTORS
330
5E
102
}
330
5E
100
DictionaryVariables
280
     0
  1
0
  0
DICTIONARYVAR
  5
778
102
{ACAD_REACTORS
330
5E
102
}
330
5E
100
DictionaryVariables
280
     0
  1
0
  0
DICTIONARY
  5
6B5
330
6B4
100
AcDbDictionary
280
     1
281
     1
  3
BUMPTILE
360
6B7
  3
DIFFUSETILE
360
6B6
  3
OPACITYTILE
360
6BA
  3
REFLECTIONTILE
360
6B9
  3
REFRACTIONTILE
360
6BB
  3
SPECULARTILE
360
6B8
  0
DICTIONARY
  5
6AD
330
6AC
100
AcDbDictionary
280
     1
281
     1
  3
BUMPTILE
360
6AF
  3
DIFFUSETILE
360
6AE
  3
OPACITYTILE
360
6B2
  3
REFLECTIONTILE
360
6B1
  3
REFRACTIONTILE
360
6B3
  3
SPECULARTILE
360
6B0
  0
DICTIONARY
  5
6BD
330
6BC
100
AcDbDictionary
280
     1
281
     1
  3
BUMPTILE
360
6BF
  3
DIFFUSETILE
360
6BE
  3
OPACITYTILE
360
6C2
  3
REFLECTIONTILE
360
6C1
  3
REFRACTIONTILE
360
6C3
  3
SPECULARTILE
360
6C0
  0
DICTIONARY
  5
77D
330
167
100
AcDbDictionary
280
     1
281
     1
  3
ACAD_ROUNDTRIP_2008_TABLESTYLE_CELLSTYLEMAP
360
78C
  0
XRECORD
  5
6B7
102
{ACAD_REACTORS
330
6B5
102
}
330
6B5
100
AcDbXrecord
280
     1
270
     1
271
     1
  0
XRECORD
  5
6B6
102
{ACAD_REACTORS
330
6B5
102
}
330
6B5
100
AcDbXrecord
280
     1
270
     1
271
     1
  0
XRECORD
  5
6BA
102
{ACAD_REACTORS
330
6B5
102
}
330
6B5
100
AcDbXrecord
280
     1
270
     1
271
     1
  0
XRECORD
  5
6B9
102
{ACAD_REACTORS
330
6B5
102
}
330
6B5
100
AcDbXrecord
280
     1
270
     1
271
     1
  0
XRECORD
  5
6BB
102
{ACAD_REACTORS
330
6B5
102
}
330
6B5
100
AcDbXrecord
280
     1
270
     1
271
     1
  0
XRECORD
  5
6B8
102
{ACAD_REACTORS
330
6B5
102
}
330
6B5
100
AcDbXrecord
280
     1
270
     1
271
     1
  0
XRECORD
  5
6AF
102
{ACAD_REACTORS
330
6AD
102
}
330
6AD
100
AcDbXrecord
280
     1
270
     1
271
     1
  0
XRECORD
  5
6AE
102
{ACAD_REACTORS
330
6AD
102
}
330
6AD
100
AcDbXrecord
280
     1
270
     1
271
     1
  0
XRECORD
  5
6B2
102
{ACAD_REACTORS
330
6AD
102
}
330
6AD
100
AcDbXrecord
280
     1
270
     1
271
     1
  0
XRECORD
  5
6B1
102
{ACAD_REACTORS
330
6AD
102
}
330
6AD
100
AcDbXrecord
280
     1
270
     1
271
     1
  0
XRECORD
  5
6B3
102
{ACAD_REACTORS
330
6AD
102
}
330
6AD
100
AcDbXrecord
280
     1
270
     1
271
     1
  0
XRECORD
  5
6B0
102
{ACAD_REACTORS
330
6AD
102
}
330
6AD
100
AcDbXrecord
280
     1
270
     1
271
     1
  0
XRECORD
  5
6BF
102
{ACAD_REACTORS
330
6BD
102
}
330
6BD
100
AcDbXrecord
280
     1
270
     1
271
     1
  0
XRECORD
  5
6BE
102
{ACAD_REACTORS
330
6BD
102
}
330
6BD
100
AcDbXrecord
280
     1
270
     1
271
     1
  0
XRECORD
  5
6C2
102
{ACAD_REACTORS
330
6BD
102
}
330
6BD
100
AcDbXrecord
280
     1
270
     1
271
     1
  0
XRECORD
  5
6C1
102
{ACAD_REACTORS
330
6BD
102
}
330
6BD
100
AcDbXrecord
280
     1
270
     1
271
     1
  0
XRECORD
  5
6C3
102
{ACAD_REACTORS
330
6BD
102
}
330
6BD
100
AcDbXrecord
280
     1
270
     1
271
     1
  0
XRECORD
  5
6C0
102
{ACAD_REACTORS
330
6BD
102
}
330
6BD
100
AcDbXrecord
280
     1
270
     1
271
     1
  0
CELLSTYLEMAP
  5
78C
102
{ACAD_REACTORS
330
77D
102
}
330
77D
100
AcDbCellStyleMap
 90
        3
300
CELLSTYLE
  1
TABLEFORMAT_BEGIN
 90
        5
170
     1
 91
        0
 92
    32768
 62
   257
 93
        1
300
CONTENTFORMAT
  1
CONTENTFORMAT_BEGIN
 90
        0
 91
        0
 92
        4
 93
        0
300

 40
0.0
140
1.0
 94
        5
 62
     0
340
11
144
6.0
309
CONTENTFORMAT_END
171
     1
301
MARGIN
  1
CELLMARGIN_BEGIN
 40
1.5
 40
1.5
 40
1.5
 40
1.5
 40
0.18
 40
0.18
309
CELLMARGIN_END
 94
        6
 95
        1
302
GRIDFORMAT
  1
GRIDFORMAT_BEGIN
 90
        0
 91
        1
 62
     0
 92
       -2
340
0
 93
        0
 40
0.045
309
GRIDFORMAT_END
 95
        2
302
GRIDFORMAT
  1
GRIDFORMAT_BEGIN
 90
        0
 91
        1
 62
     0
 92
       -2
340
0
 93
        0
 40
0.045
309
GRIDFORMAT_END
 95
        4
302
GRIDFORMAT
  1
GRIDFORMAT_BEGIN
 90
        0
 91
        1
 62
     0
 92
       -2
340
0
 93
        0
 40
0.045
309
GRIDFORMAT_END
 95
        8
302
GRIDFORMAT
  1
GRIDFORMAT_BEGIN
 90
        0
 91
        1
 62
     0
 92
       -2
340
0
 93
        0
 40
0.045
309
GRIDFORMAT_END
 95
       16
302
GRIDFORMAT
  1
GRIDFORMAT_BEGIN
 90
        0
 91
        1
 62
     0
 92
       -2
340
0
 93
        0
 40
0.045
309
GRIDFORMAT_END
 95
       32
302
GRIDFORMAT
  1
GRIDFORMAT_BEGIN
 90
        0
 91
        1
 62
     0
 92
       -2
340
0
 93
        0
 40
0.045
309
GRIDFORMAT_END
309
TABLEFORMAT_END
  1
CELLSTYLE_BEGIN
 90
        1
 91
        1
300
_TITLE
309
CELLSTYLE_END
300
CELLSTYLE
  1
TABLEFORMAT_BEGIN
 90
        5
170
     1
 91
        0
 92
        0
 62
   257
 93
        1
300
CONTENTFORMAT
  1
CONTENTFORMAT_BEGIN
 90
        0
 91
        0
 92
        4
 93
        0
300

 40
0.0
140
1.0
 94
        5
 62
     0
340
11
144
4.5
309
CONTENTFORMAT_END
171
     1
301
MARGIN
  1
CELLMARGIN_BEGIN
 40
1.5
 40
1.5
 40
1.5
 40
1.5
 40
0.18
 40
0.18
309
CELLMARGIN_END
 94
        6
 95
        1
302
GRIDFORMAT
  1
GRIDFORMAT_BEGIN
 90
        0
 91
        1
 62
     0
 92
       -2
340
0
 93
        0
 40
0.045
309
GRIDFORMAT_END
 95
        2
302
GRIDFORMAT
  1
GRIDFORMAT_BEGIN
 90
        0
 91
        1
 62
     0
 92
       -2
340
0
 93
        0
 40
0.045
309
GRIDFORMAT_END
 95
        4
302
GRIDFORMAT
  1
GRIDFORMAT_BEGIN
 90
        0
 91
        1
 62
     0
 92
       -2
340
0
 93
        0
 40
0.045
309
GRIDFORMAT_END
 95
        8
302
GRIDFORMAT
  1
GRIDFORMAT_BEGIN
 90
        0
 91
        1
 62
     0
 92
       -2
340
0
 93
        0
 40
0.045
309
GRIDFORMAT_END
 95
       16
302
GRIDFORMAT
  1
GRIDFORMAT_BEGIN
 90
        0
 91
        1
 62
     0
 92
       -2
340
0
 93
        0
 40
0.045
309
GRIDFORMAT_END
 95
       32
302
GRIDFORMAT
  1
GRIDFORMAT_BEGIN
 90
        0
 91
        1
 62
     0
 92
       -2
340
0
 93
        0
 40
0.045
309
GRIDFORMAT_END
309
TABLEFORMAT_END
  1
CELLSTYLE_BEGIN
 90
        2
 91
        1
300
_HEADER
309
CELLSTYLE_END
300
CELLSTYLE
  1
TABLEFORMAT_BEGIN
 90
        5
170
     1
 91
        0
 92
        0
 62
   257
 93
        1
300
CONTENTFORMAT
  1
CONTENTFORMAT_BEGIN
 90
        0
 91
        0
 92
        4
 93
        0
300

 40
0.0
140
1.0
 94
        2
 62
     0
340
11
144
4.5
309
CONTENTFORMAT_END
171
     1
301
MARGIN
  1
CELLMARGIN_BEGIN
 40
1.5
 40
1.5
 40
1.5
 40
1.5
 40
0.18
 40
0.18
309
CELLMARGIN_END
 94
        6
 95
        1
302
GRIDFORMAT
  1
GRIDFORMAT_BEGIN
 90
        0
 91
        1
 62
     0
 92
       -2
340
0
 93
        0
 40
0.045
309
GRIDFORMAT_END
 95
        2
302
GRIDFORMAT
  1
GRIDFORMAT_BEGIN
 90
        0
 91
        1
 62
     0
 92
       -2
340
0
 93
        0
 40
0.045
309
GRIDFORMAT_END
 95
        4
302
GRIDFORMAT
  1
GRIDFORMAT_BEGIN
 90
        0
 91
        1
 62
     0
 92
       -2
340
0
 93
        0
 40
0.045
309
GRIDFORMAT_END
 95
        8
302
GRIDFORMAT
  1
GRIDFORMAT_BEGIN
 90
        0
 91
        1
 62
     0
 92
       -2
340
0
 93
        0
 40
0.045
309
GRIDFORMAT_END
 95
       16
302
GRIDFORMAT
  1
GRIDFORMAT_BEGIN
 90
        0
 91
        1
 62
     0
 92
       -2
340
0
 93
        0
 40
0.045
309
GRIDFORMAT_END
 95
       32
302
GRIDFORMAT
  1
GRIDFORMAT_BEGIN
 90
        0
 91
        1
 62
     0
 92
       -2
340
0
 93
        0
 40
0.045
309
GRIDFORMAT_END
309
TABLEFORMAT_END
  1
CELLSTYLE_BEGIN
 90
        3
 91
        2
300
_DATA
309
CELLSTYLE_END
  0
ENDSEC
  0
SECTION
  2
ACDSDATA
 70
     2
 71
     8
  0
ACDSSCHEMA
 90
        0
  1
AcDb3DSolid_ASM_Data
  2
AcDbDs::ID
280
    10
 91
        8
  2
ASM_Data
280
    15
 91
        0
101
ACDSRECORD
 95
        0
 90
        1
  2
AcDbDs::TreatedAsObjectData
280
     1
291
     1
101
ACDSRECORD
 95
        0
 90
        2
  2
AcDbDs::Legacy
280
     1
291
     1
101
ACDSRECORD
  1
AcDbDs::ID
 90
        3
  2
AcDs:Indexable
280
     1
291
     1
101
ACDSRECORD
  1
AcDbDs::ID
 90
        4
  2
AcDbDs::HandleAttribute
280
     7
282
     1
  0
ACDSSCHEMA
 90
        1
  1
AcDbDs::TreatedAsObjectDataSchema
  2
AcDbDs::TreatedAsObjectData
280
     1
 91
        0
  0
ACDSSCHEMA
 90
        2
  1
AcDbDs::LegacySchema
  2
AcDbDs::Legacy
280
     1
 91
        0
  0
ACDSSCHEMA
 90
        3
  1
AcDbDs::IndexedPropertySchema
  2
AcDs:Indexable
280
     1
 91
        0
  0
ACDSSCHEMA
 90
        4
  1
AcDbDs::HandleAttributeSchema
  2
AcDbDs::HandleAttribute
280
     7
 91
        1
284
     1
  0
ACDSRECORD
 90
        0
  2
AcDbDs::ID
280
    10
320
71C
  2
ASM_Data
280
    15
 94
     3722
310
41534D2042696E61727946696C65341C57000000000000020000000400000007104175746F6465736B204175746F434144071441534D203232352E352E302E3635353335204E540718547565204A616E2020342030383A32393A3039203230323206000000000000F03F068DEDB5A0F7C6B03E06BBBDD7D9DF7CDB3D0D0961
310
736D6865616465720CFFFFFFFF04FFFFFFFF070D3232352E352E302E3635353335110D04626F64790CFFFFFFFF04FFFFFFFF0CFFFFFFFF0C020000000CFFFFFFFF0C03000000110D046C756D700CFFFFFFFF04FFFFFFFF0CFFFFFFFF0CFFFFFFFF0C040000000C01000000110D097472616E73666F726D0CFFFFFFFF04FFFF
310
FFFF14000000000000F03F00000000000000000000000000000000140000000000000000000000000000F03F00000000000000001400000000000000000000000000000000000000000000F03F1447EAD1AF24B786C0D2B7F74580D47FC0000000000000000006000000000000F03F0B0B0B110D057368656C6C0CFFFFFFFF
310
04FFFFFFFF0CFFFFFFFF0CFFFFFFFF0CFFFFFFFF0C050000000CFFFFFFFF0C02000000110D04666163650CFFFFFFFF04FFFFFFFF0CFFFFFFFF0CFFFFFFFF0C060000000C040000000CFFFFFFFF0C070000000B0A0B110D046C6F6F700CFFFFFFFF04FFFFFFFF0CFFFFFFFF0CFFFFFFFF0C080000000C05000000110E05706C
310
616E650D07737572666163650CFFFFFFFF04FFFFFFFF0CFFFFFFFF13C3E9685235E2864078CE76164F1C804000000000000000001400000000000000000000000000000000000000000000F03F14000000000000F03F000000000000000000000000000000000B0B0B0B0B110D06636F656467650CFFFFFFFF04FFFFFFFF0C
310
FFFFFFFF0C090000000C0A0000000CFFFFFFFF0C0B0000000A0C0600000004000000000CFFFFFFFF110D06636F656467650CFFFFFFFF04FFFFFFFF0CFFFFFFFF0C0C0000000C080000000CFFFFFFFF0C0D0000000A0C0600000004000000000CFFFFFFFF110D06636F656467650CFFFFFFFF04FFFFFFFF0CFFFFFFFF0C0800
310
00000C0E0000000CFFFFFFFF0C0F0000000B0C0600000004000000000CFFFFFFFF110D04656467650CFFFFFFFF04FFFFFFFF0CFFFFFFFF0C100000000600000000000000000C11000000060387DCE2DB2FFB3F0C080000000C120000000B0707756E6B6E6F776E110D06636F656467650CFFFFFFFF04FFFFFFFF0CFFFFFFFF
310
0C130000000C090000000CFFFFFFFF0C140000000A0C0600000004000000000CFFFFFFFF110D04656467650CFFFFFFFF04FFFFFFFF0CFFFFFFFF0C150000000600000000000000000C100000000690A368F8298123400C090000000C160000000B0707756E6B6E6F776E110D06636F656467650CFFFFFFFF04FFFFFFFF0CFF
310
FFFFFF0C0A0000000C170000000CFFFFFFFF0C180000000B0C0600000004000000000CFFFFFFFF110D04656467650CFFFFFFFF04FFFFFFFF0CFFFFFFFF0C1900000006182D4454FB2109C00C1100000006FBA21D663D29F9BF0C0A0000000C1A0000000B0707756E6B6E6F776E110D067665727465780CFFFFFFFF04FFFFFF
310
FF0CFFFFFFFF0C0B00000004000000000C1B000000110D067665727465780CFFFFFFFF04FFFFFFFF0CFFFFFFFF0C0B00000004010000000C1C000000110E0873747261696768740D0563757276650CFFFFFFFF04FFFFFFFF0CFFFFFFFF134C8E9C0B5CF4864062FA0B8599EA7F40000000000000000014D69C1FB5FCFFEFBF
310
1454F26646085D3F00000000000000000B0B110D06636F656467650CFFFFFFFF04FFFFFFFF0CFFFFFFFF0C1D0000000C0C0000000CFFFFFFFF0C1E0000000B0C0600000004000000000CFFFFFFFF110D04656467650CFFFFFFFF04FFFFFFFF0CFFFFFFFF0C1F00000006C226F16646086DBC0C15000000060487DCE2DB2FFB
310
3F0C0C0000000C200000000B0707756E6B6E6F776E110D067665727465780CFFFFFFFF04FFFFFFFF0CFFFFFFFF0C1400000004010000000C21000000110E0873747261696768740D0563757276650CFFFFFFFF04FFFFFFFF0CFFFFFFFF134C8E9C0B5CF48640BF9F676A514380400000000000000000140000000000000000
310
000000000000F0BF00000000000000000B0B110D06636F656467650CFFFFFFFF04FFFFFFFF0CFFFFFFFF0C0E0000000C220000000CFFFFFFFF0C230000000A0C0600000004000000000CFFFFFFFF110D04656467650CFFFFFFFF04FFFFFFFF0CFFFFFFFF0C240000000600000000000000000C1900000006003EEB96AA54DD
310
3F0C0E0000000C250000000B0707756E6B6E6F776E110D067665727465780CFFFFFFFF04FFFFFFFF0CFFFFFFFF0C0F00000004000000000C26000000110E07656C6C697073650D0563757276650CFFFFFFFF04FFFFFFFF0CFFFFFFFF13382DD937D0E6864061050C95FD0F8040000000000000000014000000000000000000
310
00000000000000000000000000F03F14ABAAAAAAAAAA0A400000000000000000000000000000000006000000000000F03F0B0B110D05706F696E740CFFFFFFFF04FFFFFFFF0CFFFFFFFF134C8E9C0B5CF4864062FA0B8599EA7F400000000000000000110D05706F696E740CFFFFFFFF04FFFFFFFF0CFFFFFFFF13FF2C111F
310
C4E68640BE803FDAA5EA7F400000000000000000110D06636F656467650CFFFFFFFF04FFFFFFFF0CFFFFFFFF0C270000000C130000000CFFFFFFFF0C280000000A0C0600000004000000000CFFFFFFFF110D04656467650CFFFFFFFF04FFFFFFFF0CFFFFFFFF0C1F00000006FBA21D663D29F93F0C2900000006182D4454FB
310
2109400C130000000C2A0000000B0707756E6B6E6F776E110D067665727465780CFFFFFFFF04FFFFFFFF0CFFFFFFFF0C1E00000004000000000C2B000000110E0873747261696768740D0563757276650CFFFFFFFF04FFFFFFFF0CFFFFFFFF13FF2C111FC4E6864091DCCD3F4B438040000000000000000014D79C1FB5FCFF
310
EF3FC226F16646085D3F00000000000000000B0B110D05706F696E740CFFFFFFFF04FFFFFFFF0CFFFFFFFF134C8E9C0B5CF48640BF9F676A514380400000000000000000110D06636F656467650CFFFFFFFF04FFFFFFFF0CFFFFFFFF0C170000000C270000000CFFFFFFFF0C2C0000000A0C0600000004000000000CFFFFFF
310
FF110D04656467650CFFFFFFFF04FFFFFFFF0CFFFFFFFF0C240000000600000000000000000C2D0000000600462DBAE24FFF3F0C170000000C2E0000000B0707756E6B6E6F776E110D067665727465780CFFFFFFFF04FFFFFFFF0CFFFFFFFF0C1800000004000000000C2F000000110E0873747261696768740D0563757276
310
650CFFFFFFFF04FFFFFFFF0CFFFFFFFF138E822E8D25CC8640C9E25E2AA81380400000000000000000140000000000000000000000000000F0BF00000000000000000B0B110D05706F696E740CFFFFFFFF04FFFFFFFF0CFFFFFFFF138E822E8D25CC864061050C95FD0F80400000000000000000110D06636F656467650CFF
310
FFFFFF04FFFFFFFF0CFFFFFFFF0C220000000C1D0000000CFFFFFFFF0C300000000B0C0600000004000000000CFFFFFFFF110D04656467650CFFFFFFFF04FFFFFFFF0CFFFFFFFF0C310000000600000000000000000C2900000006003EEB96AA54DD3F0C1D0000000C320000000B0707756E6B6E6F776E110D067665727465
310
780CFFFFFFFF04FFFFFFFF0CFFFFFFFF0C2800000004010000000C33000000110E07656C6C697073650D0563757276650CFFFFFFFF04FFFFFFFF0CFFFFFFFF13382DD937D0E686408F97E197A028804000000000000000001400000000000000000000000000000000000000000000F03F14ABAAAAAAAAAA0A400000000000
310
000000000000000000000006000000000000F03F0B0B110D05706F696E740CFFFFFFFF04FFFFFFFF0CFFFFFFFF13FF2C111FC4E6864091DCCD3F4B4380400000000000000000110D04656467650CFFFFFFFF04FFFFFFFF0CFFFFFFFF0C2D0000000600000000000000000C3400000006C05DD72FD84D01400C220000000C35
310
0000000B0707756E6B6E6F776E110D067665727465780CFFFFFFFF04FFFFFFFF0CFFFFFFFF0C2300000004010000000C36000000110E0873747261696768740D0563757276650CFFFFFFFF04FFFFFFFF0CFFFFFFFF138E822E8D25CC8640C9E25E2AA8138040000000000000000014000000000000F03F0000000000000000
310
00000000000000000B0B110D05706F696E740CFFFFFFFF04FFFFFFFF0CFFFFFFFF138E822E8D25CC8640C9E25E2AA81380400000000000000000110D04656467650CFFFFFFFF04FFFFFFFF0CFFFFFFFF0C310000000600000000000000000C340000000600462DBAE24FFF3F0C270000000C370000000B0707756E6B6E6F77
310
6E110D067665727465780CFFFFFFFF04FFFFFFFF0CFFFFFFFF0C3000000004000000000C38000000110E0873747261696768740D0563757276650CFFFFFFFF04FFFFFFFF0CFFFFFFFF138E822E8D25CC864027BA8E02F62480400000000000000000140000000000000000000000000000F03F00000000000000000B0B110D
310
05706F696E740CFFFFFFFF04FFFFFFFF0CFFFFFFFF138E822E8D25CC86408F97E197A02880400000000000000000110D067665727465780CFFFFFFFF04FFFFFFFF0CFFFFFFFF0C2C00000004010000000C39000000110E0873747261696768740D0563757276650CFFFFFFFF04FFFFFFFF0CFFFFFFFF1331998B7ECDDB8640
310
C9E25E2AA81380400000000000000000140000000000000000000000000000F03F00000000000000000B0B110D05706F696E740CFFFFFFFF04FFFFFFFF0CFFFFFFFF1331998B7ECDDB8640C9E25E2AA81380400000000000000000110E0873747261696768740D0563757276650CFFFFFFFF04FFFFFFFF0CFFFFFFFF138E82
310
2E8D25CC864027BA8E02F6248040000000000000000014000000000000F03F000000000000000000000000000000000B0B110D05706F696E740CFFFFFFFF04FFFFFFFF0CFFFFFFFF138E822E8D25CC864027BA8E02F62480400000000000000000110D05706F696E740CFFFFFFFF04FFFFFFFF0CFFFFFFFF1331998B7ECDDB
310
864027BA8E02F62480400000000000000000110E03456E640E026F660E0341534D0D0464617461
  0
ACDSRECORD
 90
        0
  2
AcDbDs::ID
280
    10
320
71D
  2
ASM_Data
280
    15
 94
     8186
310
41534D2042696E61727946696C65341C57000000000000020000000400000007104175746F6465736B204175746F434144071441534D203232352E352E302E3635353335204E540718547565204A616E2020342030383A32393A3039203230323206000000000000F03F068DEDB5A0F7C6B03E06BBBDD7D9DF7CDB3D0D0961
310
736D6865616465720CFFFFFFFF04FFFFFFFF070D3232352E352E302E3635353335110D04626F64790CFFFFFFFF04FFFFFFFF0CFFFFFFFF0C020000000CFFFFFFFF0C03000000110D046C756D700CFFFFFFFF04FFFFFFFF0CFFFFFFFF0CFFFFFFFF0C040000000C01000000110D097472616E73666F726D0CFFFFFFFF04FFFF
310
FFFF14000000000000F03F00000000000000000000000000000000140000000000000000000000000000F03F00000000000000001400000000000000000000000000000000000000000000F03F1447EAD1AF24B786C0D2B7F74580D47FC0000000000000000006000000000000F03F0B0B0B110D057368656C6C0CFFFFFFFF
310
04FFFFFFFF0CFFFFFFFF0CFFFFFFFF0CFFFFFFFF0C050000000CFFFFFFFF0C02000000110D04666163650CFFFFFFFF04FFFFFFFF0CFFFFFFFF0CFFFFFFFF0C060000000C040000000CFFFFFFFF0C070000000B0A0B110D046C6F6F700CFFFFFFFF04FFFFFFFF0CFFFFFFFF0CFFFFFFFF0C080000000C05000000110E05706C
310
616E650D07737572666163650CFFFFFFFF04FFFFFFFF0CFFFFFFFF1321C62A0966A48740A930B2154F1C804000000000000000001400000000000000000000000000000000000000000000F03F14000000000000F03F000000000000000000000000000000000B0B0B0B0B110D06636F656467650CFFFFFFFF04FFFFFFFF0C
310
FFFFFFFF0C090000000C0A0000000CFFFFFFFF0C0B0000000A0C0600000004000000000CFFFFFFFF110D06636F656467650CFFFFFFFF04FFFFFFFF0CFFFFFFFF0C0C0000000C080000000CFFFFFFFF0C0D0000000A0C0600000004000000000CFFFFFFFF110D06636F656467650CFFFFFFFF04FFFFFFFF0CFFFFFFFF0C0800
310
00000C0E0000000CFFFFFFFF0C0F0000000A0C0600000004000000000CFFFFFFFF110D04656467650CFFFFFFFF04FFFFFFFF0CFFFFFFFF0C100000000600000000000000000C1100000006202EBD1085B919400C080000000C120000000B0707756E6B6E6F776E110D06636F656467650CFFFFFFFF04FFFFFFFF0CFFFFFFFF
310
0C130000000C090000000CFFFFFFFF0C140000000A0C0600000004000000000CFFFFFFFF110D04656467650CFFFFFFFF04FFFFFFFF0CFFFFFFFF0C150000000600000000000000000C100000000680505B10B7F00C400C090000000C160000000B0707756E6B6E6F776E110D06636F656467650CFFFFFFFF04FFFFFFFF0CFF
310
FFFFFF0C0A0000000C170000000CFFFFFFFF0C180000000A0C0600000004000000000CFFFFFFFF110D04656467650CFFFFFFFF04FFFFFFFF0CFFFFFFFF0C110000000600000000000000000C190000000680505B10B7F00C400C0A0000000C1A0000000B0707756E6B6E6F776E110D067665727465780CFFFFFFFF04FFFFFF
310
FF0CFFFFFFFF0C0B00000004000000000C1B000000110D067665727465780CFFFFFFFF04FFFFFFFF0CFFFFFFFF0C0B00000004010000000C1C000000110E0873747261696768740D0563757276650CFFFFFFFF04FFFFFFFF0CFFFFFFFF1341C16194093687404A116691950280400000000000000000140000000000000000
310
000000000000F03F00000000000000000B0B110D06636F656467650CFFFFFFFF04FFFFFFFF0CFFFFFFFF0C1D0000000C0C0000000CFFFFFFFF0C1E0000000A0C0600000004000000000CFFFFFFFF110D04656467650CFFFFFFFF04FFFFFFFF0CFFFFFFFF0C1F0000000600000000000000000C1500000006801870A95D26F1
310
3F0C0C0000000C200000000B0707756E6B6E6F776E110D067665727465780CFFFFFFFF04FFFFFFFF0CFFFFFFFF0C1400000004010000000C21000000110E0873747261696768740D0563757276650CFFFFFFFF04FFFFFFFF0CFFFFFFFF13921C724BFA5287404A11669195028040000000000000000014000000000000F0BF
310
000000000000000000000000000000000B0B110D06636F656467650CFFFFFFFF04FFFFFFFF0CFFFFFFFF0C0E0000000C220000000CFFFFFFFF0C230000000A0C0600000004000000000CFFFFFFFF110D04656467650CFFFFFFFF04FFFFFFFF0CFFFFFFFF0C190000000600000000000000000C240000000680DDB06D5126F1
310
3F0C0E0000000C250000000B0707756E6B6E6F776E110D067665727465780CFFFFFFFF04FFFFFFFF0CFFFFFFFF0C0F00000004010000000C26000000110E0873747261696768740D0563757276650CFFFFFFFF04FFFFFFFF0CFFFFFFFF1341C1619409368740A78B879B08368040000000000000000014000000000000F03F
310
000000000000000000000000000000000B0B110D05706F696E740CFFFFFFFF04FFFFFFFF0CFFFFFFFF1341C16194093687404A116691950280400000000000000000110D05706F696E740CFFFFFFFF04FFFFFFFF0CFFFFFFFF1341C1619409368740A78B879B083680400000000000000000110D06636F656467650CFFFFFF
310
FF04FFFFFFFF0CFFFFFFFF0C270000000C130000000CFFFFFFFF0C280000000A0C0600000004000000000CFFFFFFFF110D04656467650CFFFFFFFF04FFFFFFFF0CFFFFFFFF0C290000000600000000000000000C1F00000006BC246660376316400C130000000C2A0000000B0707756E6B6E6F776E110D067665727465780C
310
FFFFFFFF04FFFFFFFF0CFFFFFFFF0C1E00000004010000000C2B000000110E0873747261696768740D0563757276650CFFFFFFFF04FFFFFFFF0CFFFFFFFF13921C724BFA5287407CB222C504F47F400000000000000000140000000000000000000000000000F03F00000000000000000B0B110D05706F696E740CFFFFFFFF
310
04FFFFFFFF0CFFFFFFFF13921C724BFA5287404A116691950280400000000000000000110D06636F656467650CFFFFFFFF04FFFFFFFF0CFFFFFFFF0C170000000C2C0000000CFFFFFFFF0C2D0000000A0C0600000004000000000CFFFFFFFF110D04656467650CFFFFFFFF04FFFFFFFF0CFFFFFFFF0C240000000600000000
310
000000000C2E00000006706E75CA366316400C170000000C2F0000000B0707756E6B6E6F776E110D067665727465780CFFFFFFFF04FFFFFFFF0CFFFFFFFF0C1800000004010000000C30000000110E0873747261696768740D0563757276650CFFFFFFFF04FFFFFFFF0CFFFFFFFF13921C724BFA528740A78B879B08368040
310
0000000000000000140000000000000000000000000000F03F00000000000000000B0B110D05706F696E740CFFFFFFFF04FFFFFFFF0CFFFFFFFF13921C724BFA528740A78B879B083680400000000000000000110D06636F656467650CFFFFFFFF04FFFFFFFF0CFFFFFFFF0C310000000C1D0000000CFFFFFFFF0C32000000
310
0A0C0600000004000000000CFFFFFFFF110D04656467650CFFFFFFFF04FFFFFFFF0CFFFFFFFF0C330000000600000000000000000C2900000006801870A95D26F13F0C1D0000000C340000000B0707756E6B6E6F776E110D067665727465780CFFFFFFFF04FFFFFFFF0CFFFFFFFF0C2800000004010000000C35000000110E
310
0873747261696768740D0563757276650CFFFFFFFF04FFFFFFFF0CFFFFFFFF13D03E1890EC7E87404A1166919502804000000000000000001448E308A95E68EFBF3C92E56F6F83C8BF00000000000000000B0B110D05706F696E740CFFFFFFFF04FFFFFFFF0CFFFFFFFF13921C724BFA5287407CB222C504F47F4000000000
310
00000000110D06636F656467650CFFFFFFFF04FFFFFFFF0CFFFFFFFF0C220000000C360000000CFFFFFFFF0C370000000A0C0600000004000000000CFFFFFFFF110D04656467650CFFFFFFFF04FFFFFFFF0CFFFFFFFF0C2E0000000600000000000000000C3800000006801870A95D26F13F0C220000000C390000000B0707
310
756E6B6E6F776E110D067665727465780CFFFFFFFF04FFFFFFFF0CFFFFFFFF0C2300000004010000000C3A000000110E0873747261696768740D0563757276650CFFFFFFFF04FFFFFFFF0CFFFFFFFF13921C724BFA52874015643EC49B3E8040000000000000000014FA21637B5F68EF3FB3E5A9975E83C8BF000000000000
310
00000B0B110D05706F696E740CFFFFFFFF04FFFFFFFF0CFFFFFFFF13921C724BFA52874015643EC49B3E80400000000000000000110D06636F656467650CFFFFFFFF04FFFFFFFF0CFFFFFFFF0C3B0000000C270000000CFFFFFFFF0C3C0000000A0C0600000004000000000CFFFFFFFF110D04656467650CFFFFFFFF04FFFF
310
FFFF0CFFFFFFFF0C3D0000000600000000000000000C3300000006B621FA74265615400C270000000C3E0000000B0707756E6B6E6F776E110D067665727465780CFFFFFFFF04FFFFFFFF0CFFFFFFFF0C3200000004010000000C3F000000110E0873747261696768740D0563757276650CFFFFFFFF04FFFFFFFF0CFFFFFFFF
310
13D03E1890EC7E87407CB222C504F47F400000000000000000140000000000000000000000000000F03F00000000000000000B0B110D05706F696E740CFFFFFFFF04FFFFFFFF0CFFFFFFFF13D03E1890EC7E87404A116691950280400000000000000000110D06636F656467650CFFFFFFFF04FFFFFFFF0CFFFFFFFF0C2C00
310
00000C400000000CFFFFFFFF0C410000000A0C0600000004000000000CFFFFFFFF110D04656467650CFFFFFFFF04FFFFFFFF0CFFFFFFFF0C380000000600000000000000000C4200000006B621FA74265615400C2C0000000C430000000B0707756E6B6E6F776E110D067665727465780CFFFFFFFF04FFFFFFFF0CFFFFFFFF
310
0C2D00000004010000000C44000000110E0873747261696768740D0563757276650CFFFFFFFF04FFFFFFFF0CFFFFFFFF13D03E1890EC7E8740A78B879B083680400000000000000000140000000000000000000000000000F03F00000000000000000B0B110D05706F696E740CFFFFFFFF04FFFFFFFF0CFFFFFFFF13D03E18
310
90EC7E8740A78B879B083680400000000000000000110D06636F656467650CFFFFFFFF04FFFFFFFF0CFFFFFFFF0C450000000C310000000CFFFFFFFF0C460000000A0C0600000004000000000CFFFFFFFF110D04656467650CFFFFFFFF04FFFFFFFF0CFFFFFFFF0C470000000600000000000000000C3D00000006801870A9
310
5D26F13F0C310000000C480000000B0707756E6B6E6F776E110D067665727465780CFFFFFFFF04FFFFFFFF0CFFFFFFFF0C3C00000004010000000C49000000110E0873747261696768740D0563757276650CFFFFFFFF04FFFFFFFF0CFFFFFFFF130B330909BAA887404A116691950280400000000000000000149DA53C6BE7
310
58EFBFD5FDDA5B90B8C9BF00000000000000000B0B110D05706F696E740CFFFFFFFF04FFFFFFFF0CFFFFFFFF13D03E1890EC7E87407CB222C504F47F400000000000000000110D06636F656467650CFFFFFFFF04FFFFFFFF0CFFFFFFFF0C360000000C4A0000000CFFFFFFFF0C4B0000000A0C0600000004000000000CFFFF
310
FFFF110D04656467650CFFFFFFFF04FFFFFFFF0CFFFFFFFF0C420000000600000000000000000C4C00000006801870A95D26F13F0C360000000C4D0000000B0707756E6B6E6F776E110D067665727465780CFFFFFFFF04FFFFFFFF0CFFFFFFFF0C3700000004010000000C4E000000110E0873747261696768740D05637572
310
76650CFFFFFFFF04FFFFFFFF0CFFFFFFFF13D03E1890EC7E8740B3435CCA9B3E80400000000000000000149DA53C6BE758EF3FD5FDDA5B90B8C9BF00000000000000000B0B110D05706F696E740CFFFFFFFF04FFFFFFFF0CFFFFFFFF13D03E1890EC7E8740B3435CCA9B3E80400000000000000000110D06636F656467650C
310
FFFFFFFF04FFFFFFFF0CFFFFFFFF0C4F0000000C3B0000000CFFFFFFFF0C500000000A0C0600000004000000000CFFFFFFFF110D04656467650CFFFFFFFF04FFFFFFFF0CFFFFFFFF0C510000000600000000000000000C470000000645348BE2265615400C3B0000000C520000000B0707756E6B6E6F776E110D0676657274
310
65780CFFFFFFFF04FFFFFFFF0CFFFFFFFF0C4600000004010000000C53000000110E0873747261696768740D0563757276650CFFFFFFFF04FFFFFFFF0CFFFFFFFF130B330909BAA887407CB222C504F47F400000000000000000140000000000000000000000000000F03F00000000000000000B0B110D05706F696E740CFF
310
FFFFFF04FFFFFFFF0CFFFFFFFF130B330909BAA887404A116691950280400000000000000000110D06636F656467650CFFFFFFFF04FFFFFFFF0CFFFFFFFF0C400000000C540000000CFFFFFFFF0C550000000A0C0600000004000000000CFFFFFFFF110D04656467650CFFFFFFFF04FFFFFFFF0CFFFFFFFF0C4C0000000600
310
000000000000000C560000000645348BE2265615400C400000000C570000000B0707756E6B6E6F776E110D067665727465780CFFFFFFFF04FFFFFFFF0CFFFFFFFF0C4100000004010000000C58000000110E0873747261696768740D0563757276650CFFFFFFFF04FFFFFFFF0CFFFFFFFF130B330909BAA88740A78B879B08
310
3680400000000000000000140000000000000000000000000000F03F00000000000000000B0B110D05706F696E740CFFFFFFFF04FFFFFFFF0CFFFFFFFF130B330909BAA88740A78B879B083680400000000000000000110D06636F656467650CFFFFFFFF04FFFFFFFF0CFFFFFFFF0C590000000C450000000CFFFFFFFF0C5A
310
0000000A0C0600000004000000000CFFFFFFFF110D04656467650CFFFFFFFF04FFFFFFFF0CFFFFFFFF0C5B0000000600000000000000000C5100000006801870A95D26F13F0C450000000C5C0000000B0707756E6B6E6F776E110D067665727465780CFFFFFFFF04FFFFFFFF0CFFFFFFFF0C5000000004010000000C5D0000
310
00110E0873747261696768740D0563757276650CFFFFFFFF04FFFFFFFF0CFFFFFFFF1381D9D98287D287404A1166919502804000000000000000001463A50272E758EFBFD124C6D78FB8C9BF00000000000000000B0B110D05706F696E740CFFFFFFFF04FFFFFFFF0CFFFFFFFF130B330909BAA887407CB222C504F47F4000
310
00000000000000110D06636F656467650CFFFFFFFF04FFFFFFFF0CFFFFFFFF0C4A0000000C5E0000000CFFFFFFFF0C5F0000000A0C0600000004000000000CFFFFFFFF110D04656467650CFFFFFFFF04FFFFFFFF0CFFFFFFFF0C560000000600000000000000000C6000000006801870A95D26F13F0C4A0000000C61000000
310
0B0707756E6B6E6F776E110D067665727465780CFFFFFFFF04FFFFFFFF0CFFFFFFFF0C4B00000004010000000C62000000110E0873747261696768740D0563757276650CFFFFFFFF04FFFFFFFF0CFFFFFFFF130B330909BAA88740B3435CCA9B3E804000000000000000001463A50272E758EF3FD124C6D78FB8C9BF000000
310
00000000000B0B110D05706F696E740CFFFFFFFF04FFFFFFFF0CFFFFFFFF130B330909BAA88740B3435CCA9B3E80400000000000000000110D06636F656467650CFFFFFFFF04FFFFFFFF0CFFFFFFFF0C630000000C4F0000000CFFFFFFFF0C640000000A0C0600000004000000000CFFFFFFFF110D04656467650CFFFFFFFF
310
04FFFFFFFF0CFFFFFFFF0C650000000600000000000000000C5B0000000685348BE2265615400C4F0000000C660000000B0707756E6B6E6F776E110D067665727465780CFFFFFFFF04FFFFFFFF0CFFFFFFFF0C5A00000004010000000C67000000110E0873747261696768740D0563757276650CFFFFFFFF04FFFFFFFF0CFF
310
FFFFFF1381D9D98287D287407CB222C504F47F400000000000000000140000000000000000000000000000F03F00000000000000000B0B110D05706F696E740CFFFFFFFF04FFFFFFFF0CFFFFFFFF1381D9D98287D287404A116691950280400000000000000000110D06636F656467650CFFFFFFFF04FFFFFFFF0CFFFFFFFF
310
0C540000000C680000000CFFFFFFFF0C690000000A0C0600000004000000000CFFFFFFFF110D04656467650CFFFFFFFF04FFFFFFFF0CFFFFFFFF0C600000000600000000000000000C6A00000006EA59ADBD275615400C540000000C6B0000000B0707756E6B6E6F776E110D067665727465780CFFFFFFFF04FFFFFFFF0CFF
310
FFFFFF0C5500000004010000000C6C000000110E0873747261696768740D0563757276650CFFFFFFFF04FFFFFFFF0CFFFFFFFF1381D9D98287D28740A78B879B083680400000000000000000140000000000000000000000000000F03F00000000000000000B0B110D05706F696E740CFFFFFFFF04FFFFFFFF0CFFFFFFFF13
310
81D9D98287D28740A78B879B083680400000000000000000110D06636F656467650CFFFFFFFF04FFFFFFFF0CFFFFFFFF0C6D0000000C590000000CFFFFFFFF0C6E0000000A0C0600000004000000000CFFFFFFFF110D04656467650CFFFFFFFF04FFFFFFFF0CFFFFFFFF0C6F0000000600000000000000000C650000000608
310
32EAEDE870F23F0C590000000C700000000B0707756E6B6E6F776E110D067665727465780CFFFFFFFF04FFFFFFFF0CFFFFFFFF0C6400000004010000000C71000000110E0873747261696768740D0563757276650CFFFFFFFF04FFFFFFFF0CFFFFFFFF13F77FAAFC54FC87404A1166919502804000000000000000001468A5
310
0272E758EFBF8624C6D78FB8C9BF00000000000000000B0B110D05706F696E740CFFFFFFFF04FFFFFFFF0CFFFFFFFF1381D9D98287D287407CB222C504F47F400000000000000000110D06636F656467650CFFFFFFFF04FFFFFFFF0CFFFFFFFF0C5E0000000C720000000CFFFFFFFF0C730000000A0C060000000400000000
310
0CFFFFFFFF110D04656467650CFFFFFFFF04FFFFFFFF0CFFFFFFFF0C6A0000000600000000000000000C74000000062D32D5E5E670F23F0C5E0000000C750000000B0707756E6B6E6F776E110D067665727465780CFFFFFFFF04FFFFFFFF0CFFFFFFFF0C5F00000004010000000C76000000110E0873747261696768740D05
310
63757276650CFFFFFFFF04FFFFFFFF0CFFFFFFFF1381D9D98287D28740B3435CCA9B3E8040000000000000000014B9A38E7FE758EF3F0E829CCF8EB8C9BF00000000000000000B0B110D05706F696E740CFFFFFFFF04FFFFFFFF0CFFFFFFFF1381D9D98287D28740B3435CCA9B3E80400000000000000000110D06636F6564
310
67650CFFFFFFFF04FFFFFFFF0CFFFFFFFF0C720000000C630000000CFFFFFFFF0C770000000A0C0600000004000000000CFFFFFFFF110D04656467650CFFFFFFFF04FFFFFFFF0CFFFFFFFF0C780000000600000000000000000C6F00000006E3E9195D8269F33F0C630000000C790000000B0707756E6B6E6F776E110D0676
310
65727465780CFFFFFFFF04FFFFFFFF0CFFFFFFFF0C6E00000004010000000C7A000000110E0873747261696768740D0563757276650CFFFFFFFF04FFFFFFFF0CFFFFFFFF13C4C00FF9B001884019808059160A8040000000000000000014D09746448099E2BFD101B92F1B0AEABF00000000000000000B0B110D05706F696E
310
740CFFFFFFFF04FFFFFFFF0CFFFFFFFF13F77FAAFC54FC87404A116691950280400000000000000000110D06636F656467650CFFFFFFFF04FFFFFFFF0CFFFFFFFF0C680000000C6D0000000CFFFFFFFF0C7B0000000A0C0600000004000000000CFFFFFFFF110D04656467650CFFFFFFFF04FFFFFFFF0CFFFFFFFF0C740000
310
000600000000000000000C7C00000006C984B1858E69F33F0C680000000C7D0000000B0707756E6B6E6F776E110D067665727465780CFFFFFFFF04FFFFFFFF0CFFFFFFFF0C6900000004010000000C7E000000110E0873747261696768740D0563757276650CFFFFFFFF04FFFFFFFF0CFFFFFFFF136DE469FE54FC8740A78B
310
879B08368040000000000000000014530425407C99E23F1388190E1E0AEABF00000000000000000B0B110D05706F696E740CFFFFFFFF04FFFFFFFF0CFFFFFFFF136DE469FE54FC8740A78B879B083680400000000000000000110D04656467650CFFFFFFFF04FFFFFFFF0CFFFFFFFF0C7F0000000600000000000000000C78
310
000000060DC67E84603820400C6D0000000C800000000B0707756E6B6E6F776E110D067665727465780CFFFFFFFF04FFFFFFFF0CFFFFFFFF0C7700000004010000000C81000000110E0873747261696768740D0563757276650CFFFFFFFF04FFFFFFFF0CFFFFFFFF13C22935939E0088408AEF11E8BB138040000000000000
310
000014E0ADE5454F45BC3F341F1904E5CDEFBF00000000000000000B0B110D05706F696E740CFFFFFFFF04FFFFFFFF0CFFFFFFFF13C4C00FF9B001884019808059160A80400000000000000000110D04656467650CFFFFFFFF04FFFFFFFF0CFFFFFFFF0C7C0000000600000000000000000C7F000000069C05265860382040
310
0C720000000C820000000B0707756E6B6E6F776E110D067665727465780CFFFFFFFF04FFFFFFFF0CFFFFFFFF0C7300000004010000000C83000000110E0873747261696768740D0563757276650CFFFFFFFF04FFFFFFFF0CFFFFFFFF13C4C00FF9B0018840D71C6DD3872E8040000000000000000014A157F0903D45BCBF96
310
620E43E5CDEFBF00000000000000000B0B110D05706F696E740CFFFFFFFF04FFFFFFFF0CFFFFFFFF13C4C00FF9B0018840D71C6DD3872E80400000000000000000110D067665727465780CFFFFFFFF04FFFFFFFF0CFFFFFFFF0C7B00000004010000000C84000000110E0873747261696768740D0563757276650CFFFFFFFF
310
04FFFFFFFF0CFFFFFFFF13CAFF93C44EC087405BF506164F1C8040000000000000000014AD85E07C23B8EF3F324D9F3CC0EAC0BF00000000000000000B0B110D05706F696E740CFFFFFFFF04FFFFFFFF0CFFFFFFFF13C22935939E0088408AEF11E8BB1380400000000000000000110E0873747261696768740D0563757276
310
650CFFFFFFFF04FFFFFFFF0CFFFFFFFF13C22935939E008840CACDBD3EE2248040000000000000000014AA4899D323B8EFBFACEEF612B6EAC0BF00000000000000000B0B110D05706F696E740CFFFFFFFF04FFFFFFFF0CFFFFFFFF13C22935939E008840CACDBD3EE22480400000000000000000110D05706F696E740CFFFF
310
FFFF04FFFFFFFF0CFFFFFFFF13CAFF93C44EC087405BF506164F1C80400000000000000000110E03456E640E026F660E0341534D0D0464617461
  0
ENDSEC
  0
EOF

